osu file format v14

[General]
AudioFilename: Weekend Clock.mp3
AudioLeadIn: 0
PreviewTime: 139622
Countdown: 0
SampleSet: None
StackLeniency: 0.7
Mode: 0
LetterboxInBreaks: 1
WidescreenStoryboard: 0

[Editor]
DistanceSpacing: 0.8
BeatDivisor: 4
GridSize: 8
TimelineZoom: 1

[Metadata]
Title:Weekend Clock
TitleUnicode:Weekend Clock
Artist:XL Project
ArtistUnicode:XL Project
Creator:C R E A M
Version:Easy
Source:Touhou
Tags:patchouli knowledge chata locked girl
BeatmapID:102856
BeatmapSetID:29422

[Difficulty]
HPDrainRate:3
CircleSize:3
OverallDifficulty:3
ApproachRate:4
SliderMultiplier:1.2
SliderTickRate:1

[Events]
//Background and Video events
0,0,"BG.jpg",0,0
//Break Periods
2,94350,105938
2,124586,136174
2,185058,196647
//Storyboard Layer 0 (Background)
//Storyboard Layer 1 (Fail)
//Storyboard Layer 2 (Pass)
//Storyboard Layer 3 (Foreground)
//Storyboard Layer 4 (Overlay)
//Storyboard Sound Samples

[TimingPoints]
16670,472.44094488189,4,2,1,75,1,0
33441,-100,4,2,1,60,0,0
63914,-100,4,2,1,80,0,0
76906,-100,4,2,2,100,0,0
78795,-100,4,2,1,80,0,0
92024,-100,4,2,2,100,0,0
106906,-100,4,2,1,60,0,0
114465,-100,4,2,2,85,0,0
115410,-100,4,2,1,60,0,0
122260,-100,4,2,2,80,0,0
124150,-100,4,2,2,45,0,0
137142,-100,4,2,1,80,0,0
167614,-100,4,2,2,100,0,0
169504,-100,4,2,1,80,0,0
197614,-100,4,2,2,80,0,0
200449,-100,4,2,1,80,0,0
214356,-100,4,2,0,60,0,0
214858,-100,4,2,1,85,0,0
227142,-100,4,2,2,100,0,0
229977,-100,4,2,1,50,0,0

[Colours]
Combo1 : 255,128,128
Combo2 : 255,255,128
Combo3 : 175,211,254
Combo4 : 249,244,186

[HitObjects]
104,136,16670,6,0,B|160:24|352:24|415:153,1,360,8|2,0:0|0:0,0:0:0:0:
328,192,18559,1,8,0:0:0:0:
144,248,19504,1,0,0:0:0:0:
328,312,20449,2,0,B|448:312,3,120,8|0|0|0,0:0|0:0|0:0|0:0,0:0:0:0:
464,216,22339,5,4,0:0:0:0:
272,216,23284,2,0,B|272:96,3,120
192,48,25173,2,0,B|128:48|64:112,1,120,0|2,0:0|0:0,0:0:0:0:
80,192,26118,5,8,0:0:0:0:
256,272,27063,1,0,0:0:0:0:
150,111,28008,2,0,B|206:47|318:47|379:128,1,240,8|0,0:0|0:0,0:0:0:0:
312,192,29425,1,0,0:0:0:0:
256,272,29898,1,4,0:0:0:0:
64,272,30843,5,0,0:0:0:0:
120,192,31316,1,0,0:0:0:0:
184,120,31788,2,0,B|304:120,3,120
368,192,33677,5,4,0:0:0:0:
256,352,34622,1,0,0:0:0:0:
144,192,35567,1,8,0:0:0:0:
256,32,36512,1,0,0:0:0:0:
312,215,37457,2,0,B|256:255|200:215,4,120,8|0|0|0|4,0:0|0:0|0:0|0:0|0:0,0:0:0:0:
168,88,40292,5,0,0:0:0:0:
256,40,40764,1,0,0:0:0:0:
344,88,41236,1,8,0:0:0:0:
256,256,42181,5,0,0:0:0:0:
256,160,42654,1,0,0:0:0:0:
344,208,43126,2,0,B|440:168|504:296|424:352,2,240,8|2|8,0:0|0:0|0:0,0:0:0:0:
312,296,45488,5,0,0:0:0:0:
216,296,45961,1,0,0:0:0:0:
120,296,46433,1,0,0:0:0:0:
120,200,46906,2,0,B|120:128|184:88,1,120,8|0,0:0|0:0,0:0:0:0:
264,96,47851,2,0,B|384:96,2,120,0|2|8,0:0|0:0|0:0,0:0:0:0:
256,288,49740,5,0,0:0:0:0:
424,192,50685,1,0,0:0:0:0:
256,96,51630,1,0,0:0:0:0:
88,192,52575,1,8,0:0:0:0:
88,288,53047,2,0,B|160:304|216:240,3,120,0|0|0|4,0:0|0:0|0:0|0:0,0:0:0:0:
256,72,55410,1,0,0:0:0:0:
256,264,56355,6,0,B|384:264,1,120,8|0,0:0|0:0,0:0:0:0:
344,176,57299,2,0,B|224:176,1,120
189,86,58244,2,0,B|125:142|125:238|189:302,2,240,8|2|4,0:0|0:0|0:0,0:0:0:0:
256,192,61079,12,8,63914,0:0:0:0:
96,72,64858,6,0,B|96:320,1,240,0|8,0:0|0:0,0:0:0:0:
288,304,66748,2,0,B|376:320|456:256|480:176,1,240,0|8,0:0|0:0,0:0:0:0:
320,72,68638,2,0,B|448:72,1,120,0|2,0:0|0:0,0:0:0:0:
392,152,69583,2,0,B|256:152,1,120,0|2,0:0|0:0,0:0:0:0:
224,72,70528,2,0,B|144:64|136:160,2,120,8|0|8,0:0|0:0|0:0,0:0:0:0:
136,248,72418,6,0,B|272:248,1,120
352,248,73362,1,8,0:0:0:0:
352,152,73835,2,0,B|328:96|248:88,3,120,0|0|0|4,0:0|0:0|0:0|0:0,0:0:0:0:
256,184,75725,1,0,0:0:0:0:
192,256,76197,2,0,B|136:296|80:256,1,120
136,176,77142,6,0,B|136:40,3,120,8|8|8|8,0:0|0:0|0:0|0:0,0:0:0:0:
232,56,79032,1,4,0:0:0:0:
368,192,79977,1,0,0:0:0:0:
232,328,80921,1,8,0:0:0:0:
96,192,81866,6,0,B|96:320,2,120,0|0|8,0:0|0:0|0:0,0:0:0:0:
192,192,83284,1,0,0:0:0:0:
197,96,83756,2,0,B|257:60|326:103,1,120
400,128,84701,5,0,0:0:0:0:
472,192,85173,1,0,0:0:0:0:
400,256,85646,1,0,0:0:0:0:
256,128,86591,1,4,0:0:0:0:
256,320,87536,5,0,0:0:0:0:
400,192,88481,2,0,B|400:64,1,120,8|0,0:0|0:0,0:0:0:0:
312,104,89425,1,0,0:0:0:0:
256,184,89898,1,0,0:0:0:0:
200,104,90370,1,8,0:0:0:0:
144,184,90843,2,0,B|88:224|88:288,2,120,0|2|0,0:0|0:0|0:0,0:0:0:0:
184,272,92260,2,0,B|304:272,3,120,8|8|8|8,0:0|0:0|0:0|0:0,0:0:0:0:
256,184,94150,1,2,0:0:0:0:
256,192,107378,12,8,109268,0:0:0:0:
256,72,110213,5,0,0:0:0:0:
408,192,111158,1,0,0:0:0:0:
256,304,112103,1,0,0:0:0:0:
192,232,112575,1,2,0:0:0:0:
120,294,113047,2,0,B|48:246|48:134|120:86,2,240,8|2|2,0:0|0:0|0:0,0:0:0:0:
312,288,115882,5,0,0:0:0:0:
312,96,116827,1,8,0:0:0:0:
480,192,117772,2,0,B|360:192,1,120,0|2,0:0|0:0,0:0:0:0:
264,192,118717,2,0,B|240:128|160:136,1,120,8|2,0:0|0:0,0:0:0:0:
136,48,119662,2,0,B|56:56|64:152,1,120,0|2,0:0|0:0,0:0:0:0:
104,216,120607,6,0,B|166:294|256:328|358:292|415:213,1,360,8|4,0:0|0:0,0:0:0:0:
320,192,122496,2,0,B|272:136|328:64,3,120,8|8|8|8,0:0|0:0|0:0|0:0,0:0:0:0:
400,136,124386,1,2,0:0:0:0:
256,192,137614,12,8,139504,0:0:0:0:
256,336,140449,6,0,B|200:328|152:264,1,120
104,192,141394,1,8,0:0:0:0:
256,72,142339,1,0,0:0:0:0:
408,192,143284,5,8,0:0:0:0:
312,192,143756,2,0,B|160:192,2,120,0|2|0,0:0|0:0|0:0,0:0:0:0:
296,95,145173,2,0,B|248:32|133:32|79:103,2,240,8|0|4,0:0|0:0|0:0,0:0:0:0:
160,232,148008,6,0,B|152:296|192:344,2,120,0|2|8,0:0|0:0|0:0,0:0:0:0:
208,152,149425,1,0,0:0:0:0:
304,152,149898,1,0,0:0:0:0:
352,232,150370,2,0,B|360:296|320:344,1,120,0|4,0:0|0:0,0:0:0:0:
256,192,151315,12,4,154622,0:0:0:0:
40,192,155567,6,0,B|160:192,1,120
256,192,156512,1,8,0:0:0:0:
448,192,157457,2,0,B|480:48,2,120,0|2|8,0:0|0:0|0:0,0:0:0:0:
312,327,159347,2,0,B|253:281|192:336,1,120,2|0,0:0|0:0,0:0:0:0:
136,256,160292,1,8,0:0:0:0:
256,104,161236,1,0,0:0:0:0:
344,272,162181,6,0,B|368:352|464:368|488:288|456:216,2,240,8|0|8,0:0|0:0|0:0,0:0:0:0:
256,104,165016,1,0,0:0:0:0:
256,200,165488,1,0,0:0:0:0:
200,272,165961,6,0,B|176:352|80:368|56:288|88:216,2,240,8|0|8,0:0|0:0|0:0,0:0:0:0:
256,352,168323,1,8,0:0:0:0:
328,288,168795,1,8,0:0:0:0:
400,224,169268,1,8,0:0:0:0:
360,136,169740,1,4,0:0:0:0:
168,96,170685,6,0,B|128:40|48:48,2,120,2|0|4,0:0|0:0|0:0,0:0:0:0:
168,288,172575,2,0,B|128:344|48:336,2,120,2|0|4,0:0|0:0|0:0,0:0:0:0:
176,192,173992,2,0,B|320:192,1,120,0|2,0:0|0:0,0:0:0:0:
392,192,174937,1,0,0:0:0:0:
392,288,175410,1,8,0:0:0:0:
392,96,176355,1,0,0:0:0:0:
256,232,177299,5,8,0:0:0:0:
256,328,177772,1,0,0:0:0:0:
171,283,178244,2,0,B|140:235|140:146|175:106,1,180,0|2,0:0|0:0,0:0:0:0:
312,112,179662,1,0,0:0:0:0:
408,136,180134,2,0,B|448:192|406:253,2,120,0|0|4,0:0|0:0|0:0,0:0:0:0:
256,192,181551,12,8,184858,0:0:0:0:
256,192,198087,12,2,199977,0:0:0:0:
256,72,200921,5,0,0:0:0:0:
408,192,201866,1,0,0:0:0:0:
256,312,202811,1,0,0:0:0:0:
80,240,203756,6,0,B|56:176|80:96|168:96|224:152,2,240,0|2|0,0:0|0:0|0:0,0:0:0:0:
136,320,206118,2,0,B|280:320,1,120,4|0,0:0|0:0,0:0:0:0:
200,240,207063,2,0,B|328:240,1,120,0|8,0:0|0:0,0:0:0:0:
440,88,208481,5,0,0:0:0:0:
256,48,209425,1,0,0:0:0:0:
72,88,210370,1,0,0:0:0:0:
150,263,211315,2,0,B|206:327|308:327|378:252,1,240,8|0,0:0|0:0,0:0:0:0:
304,192,212732,1,0,0:0:0:0:
316,96,213205,2,0,B|256:61|181:105,3,120,8|2|8|4,0:0|0:0|0:0|0:0,0:0:0:0:
104,96,215095,5,8,0:0:0:0:
104,288,216040,1,0,0:0:0:0:
295,298,216984,2,0,B|359:242|359:130|279:82,2,240,8|0|4,0:0|0:0|0:0,0:0:0:0:
456,192,219819,5,0,0:0:0:0:
456,96,220292,1,0,0:0:0:0:
360,96,220764,2,0,B|216:96,2,120,8|2|0,0:0|0:0|0:0,0:0:0:0:
360,192,222181,1,4,0:0:0:0:
360,288,222654,6,0,B|304:272|256:328|200:368|128:312,1,240,8|0,0:0|0:0,0:0:0:0:
192,240,224071,1,0,0:0:0:0:
256,168,224544,1,4,0:0:0:0:
64,192,225488,1,0,0:0:0:0:
200,56,226433,2,0,B|256:96|319:50,1,120,8|0,0:0|0:0,0:0:0:0:
392,104,227378,6,0,B|456:131|468:194,1,120
368,192,228323,1,8,0:0:0:0:
272,192,228795,1,8,0:0:0:0:
176,192,229268,2,0,B|56:192,2,120,8|2|4,0:0|0:0|0:0,0:0:0:0:
