osu file format v14

[General]
AudioFilename: audio.mp3
AudioLeadIn: 0
PreviewTime: 42947
Countdown: 0
SampleSet: None
StackLeniency: 0.2
Mode: 0
LetterboxInBreaks: 0
WidescreenStoryboard: 1

[Editor]
Bookmarks: 4509,102947,114947
DistanceSpacing: 0.8
BeatDivisor: 4
GridSize: 8
TimelineZoom: 2.9

[Metadata]
Title:Dicks out for Harambe
TitleUnicode:Dicks out for Harambe
Artist:XAVLEGBMAOFFFASSSSITIMIWOAMNDUTROABCWAPWAEIIPPOHFFFX
ArtistUnicode:XAVLEGBMAOFFFASSSSITIMIWOAMNDUTROABCWAPWAEIIPPOHFFFX
Creator:OliBomby
Version:Easy
Source:
Tags:Brutal Death Metal Memes
BeatmapID:1656571
BeatmapSetID:789227

[Difficulty]
HPDrainRate:0
CircleSize:4
OverallDifficulty:8
ApproachRate:10
SliderMultiplier:3.59999990463257
SliderTickRate:1

[Events]
//Background and Video events
0,0,"DA6we2ZXgAAiIDl.jpg",0,0
//Break Periods
//Storyboard Layer 0 (Background)
//Storyboard Layer 1 (Fail)
//Storyboard Layer 2 (Pass)
//Storyboard Layer 3 (Foreground)
//Storyboard Sound Samples

[TimingPoints]
197,187.5,4,3,5,100,1,0
197,-100,4,3,5,100,0,0
947,-200,4,3,7,100,0,0
11072,-166.666666666667,4,3,7,100,0,0
12572,-125,4,3,7,100,0,0
12947,-125,4,3,5,100,0,0
18197,-500,4,3,5,100,0,0
18947,-500,4,3,4,100,0,0
25697,-50,4,3,4,100,0,0
25743,-50,4,3,4,5,0,0
25790,-100,4,3,4,100,0,0
25837,-100,4,3,4,5,0,0
25884,-100,4,3,4,100,0,0
25931,-100,4,3,4,5,0,0
25978,-50,4,3,4,100,0,0
26025,-100,4,3,4,5,0,0
26072,-50,4,3,4,100,0,0
26118,-100,4,3,4,5,0,0
26165,-66.6666666666667,4,3,4,100,0,0
26212,-100,4,3,4,5,0,0
26259,-100,4,3,4,100,0,0
26306,-100,4,3,4,5,0,0
26353,-133.333333333333,4,3,4,100,0,0
26400,-100,4,3,4,5,0,0
26447,-50,4,3,4,100,0,0
26493,-100,4,3,4,5,0,0
26540,-100,4,3,4,100,0,0
26587,-100,4,3,4,5,0,0
26634,-133.333333333333,4,3,4,100,0,0
26681,-100,4,3,4,5,0,0
26728,-50,4,3,4,100,0,0
26775,-100,4,3,4,5,0,0
26822,-50,4,3,4,100,0,0
26868,-100,4,3,4,5,0,0
26915,-66.6666666666667,4,3,4,100,0,0
26962,-100,4,3,4,5,0,0
27009,-100,4,3,4,100,0,0
27056,-100,4,3,4,5,0,0
27103,-50,4,3,4,100,0,0
27150,-100,4,3,4,5,0,0
27197,-50,4,3,4,100,0,0
27243,-100,4,3,4,5,0,0
27290,-100,4,3,4,100,0,0
27337,-100,4,3,4,5,0,0
27384,-100,4,3,4,100,0,0
27431,-100,4,3,4,5,0,0
27478,-66.6666666666667,4,3,4,100,0,0
27525,-100,4,3,4,5,0,0
27572,-50,4,3,4,100,0,0
27618,-100,4,3,4,5,0,0
27665,-100,4,3,4,100,0,0
27712,-100,4,3,4,5,0,0
27759,-222.222222222221,4,3,4,100,0,0
27806,-100,4,3,4,5,0,0
27853,-133.333333333333,4,3,4,100,0,0
27900,-100,4,3,4,5,0,0
27947,-399.999999999997,4,3,4,100,0,0
27993,-100,4,3,4,5,0,0
28040,-399.999999999997,4,3,4,100,0,0
28087,-100,4,3,4,5,0,0
28134,-399.999999999997,4,3,4,100,0,0
28181,-100,4,3,4,5,0,0
28228,-133.333333333333,4,3,4,100,0,0
28275,-100,4,3,4,5,0,0
28322,-50,4,3,4,100,0,0
28368,-100,4,3,4,5,0,0
28415,-50,4,3,4,100,0,0
28462,-100,4,3,4,5,0,0
28509,-66.6666666666667,4,3,4,100,0,0
28556,-100,4,3,4,5,0,0
28603,-133.333333333333,4,3,4,100,0,0
28650,-100,4,3,4,5,0,0
28697,-133.333333333333,4,3,4,100,0,0
28743,-100,4,3,4,5,0,0
28790,-50,4,3,4,100,0,0
28837,-100,4,3,4,5,0,0
28884,-50,4,3,4,100,0,0
28931,-100,4,3,4,5,0,0
28978,-50,4,3,4,100,0,0
29025,-100,4,3,4,5,0,0
29072,-66.6666666666667,4,3,4,100,0,0
29118,-100,4,3,4,5,0,0
29165,-133.333333333333,4,3,4,100,0,0
29212,-100,4,3,4,5,0,0
29259,-133.333333333333,4,3,4,100,0,0
29306,-100,4,3,4,5,0,0
29353,-133.333333333333,4,3,4,100,0,0
29400,-100,4,3,4,5,0,0
29447,-133.333333333333,4,3,5,100,0,0
30009,-133.333333333333,4,3,8,100,0,0
30197,-133.333333333333,4,3,5,100,0,0
30900,-133.333333333333,4,3,5,5,0,0
30947,-133.333333333333,4,3,5,100,0,0
31697,-399.999999999997,4,3,5,100,0,0
36947,-285.714285714284,4,3,5,100,0,0
41447,-66.6666666666667,4,3,7,100,0,0
41634,-100,4,3,7,100,0,0
41822,-133.333333333333,4,3,7,100,0,0
42009,-133.333333333333,4,3,5,100,0,0
42947,-55.5555555555556,4,3,7,100,0,0
43322,-153.846153846153,4,3,7,100,0,0
44447,-86.9565217391301,4,3,7,100,0,0
45009,-153.846153846154,4,3,7,100,0,0
45572,-65.7894736842105,4,3,7,100,0,0
45947,-63.6942675159236,4,3,7,100,0,0
46509,-181.818181818182,4,3,7,100,0,0
48947,-55.5555555555556,4,3,7,100,0,0
49322,-153.846153846154,4,3,7,100,0,0
50447,-57.4712643678161,4,3,7,100,0,0
51197,-153.846153846154,4,3,7,100,0,0
52697,-117.64705882353,4,3,7,100,0,0
54947,-400.000000000006,4,3,5,50,0,0
58322,-400.000000000006,4,3,7,50,0,0
58697,-400.000000000006,4,3,5,50,0,0
59634,-400.000000000006,4,3,8,50,0,0
59822,-285.714285714289,4,3,5,50,0,0
60197,-285.714285714289,4,3,8,50,0,0
60384,-285.714285714289,4,3,5,50,0,0
60572,-666.666666666667,4,3,5,50,0,0
60900,-500,4,3,5,5,0,0
60947,-400,4,3,5,50,0,0
62447,-434.782608695652,4,3,5,50,0,0
63197,-400,4,3,5,50,0,0
64322,-400,4,3,7,50,0,0
64697,-400,4,3,5,50,0,0
65634,-400,4,3,8,50,0,0
65822,-400,4,3,5,50,0,0
66197,-400,4,3,8,50,0,0
66384,-400,4,3,5,50,0,0
66572,-666.666666666667,4,3,5,50,0,0
66900,-666.666666666667,4,3,5,5,0,0
66947,-666.666666666667,4,3,5,50,0,0
67697,-400,4,3,5,50,0,0
70322,-400,4,3,7,50,0,0
71447,-400,4,3,5,35,0,0
71822,-400,4,3,7,50,0,0
72947,-400,4,3,5,50,0,0
74072,-666.666666666667,4,3,5,50,0,0
74400,-666.666666666667,4,3,5,5,0,0
74447,-344.827586206897,4,3,7,50,0,0
75947,-400,4,3,5,50,0,0
76322,-400,4,3,7,50,0,0
76697,-400,4,3,5,50,0,0
77634,-400,4,3,8,50,0,0
77822,-400,4,3,5,50,0,0
78197,-400,4,3,8,50,0,0
78384,-400,4,3,5,50,0,0
78572,-666.666666666667,4,3,5,50,0,0
78900,-666.666666666667,4,3,5,5,0,0
78947,-222.222222222222,4,3,5,70,0,0
79228,-222.222222222222,4,3,5,5,0,0
79322,-222.222222222222,4,3,5,70,0,0
79603,-222.222222222222,4,3,5,5,0,0
79697,-222.222222222222,4,3,5,70,0,0
82228,-222.222222222222,4,3,5,5,0,0
82322,-222.222222222222,4,3,5,70,0,0
85228,-222.222222222222,4,3,5,5,0,0
85322,-222.222222222222,4,3,5,70,0,0
85603,-222.222222222222,4,3,5,5,0,0
85697,-222.222222222222,4,3,5,70,0,0
88228,-222.222222222222,4,3,5,5,0,0
88322,-222.222222222222,4,3,5,70,0,0
88603,-222.222222222222,4,3,5,5,0,0
88697,-222.222222222222,4,3,5,70,0,0
89353,-222.222222222222,4,3,5,5,0,0
89447,-222.222222222222,4,3,8,70,0,0
89634,-222.222222222222,4,3,5,70,0,0
90947,-153.846153846154,4,3,5,70,0,0
91040,-153.846153846154,4,3,5,5,0,0
91134,-153.846153846154,4,3,5,70,0,0
91228,-153.846153846154,4,3,5,5,0,0
91509,-153.846153846154,4,3,5,70,0,0
91603,-153.846153846154,4,3,5,5,0,0
91697,-153.846153846154,4,3,5,70,0,0
91790,-153.846153846154,4,3,5,5,0,0
92072,-153.846153846154,4,3,5,70,0,0
92165,-153.846153846154,4,3,5,5,0,0
92259,-153.846153846154,4,3,5,70,0,0
92353,-153.846153846154,4,3,5,5,0,0
92634,-285.714285714287,4,3,5,70,0,0
92681,-153.846153846154,4,3,5,5,0,0
92822,-285.714285714287,4,3,5,70,0,0
92868,-153.846153846154,4,3,5,5,0,0
93009,-285.714285714287,4,3,5,70,0,0
93056,-153.846153846154,4,3,5,5,0,0
93197,-285.714285714287,4,3,5,70,0,0
93243,-153.846153846154,4,3,5,5,0,0
93384,-285.714285714287,4,3,5,70,0,0
93431,-153.846153846154,4,3,5,5,0,0
93572,-117.64705882353,4,3,5,70,0,0
93759,-153.846153846154,4,3,5,5,0,0
93947,-117.64705882353,4,3,5,70,0,0
94040,-153.846153846154,4,3,5,5,0,0
94134,-117.64705882353,4,3,5,70,0,0
94228,-153.846153846154,4,3,5,5,0,0
94509,-117.64705882353,4,3,5,70,0,0
94603,-153.846153846154,4,3,5,5,0,0
94697,-117.64705882353,4,3,5,70,0,0
94790,-153.846153846154,4,3,5,5,0,0
95072,-117.64705882353,4,3,5,70,0,0
95165,-153.846153846154,4,3,5,5,0,0
95259,-117.64705882353,4,3,5,70,0,0
95353,-153.846153846154,4,3,5,5,0,0
95634,-285.714285714287,4,3,5,70,0,0
95681,-153.846153846154,4,3,5,5,0,0
95822,-285.714285714287,4,3,5,70,0,0
95868,-153.846153846154,4,3,5,5,0,0
96009,-285.714285714287,4,3,5,70,0,0
96056,-153.846153846154,4,3,5,5,0,0
96197,-285.714285714287,4,3,5,70,0,0
96243,-153.846153846154,4,3,5,5,0,0
96384,-285.714285714287,4,3,5,70,0,0
96431,-153.846153846154,4,3,5,5,0,0
96572,-95.2380952380954,4,3,5,70,0,0
96759,-153.846153846154,4,3,5,5,0,0
96947,-153.846153846154,4,3,5,70,0,0
97040,-153.846153846154,4,3,5,5,0,0
97134,-153.846153846154,4,3,5,70,0,0
97603,-153.846153846154,4,3,5,5,0,0
97697,-153.846153846154,4,3,5,70,0,0
98165,-153.846153846154,4,3,5,5,0,0
98259,-153.846153846154,4,3,5,70,0,0
98634,-400.000000000003,4,3,5,70,0,0
98681,-153.846153846154,4,3,5,5,0,0
98822,-285.714285714287,4,3,5,70,0,0
98868,-153.846153846154,4,3,5,5,0,0
99009,-222.222222222223,4,3,5,70,0,0
99056,-153.846153846154,4,3,5,5,0,0
99197,-181.818181818182,4,3,5,70,0,0
99243,-153.846153846154,4,3,5,5,0,0
99384,-285.714285714287,4,3,5,70,0,0
99431,-153.846153846154,4,3,5,5,0,0
99572,-100,4,3,5,70,0,0
99759,-153.846153846154,4,3,5,5,0,0
99947,-125,4,3,5,70,0,0
100040,-153.846153846154,4,3,5,5,0,0
100134,-62.5,4,3,5,70,0,0
100228,-153.846153846154,4,3,5,5,0,0
100509,-125,4,3,5,70,0,0
100603,-153.846153846154,4,3,5,5,0,0
100697,-125,4,3,5,70,0,0
100790,-153.846153846154,4,3,5,5,0,0
101072,-125,4,3,5,70,0,0
101165,-153.846153846154,4,3,5,5,0,0
101259,-83.3333333333333,4,3,5,70,0,0
101447,-153.846153846154,4,3,5,5,0,0
101634,-250,4,3,5,70,0,0
101681,-250,4,3,5,5,0,0
101822,-250,4,3,5,70,0,0
101868,-250,4,3,5,5,0,0
102009,-250,4,3,5,70,0,0
102056,-250,4,3,5,5,0,0
102197,-250,4,3,5,70,0,0
102243,-250,4,3,5,5,0,0
102384,-250,4,3,5,50,0,0
102431,-250,4,3,5,5,0,0
102572,-250,4,3,5,30,0,0
102618,-250,4,3,5,5,0,0
102947,-250,4,3,4,100,0,0
113447,-133.333333333333,4,3,5,100,0,0
114009,-133.333333333333,4,3,8,100,0,0
114197,-133.333333333333,4,3,5,100,0,0

[Colours]
Combo1 : 39,39,39
Combo2 : 227,233,135
Combo3 : 170,174,179
Combo4 : 49,131,221

[HitObjects]
71,237,197,6,0,L|0:292,11,89.9999976158143,0|0|0|0|0|0|0|0|0|0|0|0,0:1|0:1|0:1|0:1|0:1|0:1|0:1|0:1|0:1|0:1|0:1|0:1,0:0:0:0:
115,312,759,5,8,0:1:0:0:
163,314,806,1,8,0:1:0:0:
213,318,853,1,8,0:1:0:0:
262,320,900,1,8,0:1:0:0:
299,320,947,2,0,L|283:272,7,44.9999988079071,6|0|0|0|0|0|0|0,0:1|0:1|0:1|0:1|0:1|0:1|0:1|0:1,0:0:0:0:
373,275,1322,2,0,L|389:227,7,44.9999988079071,10|0|0|0|0|0|0|0,0:1|0:1|0:1|0:1|0:1|0:1|0:1|0:1,0:0:0:0:
304,174,1697,5,12,0:1:0:0:
298,172,1743,1,0,0:1:0:0:
293,170,1790,1,0,0:1:0:0:
288,167,1837,1,0,0:1:0:0:
284,163,1884,1,0,0:1:0:0:
280,159,1931,1,0,0:1:0:0:
277,154,1978,1,0,0:1:0:0:
275,149,2025,1,0,0:1:0:0:
274,145,2072,2,0,L|274:100,7,44.9999988079071,10|0|0|0|0|0|0|0,0:1|0:1|0:1|0:1|0:1|0:1|0:1|0:1,0:0:0:0:
209,174,2447,2,0,L|164:174,7,44.9999988079071,10|0|0|0|0|0|0|0,0:1|0:1|0:1|0:1|0:1|0:1|0:1|0:1,0:0:0:0:
238,239,2822,2,0,L|238:284,7,44.9999988079071,10|0|0|0|0|0|0|0,0:1|0:1|0:1|0:1|0:1|0:1|0:1|0:1,0:0:0:0:
149,303,3197,5,12,0:1:0:0:
132,300,3243,1,0,0:1:0:0:
116,294,3290,1,0,0:1:0:0:
101,287,3337,1,0,0:1:0:0:
87,277,3384,1,0,0:1:0:0:
75,266,3431,1,0,0:1:0:0:
64,253,3478,1,0,0:1:0:0:
56,238,3525,1,0,0:1:0:0:
48,221,3572,2,0,L|97:217,7,44.9999988079071,10|0|0|0|0|0|0|0,0:1|0:1|0:1|0:1|0:1|0:1|0:1|0:1,0:0:0:0:
102,132,3947,2,0,L|61:113,7,44.9999988079071,10|0|0|0|0|0|0|0,0:1|0:1|0:1|0:1|0:1|0:1|0:1|0:1,0:0:0:0:
152,63,4322,2,0,L|126:26,7,44.9999988079071,10|0|0|0|0|0|0|0,0:1|0:1|0:1|0:1|0:1|0:1|0:1|0:1,0:0:0:0:
225,100,4697,5,12,0:1:0:0:
234,93,4743,1,0,0:1:0:0:
243,87,4790,1,0,0:1:0:0:
253,81,4837,1,0,0:1:0:0:
262,75,4884,1,0,0:1:0:0:
271,68,4931,1,0,0:1:0:0:
281,62,4978,1,0,0:1:0:0:
290,56,5025,1,0,0:1:0:0:
300,49,5072,2,0,P|322:62|337:91,7,44.9999988079071,10|0|0|0|0|0|0|0,0:1|0:1|0:1|0:1|0:1|0:1|0:1|0:1,0:0:0:0:
371,76,5447,2,0,P|384:98|382:130,7,44.9999988079071,10|0|0|0|0|0|0|0,0:1|0:1|0:1|0:1|0:1|0:1|0:1|0:1,0:0:0:0:
413,149,5822,2,0,P|413:175|395:202,7,44.9999988079071,10|0|0|0|0|0|0|0,0:1|0:1|0:1|0:1|0:1|0:1|0:1|0:1,0:0:0:0:
228,266,6197,5,12,0:1:0:0:
224,261,6243,1,0,0:1:0:0:
220,257,6290,1,0,0:1:0:0:
216,253,6337,1,0,0:1:0:0:
213,249,6384,1,0,0:1:0:0:
209,244,6431,1,0,0:1:0:0:
205,240,6478,1,0,0:1:0:0:
202,236,6525,1,0,0:1:0:0:
198,232,6572,2,0,L|249:222,7,44.9999988079071,10|0|0|0|0|0|0|0,0:1|0:1|0:1|0:1|0:1|0:1|0:1|0:1,0:0:0:0:
249,122,6947,2,0,L|232:171,7,44.9999988079071,10|0|0|0|0|0|0|0,0:1|0:1|0:1|0:1|0:1|0:1|0:1|0:1,0:0:0:0:
320,221,7322,2,0,L|286:182,7,44.9999988079071,10|0|0|0|0|0|0|0,0:1|0:1|0:1|0:1|0:1|0:1|0:1|0:1,0:0:0:0:
281,307,7697,5,12,0:1:0:0:
292,309,7743,1,0,0:1:0:0:
303,311,7790,1,0,0:1:0:0:
314,313,7837,1,0,0:1:0:0:
325,316,7884,1,0,0:1:0:0:
336,318,7931,1,0,0:1:0:0:
347,320,7978,1,0,0:1:0:0:
358,322,8025,1,0,0:1:0:0:
372,326,8072,2,0,L|366:272,7,44.9999988079071,10|0|0|0|0|0|0|0,0:1|0:1|0:1|0:1|0:1|0:1|0:1|0:1,0:0:0:0:
449,232,8447,2,0,L|443:286,7,44.9999988079071,10|0|0|0|0|0|0|0,0:1|0:1|0:1|0:1|0:1|0:1|0:1|0:1,0:0:0:0:
359,204,8822,2,0,L|353:150,7,44.9999988079071,10|0|0|0|0|0|0|0,0:1|0:1|0:1|0:1|0:1|0:1|0:1|0:1,0:0:0:0:
412,71,9197,5,12,0:1:0:0:
408,68,9244,1,0,0:1:0:0:
403,64,9291,1,0,0:1:0:0:
399,60,9338,1,0,0:1:0:0:
396,56,9385,1,0,0:1:0:0:
392,52,9432,1,0,0:1:0:0:
389,47,9479,1,0,0:1:0:0:
387,42,9526,1,0,0:1:0:0:
385,37,9572,2,0,P|417:27|440:5,7,44.9999988079071,10|0|0|0|0|0|0|0,0:1|0:1|0:1|0:1|0:1|0:1|0:1|0:1,0:0:0:0:
298,44,9947,2,0,P|299:10|285:-18,7,44.9999988079071,10|0|0|0|0|0|0|0,0:1|0:1|0:1|0:1|0:1|0:1|0:1|0:1,0:0:0:0:
287,122,10322,2,0,P|255:110|223:114,7,44.9999988079071,10|0|0|0|0|0|0|0,0:1|0:1|0:1|0:1|0:1|0:1|0:1|0:1,0:0:0:0:
246,184,10697,5,12,0:1:0:0:
230,190,10743,1,0,0:1:0:0:
213,193,10790,1,0,0:1:0:0:
197,194,10837,1,0,0:1:0:0:
180,193,10884,1,0,0:1:0:0:
164,188,10931,1,0,0:1:0:0:
148,181,10978,1,0,0:1:0:0:
134,172,11025,1,0,0:1:0:0:
121,161,11072,6,0,B|134:131|134:131|162:125,7,53.9999969215394,10|0|0|0|0|0|0|0,0:1|0:1|0:1|0:1|0:1|0:1|0:1|0:1,0:0:0:0:
46,191,11447,2,0,B|16:178|16:178|10:150,7,53.9999969215394,10|0|0|0|0|0|0|0,0:1|0:1|0:1|0:1|0:1|0:1|0:1|0:1,0:0:0:0:
37,270,11822,2,0,B|24:300|24:300|-4:306,7,53.9999969215394,10|0|0|0|0|0|0|0,0:1|0:1|0:1|0:1|0:1|0:1|0:1|0:1,0:0:0:0:
157,272,12197,5,12,0:1:0:0:
168,278,12243,1,0,0:1:0:0:
179,286,12290,1,0,0:1:0:0:
189,295,12337,1,0,0:1:0:0:
198,305,12384,1,0,0:1:0:0:
206,316,12431,1,0,0:1:0:0:
212,328,12478,1,0,0:1:0:0:
217,340,12525,1,0,0:1:0:0:
221,354,12572,5,10,0:1:0:0:
221,336,12618,1,8,0:1:0:0:
221,318,12665,1,8,0:1:0:0:
221,300,12712,1,8,0:1:0:0:
221,282,12759,1,8,0:1:0:0:
221,264,12806,1,8,0:1:0:0:
221,246,12853,1,8,0:1:0:0:
221,228,12900,1,8,0:1:0:0:
221,210,12947,5,10,0:1:0:0:
374,344,13134,1,2,0:1:0:0:
48,0,13322,6,0,B|55:70|55:70|121:149,1,143.999996185303,10|0,0:1|0:1,0:0:0:0:
460,384,13509,2,0,B|453:314|453:314|387:235,1,143.999996185303,2|0,0:1|0:1,0:0:0:0:
24,360,13697,2,0,L|159:246,1,143.999996185303,10|0,0:1|0:1,0:0:0:0:
454,0,13884,2,0,L|319:114,1,143.999996185303,2|0,0:1|0:1,0:0:0:0:
303,384,14072,2,0,P|328:296|311:201,1,143.999996185303,10|0,0:1|0:1,0:0:0:0:
203,0,14259,2,0,P|178:88|195:183,1,143.999996185303,2|0,0:1|0:1,0:0:0:0:
134,354,14447,5,10,0:1:0:0:
221,240,14540,1,0,0:1:0:0:
309,126,14634,1,0,0:1:0:0:
397,12,14728,1,0,0:1:0:0:
481,147,14822,5,8,0:1:0:0:
362,226,14915,1,0,0:1:0:0:
90,183,15009,1,2,0:1:0:0:
221,240,15103,1,0,0:1:0:0:
304,356,15197,5,4,0:1:0:0:
302,335,15290,1,4,0:1:0:0:
300,316,15384,2,0,L|286:147,1,143.999996185303,0|0,0:1|0:1,0:0:0:0:
328,18,15572,5,8,0:1:0:0:
216,27,15665,1,8,0:1:0:0:
377,126,15759,5,8,0:1:0:0:
186,142,15853,1,8,0:1:0:0:
489,278,15947,5,0,0:1:0:0:
489,278,15993,1,2,0:1:0:0:
489,278,16040,1,0,0:1:0:0:
231,371,16134,1,0,0:1:0:0:
185,384,16322,5,2,0:1:0:0:
200,352,16368,1,0,0:1:0:0:
225,325,16415,1,0,0:1:0:0:
255,306,16462,1,0,0:1:0:0:
289,297,16509,5,8,0:1:0:0:
241,294,16556,1,8,0:1:0:0:
193,292,16603,1,8,0:1:0:0:
145,290,16650,1,8,0:1:0:0:
97,288,16697,1,2,0:1:0:0:
97,306,16743,1,0,0:1:0:0:
98,322,16790,1,2,0:1:0:0:
96,210,16884,1,2,0:1:0:0:
96,180,17072,5,8,0:1:0:0:
363,234,17165,1,8,0:1:0:0:
93,48,17259,5,8,0:1:0:0:
384,121,17353,1,8,0:1:0:0:
234,149,17447,5,2,0:1:0:0:
242,161,17634,1,2,0:1:0:0:
250,173,17822,1,2,0:1:0:0:
258,184,18009,5,8,0:1:0:0:
317,223,18056,1,8,0:1:0:0:
388,230,18103,1,8,0:1:0:0:
454,203,18150,1,8,0:1:0:0:
501,149,18197,5,2,0:1:0:0:
491,132,18243,1,0,0:1:0:0:
473,122,18290,1,0,0:1:0:0:
454,124,18337,1,0,0:1:0:0:
437,135,18384,1,0,0:1:0:0:
430,154,18431,1,0,0:1:0:0:
434,174,18478,1,0,0:1:0:0:
447,188,18525,1,0,0:1:0:0:
467,158,18572,5,12,0:1:0:0:
274,245,18947,5,0,0:3:0:0:
247,204,19040,1,0,0:1:0:0:
223,254,19134,1,0,0:1:0:0:
288,241,19228,1,0,0:1:0:0:
233,199,19322,1,0,0:1:0:0:
235,267,19415,1,0,0:1:0:0:
290,226,19509,1,0,0:1:0:0:
221,213,19603,1,0,0:1:0:0:
320,224,19697,5,2,0:1:0:0:
254,127,19790,1,2,0:1:0:0:
195,248,19884,1,2,0:1:0:0:
353,216,19978,1,2,0:1:0:0:
221,112,20072,1,2,0:1:0:0:
224,277,20165,1,2,0:1:0:0:
357,179,20259,1,2,0:1:0:0:
190,147,20353,1,2,0:1:0:0:
271,227,20447,5,2,0:3:0:0:
265,188,20540,1,0,0:1:0:0:
236,202,20634,1,0,0:1:0:0:
253,239,20728,1,0,0:1:0:0:
292,187,20822,1,0,0:1:0:0:
241,181,20915,1,0,0:1:0:0:
230,241,21009,1,0,0:1:0:0:
283,215,21103,1,0,0:1:0:0:
226,122,21197,5,2,0:1:0:0:
206,275,21290,1,2,0:1:0:0:
349,205,21384,1,2,0:1:0:0:
264,119,21478,1,2,0:1:0:0:
176,246,21572,1,2,0:1:0:0:
335,260,21665,1,2,0:1:0:0:
304,133,21759,1,2,0:1:0:0:
155,196,21853,1,2,0:1:0:0:
279,232,21947,5,2,0:3:0:0:
272,184,22040,1,0,0:1:0:0:
241,225,22134,1,0,0:1:0:0:
307,213,22228,1,0,0:1:0:0:
247,186,22322,1,0,0:1:0:0:
268,240,22415,1,0,0:1:0:0:
298,193,22509,1,0,0:1:0:0:
236,206,22603,1,0,0:1:0:0:
304,254,22697,5,2,0:1:0:0:
287,129,22790,1,2,0:1:0:0:
204,234,22884,1,2,0:1:0:0:
376,203,22978,1,2,0:1:0:0:
223,134,23072,1,2,0:1:0:0:
274,276,23165,1,2,0:1:0:0:
353,152,23259,1,2,0:1:0:0:
192,184,23353,1,2,0:1:0:0:
281,171,23447,5,2,0:3:0:0:
257,229,23540,1,0,0:1:0:0:
258,168,23634,1,0,0:1:0:0:
281,226,23728,1,0,0:1:0:0:
237,184,23822,1,0,0:1:0:0:
299,202,23915,1,0,0:1:0:0:
235,213,24009,1,0,0:1:0:0:
294,183,24103,1,0,0:1:0:0:
175,170,24197,5,2,0:1:0:0:
318,229,24290,1,2,0:1:0:0:
166,228,24384,1,2,0:1:0:0:
310,168,24478,1,2,0:1:0:0:
206,279,24572,1,2,0:1:0:0:
252,124,24665,1,2,0:1:0:0:
277,285,24759,1,2,0:1:0:0:
204,139,24853,1,2,0:1:0:0:
234,222,24947,5,2,0:3:0:0:
277,185,25040,1,0,0:1:0:0:
272,230,25134,1,0,0:1:0:0:
248,193,25228,1,0,0:1:0:0:
304,193,25322,1,0,0:1:0:0:
280,245,25415,1,0,0:1:0:0:
256,183,25509,1,0,0:1:0:0:
316,231,25603,1,0,0:1:0:0:
153,151,25697,6,0,B|151:174|174:206|178:204|221:154|230:165|238:206|224:221|245:240,1,89.9999976158143,2|0,0:1|0:0,0:0:0:0:
349,112,25790,2,0,B|328:118|329:118|348:138|350:139|307:138|308:135|307:116|322:151|337:155,1,44.9999988079071,2|0,0:1|0:0,0:0:0:0:
232,281,25884,2,0,B|222:264|222:264|236:256|236:256|223:237|209:250|206:243,1,44.9999988079071,2|0,0:1|0:0,0:0:0:0:
256,103,25978,2,0,B|257:147|246:125|269:141|242:170|241:156|270:183|273:212,1,89.9999976158143,2|0,0:1|0:0,0:0:0:0:
326,247,26072,2,0,B|285:266|290:254|280:220|237:247|236:265|229:254,1,89.9999976158143,2|0,0:1|0:0,0:0:0:0:
179,129,26165,2,0,B|208:139|180:157|172:163|178:177|192:172|198:190|181:185|190:191,1,67.5000007867814,2|0,0:1|0:0,0:0:0:0:
267,282,26259,2,0,B|262:275|263:273|272:260|258:244|269:236|268:227|274:251,1,44.9999988079071,2|0,0:1|0:0,0:0:0:0:
128,254,26353,2,0,B|125:260|140:262|148:259|136:237|148:237|162:241|155:248,1,33.7500003933907,2|0,0:1|0:0,0:0:0:0:
284,204,26447,6,0,B|304:175|319:169|324:134|247:140|245:171|300:170|292:141|273:172,1,89.9999976158143,2|0,0:1|0:0,0:0:0:0:
230,215,26540,2,0,B|228:235|240:246|248:232|211:232|266:255|255:217,1,44.9999988079071,2|0,0:1|0:0,0:0:0:0:
246,137,26634,2,0,B|256:148|256:148|243:167|216:161,1,33.7500003933907,2|0,0:1|0:0,0:0:0:0:
272,248,26728,2,0,B|286:271|288:271|320:266|327:269|333:285|336:285|343:284|359:282,1,89.9999976158143,2|0,0:1|0:0,0:0:0:0:
176,166,26822,2,0,B|153:180|154:182|164:199|166:206|143:211|154:221|167:228|177:237|180:238|180:237,1,89.9999976158143,2|0,0:1|0:0,0:0:0:0:
281,183,26915,2,0,B|259:189|259:189|241:212|280:232|246:227|246:243|245:253,1,67.5000007867814,2|0,0:1|0:0,0:0:0:0:
223,282,27009,2,0,B|222:244|222:241|225:214,1,67.4999982118607,2|0,0:1|0:0,0:0:0:0:
318,111,27103,2,0,B|276:141|285:134|266:172|300:155|325:156|304:178|303:195,1,89.9999976158143,2|0,0:1|0:0,0:0:0:0:
255,259,27197,6,0,B|239:230|238:226|228:182|187:177|239:168|238:205,1,89.9999976158143,2|0,0:1|0:0,0:0:0:0:
383,167,27290,2,0,B|366:177|363:193|392:220|376:225|371:225,1,67.4999982118607,2|0,0:1|0:0,0:0:0:0:
235,120,27384,2,0,B|221:127|219:110|214:107|173:112|172:114,1,44.9999988079071,2|0,0:1|0:0,0:0:0:0:
178,280,27478,2,0,B|205:269|211:268|224:260|200:228|221:229|229:240|232:243,1,67.5000007867814,2|0,0:1|0:0,0:0:0:0:
307,173,27572,2,0,B|314:208|302:222|309:244|335:254|344:250|345:254,1,89.9999976158143,2|0,0:1|0:0,0:0:0:0:
189,190,27665,2,0,B|216:186|218:186|232:202,1,44.9999988079071,2|0,0:1|0:0,0:0:0:0:
272,248,27759,2,0,B|269:223|269:223|272:215,1,30.3749982683659,2|0,0:1|0:0,0:0:0:0:
257,141,27853,2,0,P|221:159|219:168,1,50.625000590086,2|0,0:1|0:0,0:0:0:0:
193,240,27947,6,0,L|206:229,1,16.8749995529652,2|0,0:1|0:0,0:0:0:0:
294,210,28040,2,0,B|287:204|287:204|277:205,1,11.2499997019768,2|0,0:1|0:0,0:0:0:0:
217,194,28134,2,0,L|231:204,1,11.2499997019768,2|0,0:1|0:0,0:0:0:0:
282,265,28228,2,0,B|265:253|265:253|253:235,1,33.7500003933907,2|0,0:1|0:0,0:0:0:0:
174,124,28322,2,0,B|149:130|145:136|129:188|143:203|105:201,1,89.9999976158143,2|0,0:1|0:0,0:0:0:0:
228,276,28415,2,0,B|189:269|190:269|207:251|166:248|144:258|148:269,1,89.9999976158143,2|0,0:1|0:0,0:0:0:0:
343,234,28509,2,0,B|346:211|346:211|363:253|375:192,1,67.5000007867814,2|0,0:1|0:0,0:0:0:0:
266,195,28603,2,0,B|265:216|265:216|274:237,1,33.7500003933907,2|0,0:1|0:0,0:0:0:0:
347,275,28697,6,0,L|308:281,1,33.7500003933907,2|0,0:1|0:0,0:0:0:0:
180,237,28790,2,0,B|191:215|191:212|152:161|140:211|153:224|187:175,1,89.9999976158143,2|0,0:1|0:0,0:0:0:0:
309,110,28884,2,0,B|277:121|273:122|329:155|337:122|368:141|365:141,1,89.9999976158143,2|0,0:1|0:0,0:0:0:0:
300,252,28978,2,0,P|314:199|363:188,1,89.9999976158143,2|0,0:1|0:0,0:0:0:0:
220,155,29072,2,0,B|210:175|211:176|233:185|222:204|221:209|219:225,1,67.5000007867814,2|0,0:1|0:0,0:0:0:0:
241,282,29165,2,0,L|234:245,1,33.7500003933907,2|0,0:1|0:0,0:0:0:0:
170,155,29259,2,0,L|177:192,1,33.7500003933907,2|0,0:1|0:0,0:0:0:0:
136,269,29353,2,0,L|128:223,1,33.7500003933907,2|0,0:1|0:0,0:0:0:0:
0,104,29447,5,4,0:1:0:0:
35,48,29493,1,0,0:1:0:0:
98,30,29540,1,0,0:1:0:0:
158,58,29587,1,0,0:1:0:0:
185,120,29634,1,0,0:1:0:0:
199,129,29681,1,0,0:1:0:0:
213,138,29728,1,0,0:1:0:0:
227,147,29775,1,0,0:1:0:0:
242,156,29822,1,0,0:1:0:0:
272,170,29868,1,0,0:1:0:0:
305,178,29915,1,0,0:1:0:0:
338,177,29962,1,0,0:1:0:0:
371,169,30009,5,4,0:1:0:0:
321,124,30056,1,4,0:1:0:0:
254,109,30103,1,0,0:1:0:0:
195,125,30150,1,4,0:1:0:0:
155,161,30197,1,0,0:1:0:0:
136,203,30243,1,0,0:1:0:0:
132,243,30290,1,0,0:1:0:0:
138,276,30337,1,0,0:1:0:0:
150,300,30384,1,0,0:1:0:0:
176,331,30431,1,0,0:1:0:0:
228,345,30478,1,0,0:1:0:0:
273,315,30525,1,0,0:1:0:0:
217,266,30572,6,0,B|236:235|219:183|236:194|291:217|316:258|384:229|403:200|429:343|309:352|487:358|485:214|352:144|488:332|263:290|484:131|508:142|440:47,1,472.50000550747,12|0,0:1|0:1,0:0:0:0:
401,31,30947,5,2,0:1:0:0:
51,69,31134,1,2,0:1:0:0:
388,112,31322,1,2,0:1:0:0:
35,159,31509,1,2,0:1:0:0:
292,356,31697,5,4,0:1:0:0:
286,340,31790,1,0,0:1:0:0:
280,324,31884,1,0,0:1:0:0:
274,308,31978,1,0,0:1:0:0:
268,292,32072,1,0,0:1:0:0:
263,276,32165,1,0,0:1:0:0:
257,260,32259,1,0,0:1:0:0:
251,245,32353,1,0,0:1:0:0:
176,260,32447,5,2,0:1:0:0:
476,129,32634,1,2,0:1:0:0:
212,384,32822,1,2,0:1:0:0:
318,45,33009,1,2,0:1:0:0:
503,257,33197,5,4,0:1:0:0:
492,258,33290,1,0,0:1:0:0:
481,257,33384,1,0,0:1:0:0:
470,256,33478,1,0,0:1:0:0:
459,253,33572,1,0,0:1:0:0:
448,250,33665,1,0,0:1:0:0:
438,245,33759,1,0,0:1:0:0:
429,239,33853,1,0,0:1:0:0:
426,163,33947,5,2,0:1:0:0:
103,358,34134,1,2,0:1:0:0:
174,48,34322,1,2,0:1:0:0:
400,370,34509,1,2,0:1:0:0:
52,273,34697,5,4,0:1:0:0:
41,241,34790,1,0,0:1:0:0:
41,207,34884,1,0,0:1:0:0:
52,175,34978,1,0,0:1:0:0:
72,149,35072,1,0,0:1:0:0:
101,131,35165,1,0,0:1:0:0:
133,122,35259,1,0,0:1:0:0:
167,125,35353,1,0,0:1:0:0:
228,195,35447,5,2,0:1:0:0:
0,384,35634,1,2,0:1:0:0:
512,248,35822,1,10,0:1:0:0:
129,90,36009,5,8,0:1:0:0:
228,195,36103,1,8,0:1:0:0:
327,300,36197,5,10,0:1:0:0:
293,302,36290,1,0,0:1:0:0:
260,296,36384,1,0,0:1:0:0:
230,280,36478,1,0,0:1:0:0:
206,257,36572,1,2,0:1:0:0:
262,258,36665,1,0,0:1:0:0:
319,259,36759,1,2,0:1:0:0:
375,260,36853,1,0,0:1:0:0:
433,350,36947,6,0,L|370:349,1,62.9999964084627,2|0,0:1|0:1,0:0:0:0:
308,171,37134,2,0,L|370:171,1,62.9999964084627,2|0,0:1|0:1,0:0:0:0:
497,301,37322,2,0,P|510:330|510:373,1,62.9999964084627,2|0,0:1|0:1,0:0:0:0:
244,220,37509,2,0,P|231:191|231:148,1,62.9999964084627,2|0,0:1|0:1,0:0:0:0:
427,0,37697,5,6,0:1:0:0:
428,7,37790,1,2,0:1:0:0:
429,15,37884,1,2,0:1:0:0:
430,23,37978,1,2,0:1:0:0:
431,31,38072,1,2,0:1:0:0:
432,39,38165,1,2,0:1:0:0:
433,46,38259,1,2,0:1:0:0:
434,54,38353,1,2,0:1:0:0:
469,90,38447,5,2,0:1:0:0:
251,0,38634,1,2,0:1:0:0:
438,227,38822,2,0,P|470:192|485:154,1,62.9999964084627,2|0,0:1|0:1,0:0:0:0:
176,56,39009,2,0,P|143:90|128:128,1,62.9999964084627,2|0,0:1|0:1,0:0:0:0:
209,384,39197,5,6,0:1:0:0:
206,368,39290,1,2,0:1:0:0:
203,353,39384,1,2,0:1:0:0:
200,337,39478,1,2,0:1:0:0:
197,322,39572,1,2,0:1:0:0:
194,306,39665,1,2,0:1:0:0:
191,291,39759,1,2,0:1:0:0:
188,275,39853,1,2,0:1:0:0:
129,236,39947,6,0,L|202:270,1,62.9999964084627,2|0,0:1|0:1,0:0:0:0:
323,150,40134,2,0,L|249:115,1,62.9999964084627,2|0,0:1|0:1,0:0:0:0:
79,164,40322,2,0,P|52:197|42:247,1,62.9999964084627,2|0,0:1|0:1,0:0:0:0:
372,221,40509,2,0,P|398:187|408:137,1,62.9999964084627,2|0,0:1|0:1,0:0:0:0:
192,0,40697,5,6,0:1:0:0:
170,8,40790,1,2,0:1:0:0:
148,16,40884,1,2,0:1:0:0:
126,24,40978,1,2,0:1:0:0:
104,32,41072,1,2,0:1:0:0:
82,40,41165,1,2,0:1:0:0:
60,48,41259,1,2,0:1:0:0:
43,66,41353,1,2,0:1:0:0:
0,129,41447,6,0,P|56:143|116:90,3,135.000001573563,6|0|0|0,0:1|0:1|0:1|0:1,0:0:0:0:
236,17,41634,2,0,P|195:58|211:136,3,89.9999976158143,6|0|0|0,0:1|0:1|0:1|0:1,0:0:0:0:
179,221,41822,2,0,P|170:177|139:146,3,67.5000007867814,6|0|0|0,0:1|0:1|0:1|0:1,0:0:0:0:
0,272,42009,5,10,0:1:0:0:
74,281,42056,1,8,0:1:0:0:
147,290,42103,1,8,0:1:0:0:
220,300,42150,1,8,0:1:0:0:
293,310,42197,5,0,0:1:0:0:
311,312,42243,1,0,0:1:0:0:
329,314,42290,1,0,0:1:0:0:
347,316,42337,1,0,0:1:0:0:
367,358,42384,5,2,0:3:0:0:
346,360,42431,1,0,0:1:0:0:
306,366,42478,1,0,0:1:0:0:
326,363,42525,1,0,0:1:0:0:
275,346,42572,5,2,0:3:0:0:
275,340,42618,1,0,0:1:0:0:
276,336,42665,1,0,0:1:0:0:
278,333,42712,1,0,0:1:0:0:
280,329,42759,1,0,0:1:0:0:
283,326,42806,1,0,0:1:0:0:
287,324,42853,1,0,0:1:0:0:
290,322,42900,1,0,0:1:0:0:
295,320,42947,6,0,B|341:322|348:255|284:243|260:278|277:308|277:308|199:286|93:308|93:308|196:346|276:332|276:332|253:367|277:399|335:391|335:343|292:335,1,647.999963058473,14|0,0:1|0:1,0:0:0:0:
503,262,43322,1,8,0:1:0:0:
204,2,43509,2,0,B|210:73|210:73|181:108|181:108|215:137|215:137|222:209,1,233.999983089448,2|8,0:1|0:1,0:0:0:0:
462,82,43884,1,0,0:1:0:0:
42,121,44072,1,8,0:1:0:0:
183,108,44259,1,0,0:1:0:0:
70,384,44447,6,0,P|108:235|0:343,1,413.999996929169,14|0,0:1|0:1,0:0:0:0:
68,303,44822,1,8,0:1:0:0:
245,64,45009,2,0,B|199:111|199:111|174:217|174:217|130:260,1,233.999983089448,2|8,0:1|0:1,0:0:0:0:
268,151,45384,1,0,0:1:0:0:
211,321,45572,6,0,B|182:349|182:349|239:349|239:349|324:264|324:264|380:264|380:264|380:207|380:207|465:123|465:123|465:66|465:66|437:94,1,547.199978824464,14|10,0:1|0:1,0:0:0:0:
134,245,45947,1,14,0:1:0:0:
359,18,46134,1,2,0:1:0:0:
443,327,46322,1,10,0:1:0:0:
240,123,46509,6,0,L|381:264,1,198.000000797272,2|8,0:1|0:1,0:0:0:0:
178,60,46884,1,0,0:1:0:0:
103,338,47072,1,8,0:1:0:0:
97,362,47259,1,0,0:1:0:0:
280,233,47447,5,2,0:1:0:0:
2,158,47635,1,8,0:1:0:0:
240,361,47822,1,8,0:1:0:0:
121,259,48009,1,2,0:1:0:0:
466,207,48197,2,0,B|421:200|387:227|387:227|355:214|355:214|323:239|278:233,1,198.000000797272,10|0,0:1|0:1,0:0:0:0:
451,315,48572,5,8,0:1:0:0:
6,186,48759,1,8,0:1:0:0:
359,102,48947,6,0,B|385:120|440:121|471:102|471:102|452:156|457:214|506:234|555:210|555:165|555:165|555:121|506:97|457:116|452:175|471:229|471:229|440:210|385:211|359:229,1,647.999963058473,14|0,0:1|0:1,0:0:0:0:
399,383,49322,1,8,0:1:0:0:
512,166,49509,1,2,0:1:0:0:
214,260,49697,2,0,B|144:281|144:281|104:261|104:261|83:300|83:300|15:323,1,233.999983089448,8|0,0:1|0:1,0:0:0:0:
134,360,50072,1,8,0:1:0:0:
134,360,50259,1,0,0:1:0:0:
352,121,50447,6,0,B|358:94|350:46|334:22|334:22|237:43|210:145|227:234|366:289|439:237|490:144|434:62,1,626.399988663025,14|0,0:1|0:1,0:0:0:0:
172,73,50822,1,8,0:1:0:0:
405,0,51009,1,2,0:1:0:0:
278,282,51197,2,0,P|399:292|496:223,1,233.999983089448,8|0,0:1|0:1,0:0:0:0:
0,24,51572,5,14,0:1:0:0:
224,384,51759,1,10,0:1:0:0:
322,0,51947,5,14,0:1:0:0:
0,264,52134,1,2,0:1:0:0:
489,232,52322,5,10,0:1:0:0:
0,24,52509,1,2,0:1:0:0:
374,355,52697,6,0,B|376:286|314:244|314:244|337:219|337:219|268:172|285:81,1,305.999997730255,8|0,0:1|0:1,0:0:0:0:
257,349,53072,1,8,0:1:0:0:
257,349,53259,1,2,0:1:0:0:
484,185,53447,5,8,0:1:0:0:
124,317,53634,1,8,0:1:0:0:
204,78,53822,1,8,0:1:0:0:
447,282,54009,5,2,0:1:0:0:
105,172,54197,1,8,0:1:0:0:
429,276,54384,1,0,0:1:0:0:
47,285,54572,5,8,0:1:0:0:
445,73,54759,1,8,0:1:0:0:
331,240,54947,6,0,P|327:301|342:341,2,89.9999976158143,6|2|2,0:1|0:1|0:1,0:0:0:0:
440,165,55509,1,8,0:1:0:0:
247,241,55697,2,0,P|259:198|287:162,1,89.9999976158143,2|0,0:1|0:1,0:0:0:0:
378,111,56072,1,2,0:1:0:0:
216,361,56447,5,8,0:1:0:0:
208,371,56822,1,2,0:1:0:0:
75,328,57197,6,0,B|110:297|110:297|122:249,2,89.9999976158143,2|2|2,0:1|0:1|0:1,0:0:0:0:
38,253,57947,2,0,B|48:211|48:211|83:180,1,89.9999976158143,2|0,0:1|0:1,0:0:0:0:
162,118,58322,1,2,0:1:0:0:
444,245,58697,5,8,0:1:0:0:
58,73,59072,1,8,0:1:0:0:
329,0,59447,5,2,0:1:0:0:
319,79,59634,1,4,0:1:0:0:
273,145,59822,2,0,B|289:210|289:210|355:238,1,125.999992816925,2|0,0:1|0:1,0:0:0:0:
355,153,60197,5,4,0:1:0:0:
195,136,60384,1,0,0:1:0:0:
260,284,60572,2,0,P|286:245|288:198,1,94.499994612694,2|0,0:1|0:1,0:0:0:0:
207,220,60947,6,0,L|138:281,2,89.9999976158143,6|2|2,0:1|0:1|0:1,0:0:0:0:
163,375,61509,1,8,0:1:0:0:
59,281,61697,2,0,L|87:195,1,89.9999976158143,2|0,0:1|0:1,0:0:0:0:
171,158,62072,1,2,0:1:0:0:
183,153,62447,6,0,P|221:180|237:233,1,82.7999950270083,8|0,0:1|0:1,0:0:0:0:
100,184,62822,1,2,0:1:0:0:
281,268,63197,6,0,L|342:202,2,89.9999976158143,2|2|2,0:1|0:1|0:1,0:0:0:0:
262,155,63947,1,2,0:1:0:0:
337,112,64134,1,2,0:1:0:0:
415,148,64322,2,0,L|447:247,1,89.9999976158143,2|0,0:1|0:1,0:0:0:0:
257,384,64697,5,8,0:1:0:0:
408,63,65072,1,8,0:1:0:0:
232,13,65447,6,0,B|245:56|245:56|230:108,1,89.9999976158143,2|4,0:1|0:1,0:0:0:0:
164,70,65822,1,2,0:1:0:0:
144,151,66009,1,2,0:1:0:0:
173,227,66197,2,0,B|216:217|216:217|255:179,1,89.9999976158143,4|0,0:1|0:1,0:0:0:0:
144,151,66572,2,0,P|102:183|92:232,1,94.499994612694,2|0,0:1|0:1,0:0:0:0:
44,286,66947,5,6,0:1:0:0:
124,295,67134,1,2,0:1:0:0:
204,305,67322,1,2,0:1:0:0:
299,366,67509,5,8,0:1:0:0:
305,254,67697,2,0,P|334:197|380:176,1,89.9999976158143,2|0,0:1|0:1,0:0:0:0:
387,259,68072,1,2,0:1:0:0:
396,258,68447,6,0,P|430:229|445:187,1,89.9999976158143,8|0,0:1|0:1,0:0:0:0:
363,182,68822,1,2,0:1:0:0:
298,30,69197,6,0,L|268:123,2,89.9999976158143,2|2|2,0:1|0:1|0:1,0:0:0:0:
182,101,69947,2,0,L|212:194,1,89.9999976158143,2|0,0:1|0:1,0:0:0:0:
309,228,70322,6,0,B|273:210|261:242|261:242|248:280|215:264|215:264|181:247|168:285,2,179.999995231629,2|2|8,0:1|0:1|0:1,0:0:0:0:
384,88,71447,2,2,L|361:85,7,22.4999994039536,10|2|2|2|2|2|2|2,0:1|0:1|0:1|0:1|0:1|0:1|0:1|0:1,0:0:0:0:
464,102,71822,5,4,0:1:0:0:
214,138,72009,1,8,0:1:0:0:
505,96,72197,5,4,0:1:0:0:
325,240,72384,1,8,0:1:0:0:
309,251,72572,1,2,0:1:0:0:
59,93,72947,5,6,0:1:0:0:
43,181,73134,1,2,0:1:0:0:
28,270,73322,1,2,0:1:0:0:
47,164,73509,5,8,0:1:0:0:
32,253,73697,2,0,L|16:347,1,89.9999976158143,2|0,0:1|0:1,0:0:0:0:
102,325,74072,2,0,L|118:231,1,94.499994612694,2|0,0:1|0:1,0:0:0:0:
100,203,74447,6,0,B|161:185|206:144|206:144|163:256|247:316|247:316|291:345|342:331|376:286|366:231|331:208|331:208|299:191|275:214|271:242|289:260,1,626.400002522278,14|2,0:1|0:1,0:0:0:0:
404,341,75947,6,0,P|429:274|426:232,1,89.9999976158143,2|0,0:1|0:1,0:0:0:0:
485,189,76322,1,2,0:1:0:0:
158,193,76697,5,8,0:1:0:0:
512,104,77072,1,8,0:1:0:0:
372,24,77447,6,0,P|344:49|289:50,1,89.9999976158143,2|4,0:1|0:1,0:0:0:0:
218,20,77822,1,2,0:1:0:0:
179,168,78009,2,0,P|215:143|228:101,1,89.9999976158143,2|4,0:1|0:1,0:0:0:0:
218,20,78384,1,2,0:1:0:0:
304,130,78572,2,0,L|361:206,1,94.499994612694,0|0,0:1|0:1,0:0:0:0:
416,280,78947,6,0,B|355:337|355:337|334:294|302:279|302:279|274:323|229:322,1,242.999986146927,4|0,0:1|0:1,0:0:0:0:
49,280,79322,2,0,B|110:223|110:223|131:266|163:281|163:281|191:237|236:238,1,242.999986146927,4|0,0:1|0:1,0:0:0:0:
367,216,79697,5,8,0:1:0:0:
122,54,79884,1,8,0:1:0:0:
105,347,80072,1,8,0:1:0:0:
481,191,80447,5,2,0:1:0:0:
493,182,80634,1,10,0:1:0:0:
237,342,80822,1,2,0:1:0:0:
217,47,81009,1,2,0:1:0:0:
493,363,81197,5,10,0:1:0:0:
19,18,81384,1,2,0:1:0:0:
410,71,81572,5,10,0:1:0:0:
5,251,81759,1,2,0:1:0:0:
328,371,81947,6,0,B|322:317|283:293|283:293|350:278|350:278|388:296|434:301,1,242.999986146927,4|0,0:1|0:1,0:0:0:0:
267,216,82322,2,0,B|235:227|235:227|210:259|210:259|201:292|201:292|211:331|211:331|233:356,1,161.999990764618,4|0,0:1|0:1,0:0:0:0:
396,64,82697,5,8,0:1:0:0:
144,370,82884,1,8,0:1:0:0:
175,138,83072,1,8,0:1:0:0:
484,251,83447,5,2,0:1:0:0:
496,262,83634,1,10,0:1:0:0:
76,268,83822,1,2,0:1:0:0:
512,151,84009,1,2,0:1:0:0:
23,29,84197,5,10,0:1:0:0:
497,357,84384,1,2,0:1:0:0:
49,278,84572,5,10,0:1:0:0:
512,0,84759,1,2,0:1:0:0:
257,296,84947,6,0,B|235:252|255:207|255:207|218:213|218:213|179:169|196:96|251:63,1,242.999986146927,4|0,0:1|0:1,0:0:0:0:
322,159,85322,2,0,B|343:202|323:247|323:247|360:241|360:241|399:285|382:358|327:391,1,242.999986146927,4|0,0:1|0:1,0:0:0:0:
256,376,85697,5,8,0:1:0:0:
103,121,85884,1,8,0:1:0:0:
452,255,86072,1,8,0:1:0:0:
67,330,86447,5,2,0:1:0:0:
50,341,86634,1,10,0:1:0:0:
486,291,86822,1,2,0:1:0:0:
231,31,87009,1,2,0:1:0:0:
237,384,87197,5,10,0:1:0:0:
427,0,87384,1,2,0:1:0:0:
130,191,87572,5,10,0:1:0:0:
512,384,87759,1,2,0:1:0:0:
156,332,87947,6,0,B|133:310|95:302|95:302|94:280|94:280|75:252|44:241|44:241|57:227|57:227|46:191|17:161,1,242.999986146927,4|0,0:1|0:1,0:0:0:0:
356,332,88322,2,0,B|379:310|417:302|417:302|417:280|417:280|437:252|468:241|468:241|455:227|455:227|466:191|495:161,1,242.999986146927,4|0,0:1|0:1,0:0:0:0:
229,68,88697,2,0,B|216:78|198:84|198:84|170:114|170:114|169:139|156:164|156:164|169:215|169:215|187:227|204:251|204:251|253:266|253:266|269:256|304:255|304:255|337:228|337:228|339:206|358:183|358:183|354:132|354:132|334:112|324:89|324:89|277:67,1,566.999967676164,6|0,0:1|0:1,0:0:0:0:
258,163,89447,5,6,0:1:0:0:
69,287,89634,1,10,0:1:0:0:
449,337,89822,1,10,0:1:0:0:
418,24,90009,1,10,0:1:0:0:
0,0,90197,5,10,0:1:0:0:
512,384,90384,1,10,0:1:0:0:
512,0,90572,5,10,0:1:0:0:
0,384,90759,1,14,0:1:0:0:
316,132,90947,6,0,B|319:97|330:76|330:76|349:53|356:24,1,116.999991544724,2|0,0:1|0:1,0:0:0:0:
226,383,91134,6,0,B|228:347|240:326|240:326|259:304|271:252,1,116.999991544724,2|0,0:1|0:1,0:0:0:0:
265,274,91509,2,0,B|259:304|240:326|240:326|228:347|226:383,1,116.999991544724,2|0,0:1|0:1,0:0:0:0:
99,99,91697,6,0,B|135:101|156:113|156:113|178:132|230:144,1,116.999991544724,2|0,0:1|0:1,0:0:0:0:
208,138,92072,2,0,B|178:132|156:113|156:113|135:101|99:99,1,116.999991544724,2|0,0:1|0:1,0:0:0:0:
512,226,92259,6,0,B|476:223|455:211|455:211|433:193|403:186,1,116.999991544724,2|0,0:1|0:1,0:0:0:0:
171,338,92634,6,2,L|179:304,1,31.4999982042313,2|2,0:0|0:0,0:0:0:0:
33,293,92822,2,0,L|67:290,1,31.4999982042313,2|0,0:0|0:0,0:0:0:0:
256,220,93009,2,0,L|229:203,1,31.4999982042313,2|0,0:0|0:0,0:0:0:0:
33,148,93197,2,0,L|45:177,1,31.4999982042313,2|0,0:0|0:0,0:0:0:0:
146,123,93384,2,0,L|170:103,1,31.4999982042313,2|0,0:0|0:0,0:0:0:0:
412,304,93572,2,0,B|410:364|359:392|304:383|265:339|283:282|283:282|287:253|283:231|247:204|224:207|198:219,1,305.999997730255,6|0,0:0|0:1,0:0:0:0:
17,295,93947,6,0,B|40:266|40:266|77:267|102:227|102:227|131:263,1,152.999998865128,2|0,0:1|0:1,0:0:0:0:
327,151,94134,6,0,B|351:181|351:181|376:141|413:142|413:142|437:112,1,152.999998865128,2|0,0:1|0:1,0:0:0:0:
436,113,94509,6,0,B|412:141|412:141|375:140|350:180|350:180|326:150,1,152.999998865128,2|0,0:1|0:1,0:0:0:0:
113,140,94697,6,0,B|79:113|80:91|80:91|26:71|36:12,1,152.999998865128,2|0,0:1|0:1,0:0:0:0:
34,19,95072,2,0,B|29:71|80:91|80:91|79:113|113:140,1,152.999998865128,2|0,0:1|0:1,0:0:0:0:
200,305,95259,6,0,B|205:340|265:357|265:357|163:365,1,152.999998865128,2|0,0:1|0:1,0:0:0:0:
487,283,95634,6,0,L|465:256,1,31.4999982042313,2|0,0:0|0:0,0:0:0:0:
251,244,95822,2,0,L|273:217,1,31.4999982042313,2|0,0:0|0:0,0:0:0:0:
480,171,96009,2,0,L|458:144,1,31.4999982042313,2|0,0:0|0:0,0:0:0:0:
244,132,96197,2,0,L|266:105,1,31.4999982042313,2|0,0:0|0:0,0:0:0:0:
453,34,96384,2,2,L|473:59,1,31.4999982042313,2|2,0:0|0:0,0:0:0:0:
200,305,96572,2,0,B|156:330|139:377|139:377|139:191|139:191|124:245|93:275,1,377.999978450776,6|0,0:0|0:1,0:0:0:0:
88,35,96947,6,0,B|89:99|89:99|63:137|59:174,1,116.999991544724,2|0,0:1|0:1,0:0:0:0:
296,333,97134,5,2,0:1:0:0:
329,228,97509,2,0,B|306:248|312:273|312:273|297:289|297:289|307:322|285:349,1,116.999991544724,2|0,0:1|0:1,0:0:0:0:
500,119,97697,5,2,0:1:0:0:
458,28,98072,2,0,B|503:58|446:112|493:101|493:101|517:163,1,116.999991544724,2|0,0:1|0:1,0:0:0:0:
149,361,98259,5,2,0:1:0:0:
162,34,98634,6,0,P|155:45|160:58,1,22.4999994039536,2|0,0:0|0:0,0:0:0:0:
95,102,98822,2,0,P|95:123|106:132,1,31.4999982042313,2|0,0:0|0:0,0:0:0:0:
76,223,99009,2,0,P|88:245|105:249,1,40.4999976911546,2|0,0:0|0:0,0:0:0:0:
149,361,99197,2,0,P|174:375|192:369,1,49.500000199318,2|0,0:0|0:0,0:0:0:0:
95,102,99384,6,0,P|95:123|106:132,1,31.4999982042313,2|0,0:0|0:0,0:0:0:0:
438,7,99572,6,0,B|443:23|465:46|482:50|482:50|437:51|407:73|394:127|411:161|450:181|450:181|487:202|488:258|454:281,1,359.999990463257,6|0,0:0|0:0,0:0:0:0:
479,119,99947,6,0,B|314:119,1,143.999996185303,2|0,0:1|0:1,0:0:0:0:
57,73,100134,6,0,P|162:120|58:169,1,287.999992370606,2|0,0:1|0:1,0:0:0:0:
36,194,100509,2,0,P|149:201|186:159,1,143.999996185303,2|0,0:1|0:1,0:0:0:0:
167,55,100697,6,0,P|102:26|35:48,1,143.999996185303,2|0,0:1|0:1,0:0:0:0:
99,121,101072,2,0,L|99:287,1,143.999996185303,2|0,0:1|0:1,0:0:0:0:
149,335,101259,6,0,P|97:179|45:334,1,431.999988555908,2|0,0:1|0:1,0:0:0:0:
279,297,101634,6,0,L|321:280,1,35.9999990463257,2|0,0:0|0:0,0:0:0:0:
498,268,101822,2,0,L|481:226,1,35.9999990463257,2|0,0:0|0:0,0:0:0:0:
263,111,102009,2,0,L|250:78,1,35.9999990463257,2|0,0:0|0:0,0:0:0:0:
435,62,102197,2,0,B|469:49,1,35.9999990463257,2|0,0:0|0:0,0:0:0:0:
446,46,102384,2,0,B|480:33,1,35.9999990463257,2|0,0:0|0:0,0:0:0:0:
458,32,102572,2,0,B|492:19,1,35.9999990463257,2|0,0:0|0:0,0:0:0:0:
211,207,102947,5,0,0:1:0:0:
216,181,103040,1,0,0:1:0:0:
236,166,103134,1,0,0:1:0:0:
263,169,103228,1,0,0:1:0:0:
277,191,103322,1,0,0:1:0:0:
274,216,103415,1,0,0:1:0:0:
252,232,103509,1,0,0:1:0:0:
228,228,103603,1,0,0:1:0:0:
164,122,103697,5,2,0:1:0:0:
244,89,103790,1,2,0:1:0:0:
324,122,103884,1,2,0:1:0:0:
357,202,103978,1,2,0:1:0:0:
324,282,104072,1,2,0:1:0:0:
244,315,104165,1,2,0:1:0:0:
164,282,104259,1,2,0:1:0:0:
131,202,104353,1,2,0:1:0:0:
164,73,104447,5,2,0:3:0:0:
139,63,104540,1,0,0:1:0:0:
114,73,104634,1,0,0:1:0:0:
104,97,104728,1,0,0:1:0:0:
114,122,104822,1,0,0:1:0:0:
139,132,104915,1,0,0:1:0:0:
164,122,105009,1,0,0:1:0:0:
173,97,105103,1,0,0:1:0:0:
21,9,105197,5,2,0:1:0:0:
0,94,105290,1,2,0:1:0:0:
28,171,105384,1,2,0:1:0:0:
76,216,105478,1,2,0:1:0:0:
108,255,105572,1,2,0:1:0:0:
117,290,105665,1,2,0:1:0:0:
115,316,105759,1,2,0:1:0:0:
108,334,105853,1,2,0:1:0:0:
24,327,105947,5,2,0:3:0:0:
18,291,106040,1,0,0:1:0:0:
54,286,106134,1,0,0:1:0:0:
59,321,106228,1,0,0:1:0:0:
20,324,106322,1,0,0:1:0:0:
20,287,106415,1,0,0:1:0:0:
57,288,106509,1,0,0:1:0:0:
56,324,106603,1,0,0:1:0:0:
8,208,106697,5,2,0:1:0:0:
127,218,106790,1,2,0:1:0:0:
223,226,106884,1,2,0:1:0:0:
302,233,106978,1,2,0:1:0:0:
374,240,107072,1,2,0:1:0:0:
422,244,107165,1,2,0:1:0:0:
462,247,107259,1,2,0:1:0:0:
486,249,107353,1,2,0:1:0:0:
473,345,107447,5,2,0:3:0:0:
429,342,107540,1,0,0:1:0:0:
433,299,107634,1,0,0:1:0:0:
476,302,107728,1,0,0:1:0:0:
450,356,107822,1,0,0:1:0:0:
417,319,107915,1,0,0:1:0:0:
455,287,108009,1,0,0:1:0:0:
487,324,108103,1,0,0:1:0:0:
358,377,108197,5,2,0:1:0:0:
336,292,108290,1,2,0:1:0:0:
364,214,108384,1,2,0:1:0:0:
412,169,108478,1,2,0:1:0:0:
445,130,108572,1,2,0:1:0:0:
453,95,108665,1,2,0:1:0:0:
451,69,108759,1,2,0:1:0:0:
445,51,108853,1,2,0:1:0:0:
360,41,108947,5,2,0:3:0:0:
323,48,109041,1,0,0:1:0:0:
303,77,109135,1,0,0:1:0:0:
311,113,109228,1,0,0:1:0:0:
341,132,109322,1,0,0:1:0:0:
376,125,109416,1,0,0:1:0:0:
396,95,109510,1,0,0:1:0:0:
388,60,109603,1,0,0:1:0:0:
280,178,109697,5,2,0:1:0:0:
153,149,109790,1,2,0:1:0:0:
209,32,109884,1,2,0:1:0:0:
311,113,109978,1,2,0:1:0:0:
209,194,110072,5,2,0:1:0:0:
153,77,110165,1,2,0:1:0:0:
280,48,110259,1,2,0:1:0:0:
368,143,110353,1,2,0:1:0:0:
329,266,110446,5,2,0:1:0:0:
201,294,110540,1,2,0:1:0:0:
113,199,110634,1,2,0:1:0:0:
239,170,110728,1,2,0:1:0:0:
201,294,110822,5,2,0:1:0:0:
77,256,110915,1,2,0:1:0:0:
115,132,111009,1,2,0:1:0:0:
281,250,111103,1,2,0:1:0:0:
120,336,111197,5,2,0:1:0:0:
34,175,111290,1,2,0:1:0:0:
195,89,111384,1,2,0:1:0:0:
192,180,111478,1,2,0:1:0:0:
115,132,111572,5,2,0:1:0:0:
273,139,111665,1,2,0:1:0:0:
266,297,111759,1,2,0:1:0:0:
108,290,111853,1,2,0:1:0:0:
189,249,111947,5,2,0:1:0:0:
279,253,112040,1,2,0:1:0:0:
355,302,112134,1,2,0:1:0:0:
396,382,112228,1,2,0:1:0:0:
279,253,112322,5,2,0:1:0:0:
332,87,112415,1,2,0:1:0:0:
498,140,112509,1,2,0:1:0:0:
445,306,112603,1,2,0:1:0:0:
388,196,112697,1,2,0:1:0:0:
511,201,112790,1,2,0:1:0:0:
322,301,112884,5,2,0:1:0:0:
222,112,112978,1,2,0:1:0:0:
411,12,113072,1,2,0:1:0:0:
511,201,113165,1,2,0:1:0:0:
445,306,113259,1,2,0:1:0:0:
322,301,113353,1,2,0:1:0:0:
264,190,113447,5,4,0:1:0:0:
265,181,113493,1,0,0:1:0:0:
268,172,113540,1,0,0:1:0:0:
274,165,113587,1,0,0:1:0:0:
281,160,113634,1,0,0:1:0:0:
289,156,113681,1,0,0:1:0:0:
298,155,113728,1,0,0:1:0:0:
307,155,113775,1,0,0:1:0:0:
315,158,113822,1,0,0:1:0:0:
322,164,113868,1,0,0:1:0:0:
328,170,113915,1,0,0:1:0:0:
332,179,113962,1,0,0:1:0:0:
334,187,114010,5,4,0:1:0:0:
280,187,114056,1,4,0:1:0:0:
227,200,114103,1,0,0:1:0:0:
180,225,114150,1,4,0:1:0:0:
139,261,114197,1,0,0:1:0:0:
118,309,114243,1,0,0:1:0:0:
141,356,114290,1,0,0:1:0:0:
192,369,114337,1,0,0:1:0:0:
234,338,114384,1,0,0:1:0:0:
239,286,114431,1,0,0:1:0:0:
204,245,114477,1,0,0:1:0:0:
153,233,114524,1,0,0:1:0:0:
97,236,114572,5,8,0:1:0:0:
47,204,114618,1,8,0:1:0:0:
26,151,114665,1,8,0:1:0:0:
44,96,114712,1,8,0:1:0:0:
90,66,114759,1,8,0:1:0:0:
147,73,114806,1,8,0:1:0:0:
187,115,114853,1,8,0:1:0:0:
192,173,114900,1,8,0:1:0:0:
111,150,114947,5,12,0:1:0:0:
