osu file format v14

[General]
AudioFilename: audio.mp3
AudioLeadIn: 0
PreviewTime: 37544
Countdown: 0
SampleSet: Soft
StackLeniency: 0.3
Mode: 0
LetterboxInBreaks: 0
WidescreenStoryboard: 1

[Editor]
Bookmarks: 8520,19881,31242,31331,31420,31508,31597,31686,31775,31863,31952,32041,32130,32218,32307,32396,32485,32573,32662,38343,44023,44112,44201,44289,44378,44467,44556,44644,44733,44822,44911,45000,45088,45177,45266,45355,45443,56804,58224
DistanceSpacing: 1
BeatDivisor: 4
GridSize: 16
TimelineZoom: 1

[Metadata]
Title:gAsT E R II
TitleUnicode:gAsT E R II
Artist:X4D
ArtistUnicode:X4D
Creator:X4D
Version:ENTRY NUMBER 1: NORMAL
Source:UNDERTALE
Tags:gaster 2 dnb remix nightcore speed up version sequel toby fox megalovania bonetrousle coletaku wintersky
BeatmapID:1984282
BeatmapSetID:950103

[Difficulty]
HPDrainRate:4
CircleSize:3
OverallDifficulty:4
ApproachRate:5
SliderMultiplier:1.1
SliderTickRate:1

[Events]
//Background and Video events
0,0,"975499.jpg",0,0
//Break Periods
//Storyboard Layer 0 (Background)
//Storyboard Layer 1 (Fail)
//Storyboard Layer 2 (Pass)
//Storyboard Layer 3 (Foreground)
//Storyboard Sound Samples

[TimingPoints]
0,355.029585798817,4,2,1,90,1,0
8520,-100,4,2,1,90,0,0
34171,-100,4,2,1,5,0,0
34260,-100,4,2,1,90,0,0
44023,-100,4,2,1,90,0,0
45443,-100,4,2,1,90,0,1
56804,-100,4,2,1,90,0,0
58224,-100,4,2,1,90,0,0
62396,-100,4,2,1,5,0,0
62485,-100,4,2,1,90,0,0
63550,-100,4,2,1,90,0,0
64260,-100,4,2,1,45,0,0
64970,-100,4,2,1,5,0,0

[Colours]
Combo1 : 114,114,114
Combo2 : 92,206,243
Combo3 : 172,172,172
Combo4 : 245,90,90

[HitObjects]
50,52,7100,6,0,B|42:56|43:72|43:72|59:87|59:111|59:111|38:132|36:171|36:171|72:205|72:259|72:259|28:298|38:366,1,330,0|2,0:0|0:0,0:0:0:0:
145,332,8520,6,0,P|198:304|264:329,1,110,4|8,1:2|0:0,0:0:0:0:
341,365,9230,1,2,0:0:0:0:
421,289,9585,2,0,P|420:259|419:227,1,55,8|2,0:0|2:0,0:0:0:0:
383,191,9940,2,0,P|385:132|387:68,1,110,2|8,1:2|0:0,0:0:0:0:
288,32,10650,2,0,P|286:86|284:141,1,110,2|8,0:0|0:0,0:0:0:0:
201,214,11360,6,0,P|147:222|101:195,2,110,4|8|2,1:2|0:0|0:0,0:0:0:0:
282,288,12426,2,0,P|282:315|283:342,1,55,8|2,0:0|2:0,0:0:0:0:
333,365,12781,2,0,P|387:363|442:361,1,110,2|8,1:2|0:0,0:0:0:0:
485,260,13491,2,0,P|430:258|375:256,1,110,2|8,0:0|0:0,0:0:0:0:
286,200,14201,5,4,1:2:0:0:
343,106,14556,1,8,0:0:0:0:
286,14,14911,1,2,0:0:0:0:
176,11,15266,2,0,P|176:38|177:65,1,55,8|2,0:0|2:0,0:0:0:0:
179,121,15621,2,0,P|126:93|60:118,1,110,2|8,1:2|0:0,0:0:0:0:
59,211,16331,2,0,P|105:238|158:229,1,110,2|8,0:0|0:0,0:0:0:0:
268,228,17041,5,4,1:2:0:0:
211,134,17396,1,8,0:0:0:0:
268,42,17751,1,2,0:0:0:0:
378,39,18106,2,0,P|377:66|376:93,1,55,8|2,0:0|2:0,0:0:0:0:
375,149,18461,2,0,P|428:121|494:146,1,110,2|8,1:2|0:0,0:0:0:0:
495,239,19171,2,0,P|448:266|395:257,1,110,2|8,0:0|0:0,0:0:0:0:
288,283,19881,6,0,P|287:255|286:228,1,55,4|0,1:2|0:0,0:0:0:0:
303,175,20236,1,8,0:0:0:0:
197,144,20591,2,0,P|195:198|193:253,1,110,2|8,0:0|0:0,0:0:0:0:
153,292,21124,1,2,2:0:0:0:
153,292,21301,2,0,P|100:320|34:295,1,110,2|8,1:2|0:0,0:0:0:0:
9,209,22011,2,0,P|7:154|5:99,1,110,2|8,0:0|0:0,0:0:0:0:
85,23,22721,6,0,P|112:23|139:24,2,55,4|0|8,1:2|0:0|0:0,0:0:0:0:
119,127,23431,2,0,P|173:125|228:123,1,110,2|8,0:0|0:0,0:0:0:0:
283,119,23964,1,2,2:0:0:0:
283,119,24142,2,0,P|291:172|264:218,1,110,2|8,1:2|0:0,0:0:0:0:
189,299,24852,2,0,P|134:297|79:295,1,110,2|8,0:0|0:0,0:0:0:0:
7,211,25562,6,0,P|34:210|61:209,1,55,4|0,1:2|0:0,0:0:0:0:
116,214,25917,1,8,0:0:0:0:
179,124,26272,2,0,P|232:115|278:142,1,110,2|8,0:0|0:0,0:0:0:0:
332,130,26804,1,2,2:0:0:0:
332,130,26982,2,0,P|330:184|328:239,1,110,2|8,1:2|0:0,0:0:0:0:
393,328,27692,2,0,P|346:355|293:346,1,110,2|8,0:0|0:0,0:0:0:0:
185,367,28402,6,0,P|157:366|130:365,2,55,4|0|8,1:2|0:0|0:0,0:0:0:0:
222,263,29112,2,0,P|230:209|203:163,1,110,2|8,0:0|0:0,0:0:0:0:
151,147,29644,1,2,2:0:0:0:
151,147,29822,2,0,P|96:145|41:143,1,110,2|8,1:2|0:0,0:0:0:0:
1,245,30532,2,0,P|-7:298|19:344,1,110,2|8,0:0|0:0,0:0:0:0:
127,361,31242,6,0,B|114:317|145:282|145:282|163:292|163:292|187:255|232:260|232:260|233:273|233:273|259:268|282:282|282:282|279:294|300:300|306:318|306:318|314:330|313:347|335:371|382:361|397:300|366:273|311:282|315:313|323:324,1,440,0|0,0:0|1:0,0:0:0:0:
504,180,33372,6,0,P|505:234|507:289,1,110,0|0,1:0|0:0,0:0:0:0:
411,235,34082,2,0,P|414:121|418:8,1,220,8|0,1:2|1:0,0:0:0:0:
273,180,35502,6,0,P|226:207|173:198,1,110,0|0,1:0|1:0,0:0:0:0:
100,115,36213,1,0,1:0:0:0:
11,180,36568,1,0,1:0:0:0:
64,275,36923,6,0,P|91:275|118:276,1,55,8|0,1:2|1:0,0:0:0:0:
157,316,37278,2,0,P|184:315|211:314,1,55,0|0,1:0|1:0,0:0:0:0:
263,293,37633,2,0,P|319:260|383:271,1,110,8|8,1:2|1:2,0:0:0:0:
407,293,38165,1,8,1:2:0:0:
407,293,38343,6,0,P|408:238|410:183,1,110,12|8,1:2|0:0,0:0:0:0:
412,73,39053,2,0,P|439:72|466:71,2,55,2|2|8,0:0|0:0|0:0,0:0:0:0:
310,30,39763,1,2,1:2:0:0:
222,96,40118,1,8,0:0:0:0:
268,195,40473,2,0,P|241:194|214:193,2,55,2|2|8,0:0|0:0|0:0,0:0:0:0:
298,300,41183,6,0,P|243:299|188:297,1,110,4|8,1:2|0:0,0:0:0:0:
78,293,41893,2,0,P|79:320|80:347,2,55,2|2|8,0:0|0:0|0:0,0:0:0:0:
19,199,42603,1,2,1:2:0:0:
85,111,42958,1,8,0:0:0:0:
189,145,43313,2,0,P|188:172|187:199,2,55,2|2|8,0:0|0:0|0:0,0:0:0:0:
234,45,44023,6,0,B|428:44|305:192|520:190,1,330,2|2,0:2|0:2,0:0:0:0:
495,299,45443,6,0,P|468:300|441:301,1,55,4|0,1:2|0:0,0:0:0:0:
401,340,45798,2,0,P|374:339|347:338,1,55,8|2,0:0|2:0,0:0:0:0:
298,309,46153,2,0,P|270:262|278:208,1,110,2|8,0:0|0:0,0:0:0:0:
312,166,46686,1,2,2:0:0:0:
312,166,46863,2,0,P|313:139|314:112,2,55,2|0|8,1:2|0:0|0:0,0:0:0:0:
236,246,47573,1,2,0:0:0:0:
159,166,47928,1,8,0:0:0:0:
75,238,48284,6,0,P|67:291|95:337,1,110,4|8,1:2|0:0,0:0:0:0:
145,360,48816,1,2,2:0:0:0:
145,360,48994,2,0,P|208:357|271:355,1,110,2|8,0:0|0:0,0:0:0:0:
335,280,49704,2,0,P|362:281|389:282,1,55,2|0,1:2|1:2,0:0:0:0:
433,316,50059,1,8,0:0:0:0:
488,221,50414,2,0,P|485:160|483:99,1,110,2|8,0:0|0:0,0:0:0:0:
407,31,51124,6,0,P|380:30|353:29,1,55,4|0,1:2|0:0,0:0:0:0:
325,77,51479,2,0,P|298:78|271:79,1,55,8|2,0:0|2:0,0:0:0:0:
222,51,51834,2,0,P|194:98|201:151,1,110,2|8,0:0|0:0,0:0:0:0:
246,181,52366,1,2,2:0:0:0:
246,181,52544,2,0,P|273:180|300:179,2,55,2|0|8,1:2|0:0|0:0,0:0:0:0:
161,251,53254,1,2,0:0:0:0:
254,308,53609,1,8,0:0:0:0:
162,369,53964,6,0,P|107:370|52:373,1,110,4|8,1:2|0:0,0:0:0:0:
20,328,54497,1,2,2:0:0:0:
20,328,54674,2,0,P|-8:282|0:228,1,110,2|8,0:0|0:0,0:0:0:0:
73,147,55384,2,0,P|74:120|75:93,1,55,2|0,1:2|1:2,0:0:0:0:
53,41,55739,1,8,0:0:0:0:
161,60,56094,2,0,P|158:114|156:169,1,110,2|8,0:0|0:0,0:0:0:0:
155,225,56627,1,2,2:0:0:0:
155,225,58224,6,0,P|214:237|316:130,1,220,2|2,1:2|0:2,0:0:0:0:
400,62,59289,1,0,0:0:0:0:
471,145,59644,2,0,P|476:228|484:382,1,220,14|2,0:2|0:0,0:0:0:0:
263,355,61065,6,0,P|268:245|275:135,1,220,2|2,1:2|0:2,0:0:0:0:
204,51,62130,2,0,P|163:39|138:40,1,55,0|0,1:0|0:0,0:0:0:0:
103,66,62485,1,14,0:2:0:0:
10,25,62840,2,0,P|14:80|17:135,1,110,2|2,0:0|0:0,0:0:0:0:
26,244,63550,6,0,P|125:279|209:215,2,220,2|2|2,0:0|0:0|0:0,0:0:0:0:
