osu file format v14

[General]
AudioFilename: audio.mp3
AudioLeadIn: 0
PreviewTime: 146589
Countdown: 0
SampleSet: Soft
StackLeniency: 0.3
Mode: 0
LetterboxInBreaks: 0
WidescreenStoryboard: 1

[Editor]
Bookmarks: 79429,94884,103748,146248,167611,193066
DistanceSpacing: 1.4
BeatDivisor: 4
GridSize: 4
TimelineZoom: 1.7

[Metadata]
Title:FLASH
TitleUnicode:FLASH
Artist:X1
ArtistUnicode:엑스원
Creator:arnoldusj
Version:Arnold x ....... Insane
Source:
Tags:비상: QUANTUM LEAP MINI ALBUM VOL.1 Seungwoo Seungyoun Wooseok Yohan Hangyul Junho Dongpyo Minhee Eunsang Hyeongjun Dohyun 승우 승연 우석 요한 한결 준호 동표 민희 은상 형준 도현 SWING ENTERTAINMENT kpop
BeatmapID:2183874
BeatmapSetID:1042335

[Difficulty]
HPDrainRate:6
CircleSize:4
OverallDifficulty:8
ApproachRate:8.9
SliderMultiplier:1.9
SliderTickRate:1

[Events]
//Background and Video events
Video,34,"X1 (엑스원) `FLASH` MV.avi"
0,0,"BG.jpg",0,0
//Break Periods
2,1902,2679
2,5538,6314
2,9174,9951
2,12811,13814
2,89165,94620
//Storyboard Layer 0 (Background)
//Storyboard Layer 1 (Fail)
//Storyboard Layer 2 (Pass)
//Storyboard Layer 3 (Foreground)
//Storyboard Layer 4 (Overlay)
//Storyboard Sound Samples

[TimingPoints]
339,454.545454545455,4,2,0,76,1,0
339,-142.857142857143,4,2,0,76,0,0
14429,-142.857142857143,4,2,60,76,0,0
14884,-117.647058823529,4,2,3,76,0,0
29429,-100,4,2,4,76,0,0
43975,-200,4,2,2,76,0,0
58520,-100,4,2,7,76,0,0
67611,-100,4,2,7,45,0,0
68066,-100,4,2,7,26,0,0
68520,-100,4,2,7,14,0,0
72611,-1000,4,2,0,5,0,0
73066,-83.3333333333333,4,2,10,76,0,0
73293,-58.8235294117647,4,2,10,76,0,0
73748,-83.3333333333333,4,2,10,76,0,0
73975,-58.8235294117647,4,2,10,76,0,0
74429,-83.3333333333333,4,2,10,76,0,0
74620,-58.8235294117647,4,2,10,76,0,0
74998,-83.3333333333333,4,2,10,76,0,0
75339,-50,4,2,10,76,0,0
75793,-83.3333333333333,4,2,10,76,0,0
76929,-58.8235294117647,4,2,10,76,0,0
77384,-83.3333333333333,4,2,10,76,0,0
77611,-58.8235294117647,4,2,10,76,0,0
78066,-83.3333333333333,4,2,10,76,0,0
78293,-58.8235294117647,4,2,10,76,0,0
78634,-83.3333333333333,4,2,10,76,0,0
79429,-58.8235294117647,4,2,10,76,0,0
80339,-83.3333333333333,4,2,10,76,0,0
82611,-45.4545454545455,4,2,10,76,0,0
83066,-83.3333333333333,4,2,10,76,0,0
84202,-55.5555555555556,4,2,10,76,0,0
84657,-83.3333333333333,4,2,10,76,0,0
84884,-55.5555555555556,4,2,10,76,0,0
85339,-83.3333333333333,4,2,10,76,0,0
85566,-55.5555555555556,4,2,10,76,0,0
85793,-83.3333333333333,4,2,10,76,0,0
86248,-111.111111111111,4,2,10,76,0,0
86702,-142.857142857143,4,2,10,76,0,0
87157,-250,4,2,10,76,0,0
89429,-142.857142857143,4,2,0,76,0,0
96702,-100,4,2,4,76,0,0
103066,-41.6666666666667,4,2,60,76,0,0
103975,-83.3333333333333,4,2,10,76,0,0
106248,-43.4782608695652,4,2,10,76,0,0
106702,-500,4,2,10,76,0,0
107043,-125,4,2,10,76,0,0
107384,-83.3333333333333,4,2,10,76,0,0
109884,-50,4,2,10,76,0,0
110339,-83.3333333333333,4,2,10,76,0,0
110679,-125,4,2,10,76,0,0
111020,-500,4,2,10,76,0,0
111248,-83.3333333333333,4,2,10,76,0,0
113293,-52.6315789473684,4,2,10,76,0,0
113748,-500,4,2,10,76,0,0
114089,-125,4,2,10,76,0,0
114429,-83.3333333333333,4,2,10,76,0,0
117952,-125,4,2,10,76,0,0
118293,-500,4,2,10,76,0,0
118520,-142.857142857143,4,2,2,76,0,0
133066,-100,4,2,7,76,0,0
142157,-100,4,2,7,50,0,0
143520,-100,4,2,7,44,0,0
143975,-100,4,2,7,31,0,0
145793,-50,4,2,60,76,0,0
146248,-100,4,2,0,76,0,0
146702,-250,4,2,50,76,0,0
147157,-1000,4,2,0,76,0,0
147611,-80,4,2,10,76,0,1
149884,-52.6315789473684,4,2,10,76,0,1
150339,-80,4,2,10,76,0,1
157157,-52.6315789473684,4,2,10,76,0,1
157611,-80,4,2,10,76,0,1
162157,-100,4,2,7,76,0,0
173066,-100,4,2,7,56,0,0
176702,-166.666666666667,4,2,0,76,0,0
178520,-71.4285714285714,4,2,10,76,0,0
180793,-250,4,2,10,76,0,0
181248,-83.3333333333333,4,2,10,76,0,0
182157,-71.4285714285714,4,2,10,76,0,0
184429,-47.6190476190476,4,2,10,76,0,0
184884,-83.3333333333333,4,2,10,76,0,0
185793,-71.4285714285714,4,2,10,76,0,0
188066,-500,4,2,10,76,0,0
188520,-83.3333333333333,4,2,10,76,0,0
189429,-71.4285714285714,4,2,10,76,0,0
191702,-47.6190476190476,4,2,10,76,0,0
192157,-83.3333333333333,4,2,10,76,0,0
193066,-71.4285714285714,4,2,10,76,0,0
195339,-333.333333333333,4,2,10,76,0,0
195793,-83.3333333333333,4,2,10,76,0,0
196702,-71.4285714285714,4,2,10,76,0,0
198066,-200,4,2,10,76,0,0
198520,-71.4285714285714,4,2,10,76,0,0
198975,-45.4545454545455,4,2,10,76,0,0
199429,-83.3333333333333,4,2,10,76,0,0
200339,-71.4285714285714,4,2,10,76,0,0
202611,-500,4,2,10,76,0,0
203066,-83.3333333333333,4,2,10,76,0,0
203975,-71.4285714285714,4,2,10,76,0,0
206248,-43.4782608695652,4,2,10,76,0,0
206929,-100,4,2,0,76,0,0

[Colours]
Combo1 : 125,190,255
Combo2 : 0,128,255
SliderBorder : 125,190,255
SliderTrackOverride : 25,24,25

[HitObjects]
115,140,339,6,0,P|186:91|292:149,2,199.499993911743
115,141,3294,5,0,0:0:0:0:
164,273,3520,1,0,0:0:0:0:
248,168,3748,1,0,0:0:0:0:
368,326,3975,6,0,B|351:277|351:277|373:124,2,199.499993911743
364,325,6929,5,0,0:0:0:0:
261,309,7157,1,0,0:0:0:0:
156,293,7384,1,0,0:0:0:0:
71,234,7611,6,0,B|85:179|85:179|75:25,2,199.499993911743
74,235,10566,5,0,0:0:0:0:
169,184,10793,1,0,0:0:0:0:
264,131,11020,1,0,0:0:0:0:
364,92,11248,6,0,L|325:308,2,199.499993911743
363,92,14429,6,0,L|258:83,1,99.7499969558717
289,120,14884,6,0,L|395:127,1,80.750001540184
232,191,15339,2,0,L|130:186,1,80.750001540184
67,253,15793,1,0,0:0:0:0:
180,351,16020,1,0,0:0:0:0:
232,191,16248,2,0,P|242:144|202:58,1,121.125002310276
177,45,16702,6,0,L|277:32,1,80.750001540184
80,146,17157,2,0,P|59:97|113:1,1,161.500003080368
154,198,17839,1,0,0:0:0:0:
97,304,18066,1,0,0:0:0:0:
214,340,18293,1,0,0:0:0:0:
288,235,18520,6,0,L|274:139,1,80.750001540184
356,51,18975,2,0,L|363:155,1,80.750001540184
288,235,19429,1,0,0:0:0:0:
169,188,19657,1,0,0:0:0:0:
58,142,19884,2,0,P|52:86|85:16,1,121.125002310276
165,36,20339,6,0,L|251:29,1,80.750001540184
312,91,20793,2,0,P|368:80|485:92,1,161.500003080368
491,216,21475,1,0,0:0:0:0:
372,178,21702,1,0,0:0:0:0:
397,301,21929,1,0,0:0:0:0:
241,277,22157,6,0,P|180:289|125:281,1,80.750001540184
19,220,22611,2,0,P|69:207|115:214,1,80.750001540184
190,52,23066,1,0,0:0:0:0:
237,171,23293,1,0,0:0:0:0:
68,52,23520,2,0,L|208:51,1,121.125002310276
259,121,23975,6,0,P|314:113|357:90,1,80.750001540184
426,25,24429,2,0,P|410:89|419:188,1,161.500003080368
465,313,25111,1,0,0:0:0:0:
330,300,25339,1,0,0:0:0:0:
204,335,25566,1,0,0:0:0:0:
102,258,25793,6,0,B|119:216|119:216|114:158,1,80.750001540184
203,52,26248,2,0,B|194:104|194:104|212:158,1,80.750001540184
335,77,26702,1,0,0:0:0:0:
320,202,26929,1,0,0:0:0:0:
434,149,27157,2,0,L|420:304,1,121.125002310276
355,328,27611,6,0,P|299:315|255:314,1,80.750001540184
198,274,28066,2,0,P|135:292|86:296,1,80.750001540184
39,211,28520,6,0,L|126:159,1,80.750001540184
34,165,28975,2,0,L|117:114,1,80.750001540184
196,46,29429,6,0,P|257:32|314:40,1,95
323,65,29770,1,0,0:0:0:0:
344,109,29884,1,0,0:0:0:0:
344,109,30339,2,0,L|409:96,1,47.5
442,158,30566,2,0,L|497:145,1,47.5
390,99,30793,2,0,L|274:124,1,95
221,93,31134,1,0,0:0:0:0:
160,156,31248,6,0,P|151:216|176:278,1,95
266,340,31702,2,0,P|273:271|249:226,1,95
151,340,32157,1,0,0:0:0:0:
151,340,32611,2,0,L|153:283,1,47.5
109,233,32839,2,0,L|115:166,1,47.5
158,97,33066,6,0,P|214:88|274:117,1,95
286,124,33407,1,0,0:0:0:0:
329,147,33520,2,0,P|386:160|435:142,1,95
497,52,33975,6,0,L|499:177,1,95
442,240,34429,2,0,L|445:349,1,95
411,356,34770,1,0,0:0:0:0:
366,343,34884,6,0,P|313:334|261:336,1,95
149,249,35339,2,0,P|207:239|254:242,1,95
278,209,35679,1,0,0:0:0:0:
315,173,35793,2,0,L|324:58,1,95
417,14,36248,2,0,L|412:127,1,95
449,285,36702,6,0,P|410:297|334:268,1,95
326,261,37043,1,0,0:0:0:0:
282,241,37157,1,0,0:0:0:0:
282,241,37611,2,0,L|208:260,1,47.5
183,312,37838,2,0,L|101:335,1,47.5
235,252,38066,2,0,L|352:218,1,95
399,151,38520,6,0,P|409:115|395:48,1,95
310,1,38975,2,0,P|296:53|321:107,1,95
281,126,39316,1,0,0:0:0:0:
245,161,39429,2,0,L|123:153,1,95
21,240,39884,2,0,L|131:245,1,95
292,344,40339,6,0,P|299:295|272:232,1,95
258,220,40679,1,0,0:0:0:0:
233,176,40793,1,0,0:0:0:0:
233,176,41248,6,0,L|313:183,1,47.5
355,144,41475,2,0,L|424:151,1,47.5
280,180,41702,2,0,L|141:166,1,95
52,156,42157,6,0,P|39:105|64:49,1,95
185,170,42611,2,0,P|193:228|152:292,1,95
149,298,42952,1,0,0:0:0:0:
109,331,43066,2,0,L|216:342,1,95
270,284,43520,2,0,L|395:293,1,95
466,226,43975,5,0,0:0:0:0:
466,226,44429,2,0,L|469:128,1,95
326,38,45339,2,0,L|342:147,1,95
132,65,46248,5,0,0:0:0:0:
186,174,46702,1,0,0:0:0:0:
130,66,47157,1,0,0:0:0:0:
71,218,47611,6,0,P|62:273|81:324,2,95
177,263,48975,1,0,0:0:0:0:
314,324,49429,6,0,B|354:333|354:333|416:317,2,95
391,193,50793,1,0,0:0:0:0:
276,77,51248,6,0,L|291:191,1,95
92,189,52157,2,0,L|83:80,1,95
152,297,53066,6,0,P|100:306|52:278,1,95
209,223,53975,2,0,P|252:217|309:238,1,95
405,282,54884,5,0,0:0:0:0:
234,346,55339,1,0,0:0:0:0:
101,222,55793,2,0,P|90:177|108:118,1,95
239,140,56702,5,0,0:0:0:0:
384,78,57157,1,0,0:0:0:0:
459,215,57611,2,0,L|454:324,1,95
318,320,58520,6,0,P|278:313|209:332,1,95
181,342,58861,1,0,0:0:0:0:
133,355,58975,2,0,L|140:248,1,95
58,130,59429,6,0,L|49:251,1,95
137,262,59884,2,0,P|199:242|256:251,1,95
390,286,60339,6,0,L|381:182,1,95
408,165,60679,1,0,0:0:0:0:
443,133,60793,2,0,L|434:37,1,95
299,63,61248,6,0,P|235:48|179:58,1,95
56,158,61702,2,0,P|120:158|176:143,1,95
276,249,62157,6,0,L|175:267,1,95
155,297,62498,1,0,0:0:0:0:
126,321,62611,2,0,P|102:266|110:218,1,95
181,65,63066,6,0,P|186:126|150:184,1,95
22,93,63520,2,0,P|12:41|32:-5,1,95
242,58,63975,6,0,L|359:43,1,95
370,72,64316,1,0,0:0:0:0:
407,98,64429,2,0,L|514:86,1,95
342,242,64884,6,0,L|220:221,1,95
86,135,65339,2,0,L|195:157,1,95
179,293,65793,6,0,L|238:309,1,47.5
315,270,66020,2,0,L|382:284,1,47.5
211,271,66248,6,0,L|270:287,1,47.5
347,248,66475,2,0,L|414:262,1,47.5
338,158,66702,6,0,L|273:144,1,47.5
241,77,66929,2,0,L|174:62,1,47.5
339,124,67157,6,0,L|274:110,1,47.5
242,43,67384,2,0,L|175:28,1,47.5
117,84,67611,6,0,P|115:108|131:157,1,47.5
177,188,67839,2,0,P|185:217|183:263,1,47.5
97,111,68066,6,0,P|95:135|111:184,1,47.5
157,215,68294,2,0,P|165:244|163:290,1,47.5
87,324,68520,6,0,P|72:296|75:257,1,47.5
35,206,68748,2,0,P|37:179|25:132,1,47.5
110,289,68975,6,0,P|95:261|98:222,1,47.5
58,171,69203,2,0,P|60:144|48:97,1,47.5
113,46,69429,6,0,L|220:37,1,95
274,82,69770,1,0,0:0:0:0:
336,126,69884,2,0,L|441:113,1,95
499,153,70225,1,0,0:0:0:0:
463,233,70339,6,0,P|408:248|343:220,1,95
307,196,70679,1,0,0:0:0:0:
241,152,70793,2,0,P|187:137|126:168,1,95
86,196,71134,1,0,0:0:0:0:
132,269,71248,5,0,0:0:0:0:
132,269,72611,6,0,L|149:270,1,14.25
205,318,73066,6,0,L|270:300,1,56.9999982604981
316,249,73293,2,0,L|500:270,1,161.500003080368
385,86,73748,6,0,L|300:100,1,56.9999982604981
269,147,73975,2,0,L|94:111,1,161.500003080368
42,269,74429,6,0,L|111:248,1,56.9999982604981
167,286,74657,2,0,B|196:268|196:268|335:298,1,161.500003080368
421,318,75111,1,0,0:0:0:0:
470,216,75339,6,0,P|487:160|436:231,1,285
327,256,75793,6,0,P|298:205|315:122,1,113.999996520996
267,79,76134,2,0,P|214:133|205:196,1,113.999996520996
175,246,76475,1,0,0:0:0:0:
59,348,76702,6,0,P|45:309|57:270,1,56.9999982604981
92,228,76929,2,0,P|99:145|28:44,1,161.500003080368
208,28,77384,6,0,P|233:18|279:28,1,56.9999982604981
310,100,77611,2,0,P|227:119|128:55,1,161.500003080368
159,193,78066,6,0,L|158:280,1,56.9999982604981
207,316,78293,2,0,B|239:332|239:332|376:298,1,161.500003080368
423,242,78634,6,0,L|433:171,2,56.9999982604981
374,126,78975,2,0,B|316:135|316:135|282:95|180:111,1,170.999994781494
142,147,79429,2,0,P|123:108|147:37,1,113.999996520996
219,22,79770,2,0,L|394:44,1,161.500003080368
461,55,80111,1,0,0:0:0:0:
491,188,80339,5,0,0:0:0:0:
486,217,80452,1,0,0:0:0:0:
482,241,80566,1,0,0:0:0:0:
478,267,80679,1,0,0:0:0:0:
411,320,80793,5,0,0:0:0:0:
400,297,80907,1,0,0:0:0:0:
387,267,81020,1,0,0:0:0:0:
371,231,81134,1,0,0:0:0:0:
312,153,81248,5,0,0:0:0:0:
296,180,81361,1,0,0:0:0:0:
283,204,81475,1,0,0:0:0:0:
270,229,81589,1,0,0:0:0:0:
217,290,81702,5,0,0:0:0:0:
191,262,81816,1,0,0:0:0:0:
165,231,81929,1,0,0:0:0:0:
139,201,82043,1,0,0:0:0:0:
166,117,82157,6,0,P|216:102|295:104,1,113.999996520996
321,128,82498,1,0,0:0:0:0:
365,165,82611,2,0,B|375:237|430:273|430:273|371:300|303:365,1,209.000006378174
221,274,83066,6,0,P|167:292|90:243,1,113.999996520996
114,191,83407,2,0,P|168:173|245:222,1,113.999996520996
285,233,83748,1,0,0:0:0:0:
366,180,83975,6,0,L|357:95,1,56.9999982604981
436,109,84202,2,0,L|460:300,1,170.999994781494
292,289,84657,6,0,L|283:220,1,56.9999982604981
208,187,84884,2,0,L|228:366,1,170.999994781494
126,339,85339,6,0,P|97:344|35:318,1,56.9999982604981
35,269,85566,2,0,L|21:129,1,85.4999973907472
77,126,85793,6,0,P|107:117|199:142,1,113.999996520996
254,175,86134,1,0,0:0:0:0:
320,221,86248,2,0,P|354:240|423:226,1,85.4999973907472
461,186,86589,1,0,0:0:0:0:
503,254,86702,6,0,L|493:338,1,66.4999979705811
422,351,87043,1,0,0:0:0:0:
358,302,87157,2,0,L|308:313,1,38
261,262,87498,1,0,0:0:0:0:
215,328,87611,5,0,0:0:0:0:
145,260,96702,6,0,P|135:205|155:151,1,95
261,62,97157,2,0,P|266:135|241:192,1,95
352,288,97611,6,0,L|468:270,1,95
472,238,97952,1,0,0:0:0:0:
502,191,98066,2,0,L|395:204,1,95
327,115,98520,6,0,P|319:57|335:12,1,95
407,202,98975,2,0,P|417:255|384:332,1,95
270,207,99429,6,0,L|146:226,1,95
141,196,99770,1,0,0:0:0:0:
100,166,99884,2,0,L|-5:188,1,95
104,342,100339,6,0,L|217:325,1,95
362,252,100793,2,0,L|237:277,1,95
181,213,101248,6,0,P|171:175|191:103,1,95
221,95,101589,1,0,0:0:0:0:
270,69,101702,2,0,P|337:58|386:71,1,95
363,62,103066,6,0,B|469:99|480:194|480:194|403:313|286:100|192:251,1,455.999986083985
