osu file format v14

[General]
AudioFilename: audio.mp3
AudioLeadIn: 0
PreviewTime: 169030
Countdown: 0
SampleSet: Soft
StackLeniency: 0
Mode: 0
LetterboxInBreaks: 0
WidescreenStoryboard: 1

[Editor]
Bookmarks: 135589
DistanceSpacing: 1.5
BeatDivisor: 8
GridSize: 8
TimelineZoom: 2.4

[Metadata]
Title:Whiplash ft. josh pan (sakuraburst Remix)
TitleUnicode:Whiplash ft. josh pan (sakuraburst Remix)
Artist:X&G
ArtistUnicode:X&G
Creator:rawrneru
Version:CUDI
Source:
Tags:
BeatmapID:1692458
BeatmapSetID:806301

[Difficulty]
HPDrainRate:5.8
CircleSize:4
OverallDifficulty:8.5
ApproachRate:9.6
SliderMultiplier:2.99999990463257
SliderTickRate:1

[Events]
//Background and Video events
0,0,"415400.jpg",0,0
//Break Periods
2,124495,135080
//Storyboard Layer 0 (Background)
//Storyboard Layer 1 (Fail)
//Storyboard Layer 2 (Pass)
//Storyboard Layer 3 (Foreground)
//Storyboard Layer 4 (Overlay)
//Storyboard Sound Samples

[TimingPoints]
60,352.941176470588,4,2,1,80,1,0
9942,-66.6666666666667,4,2,1,80,0,0
11354,-125,4,2,1,80,0,0
17001,-111.111111111111,4,2,1,80,0,0
18412,-99.9999999999999,4,2,1,80,0,0
19824,-90.9090909090909,4,2,1,80,0,0
21236,-66.6666666666667,4,2,1,80,0,0
22648,-250.000000000001,4,2,1,80,0,0
33942,-166.666666666667,4,2,1,80,0,0
42412,-66.6666666666667,4,2,1,80,0,0
45236,-250,4,2,1,80,0,0
56530,-250,4,2,1,80,0,0
62177,-166.666666666667,4,2,1,80,0,0
66765,-125,4,2,1,80,0,0
68001,-41.6666666666667,4,2,1,80,0,0
68177,-25,4,2,1,80,0,1
68221,-25,4,2,1,5,0,1
68265,-25,4,2,1,80,0,1
68309,-25,4,2,1,5,0,1
68354,-25,4,2,1,80,0,1
68398,-25,4,2,1,5,0,1
68442,-25,4,2,1,80,0,1
68486,-25,4,2,1,5,0,1
68530,-25,4,2,1,80,0,1
68574,-25,4,2,1,5,0,1
68618,-25,4,2,1,80,0,1
68662,-25,4,2,1,5,0,1
68707,-25,4,2,1,80,0,1
68751,-25,4,2,1,5,0,1
68795,-25,4,2,1,80,0,1
68839,-25,4,2,1,5,0,1
68883,-25,4,2,1,80,0,1
68927,-25,4,2,1,5,0,1
68971,-25,4,2,1,80,0,1
69015,-25,4,2,1,5,0,1
69059,-41.6666666666667,4,2,1,80,0,1
69236,-25,4,2,1,80,0,1
69280,-25,4,2,1,5,0,1
69324,-25,4,2,1,80,0,1
69368,-25,4,2,1,5,0,1
69412,-25,4,2,1,80,0,1
69456,-25,4,2,1,5,0,1
69500,-25,4,2,1,80,0,1
69544,-25,4,2,1,5,0,1
69589,-41.6666666666667,4,2,1,80,0,1
69765,-25,4,2,1,80,0,1
69809,-25,4,2,1,5,0,1
69853,-25,4,2,1,80,0,1
69897,-25,4,2,1,5,0,1
69941,-25,4,2,1,80,0,1
69985,-25,4,2,1,5,0,1
70029,-25,4,2,1,80,0,1
70073,-25,4,2,1,5,0,1
70118,-25,4,2,1,80,0,1
70162,-25,4,2,1,5,0,1
70206,-25,4,2,1,80,0,1
70250,-25,4,2,1,5,0,1
70294,-25,4,2,1,80,0,1
70338,-25,4,2,1,5,0,1
70382,-25,4,2,1,80,0,1
70426,-25,4,2,1,5,0,1
70471,-41.6666666666667,4,2,1,80,0,1
70648,-55.5555555555556,4,2,1,80,0,1
70824,-41.6666666666667,4,2,1,80,0,1
71001,-25,4,2,1,80,0,1
71045,-25,4,2,1,5,0,1
71089,-25,4,2,1,80,0,1
71133,-25,4,2,1,5,0,1
71177,-25,4,2,1,80,0,1
71221,-25,4,2,1,5,0,1
71265,-25,4,2,1,80,0,1
71309,-25,4,2,1,5,0,1
71354,-25,4,2,1,80,0,1
71398,-25,4,2,1,5,0,1
71442,-25,4,2,1,80,0,1
71486,-25,4,2,1,5,0,1
71530,-25,4,2,1,80,0,1
71574,-25,4,2,1,5,0,1
71618,-25,4,2,1,80,0,1
71662,-25,4,2,1,5,0,1
71707,-25,4,2,1,80,0,1
71751,-25,4,2,1,5,0,1
71795,-25,4,2,1,80,0,1
71839,-25,4,2,1,5,0,1
71883,-41.6666666666667,4,2,1,80,0,1
72059,-25,4,2,1,80,0,1
72104,-25,4,2,1,5,0,1
72148,-25,4,2,1,80,0,1
72192,-25,4,2,1,5,0,1
72236,-25,4,2,1,80,0,1
72280,-25,4,2,1,5,0,1
72324,-25,4,2,1,80,0,1
72368,-25,4,2,1,5,0,1
72412,-41.6666666666667,4,2,1,80,0,1
72589,-25,4,2,1,80,0,1
72633,-25,4,2,1,5,0,1
72677,-25,4,2,1,80,0,1
72721,-25,4,2,1,5,0,1
72765,-25,4,2,1,80,0,1
72809,-25,4,2,1,5,0,1
72854,-25,4,2,1,80,0,1
72898,-25,4,2,1,5,0,1
72942,-25,4,2,1,80,0,1
72986,-25,4,2,1,5,0,1
73030,-25,4,2,1,80,0,1
73074,-25,4,2,1,5,0,1
73118,-25,4,2,1,80,0,1
73162,-25,4,2,1,5,0,1
73207,-25,4,2,1,80,0,1
73251,-25,4,2,1,5,0,1
73295,-41.6666666666667,4,2,1,80,0,1
73471,-55.5555555555556,4,2,1,80,0,0
73824,-25,4,2,1,80,0,1
73868,-25,4,2,1,5,0,1
73912,-25,4,2,1,80,0,1
73956,-25,4,2,1,5,0,1
74001,-25,4,2,1,80,0,1
74045,-25,4,2,1,5,0,1
74089,-25,4,2,1,80,0,1
74133,-25,4,2,1,5,0,1
74177,-25,4,2,1,80,0,1
74221,-25,4,2,1,5,0,1
74265,-25,4,2,1,80,0,1
74309,-25,4,2,1,5,0,1
74354,-25,4,2,1,80,0,1
74398,-25,4,2,1,5,0,1
74442,-25,4,2,1,80,0,1
74486,-25,4,2,1,5,0,1
74530,-25,4,2,1,80,0,1
74574,-25,4,2,1,5,0,1
74618,-25,4,2,1,80,0,1
74662,-25,4,2,1,5,0,1
74707,-41.6666666666667,4,2,1,80,0,1
74883,-25,4,2,1,80,0,1
74927,-25,4,2,1,5,0,1
74971,-25,4,2,1,80,0,1
75015,-25,4,2,1,5,0,1
75059,-25,4,2,1,80,0,1
75104,-25,4,2,1,5,0,1
75148,-25,4,2,1,80,0,1
75192,-25,4,2,1,5,0,1
75236,-41.6666666666667,4,2,1,80,0,1
75412,-25,4,2,1,80,0,1
76118,-41.6666666666667,4,2,1,80,0,1
76295,-55.5555555555556,4,2,1,80,0,1
76471,-41.6666666666667,4,2,1,80,0,1
76648,-25,4,2,1,80,0,1
77530,-41.6666666666667,4,2,1,80,0,1
77707,-25,4,2,1,80,0,1
78059,-41.6666666666667,4,2,1,80,0,1
78765,-55.5555555555556,4,2,1,80,0,1
79118,-55.5555555555556,4,2,1,80,0,0
79471,-41.6666666666667,4,2,1,80,0,1
81942,-55.5555555555556,4,2,1,80,0,1
82118,-41.6666666666667,4,2,1,80,0,1
82295,-25,4,2,1,80,0,1
83177,-41.6666666666667,4,2,1,80,0,1
83354,-25,4,2,1,80,0,1
83707,-41.6666666666667,4,2,1,80,0,1
83883,-25,4,2,1,80,0,1
84589,-41.6666666666667,4,2,1,80,0,1
84765,-55.5555555555556,4,2,1,80,0,0
85118,-41.6666666666667,4,2,1,80,0,1
87589,-55.5555555555556,4,2,1,80,0,1
87765,-41.6666666666667,4,2,1,80,0,1
87942,-25,4,2,1,80,0,1
88824,-41.6666666666667,4,2,1,80,0,1
89001,-55.5555555555556,4,2,1,80,0,0
90059,-45.4545454545455,4,2,1,80,0,1
90412,-100,4,2,1,80,0,0
100295,-66.6666666666667,4,2,1,80,0,0
101707,-125,4,2,1,80,0,0
107354,-111.111111111111,4,2,1,80,0,0
108765,-100,4,2,1,80,0,0
110177,-90.9090909090909,4,2,1,80,0,0
111589,-66.6666666666667,4,2,1,80,0,0
135589,-250.000000000001,4,2,1,80,0,0
144059,-66.6666666666667,4,2,1,80,0,0
146883,-250,4,2,1,80,0,0
158177,-250,4,2,1,80,0,0
163824,-166.666666666667,4,2,1,80,0,0
168412,-125,4,2,1,80,0,0
169118,-125,4,2,1,80,0,0
169648,-41.6666666666667,4,2,1,80,0,0
170177,-71.4285714285714,4,2,1,80,0,1
170442,-100,4,2,1,80,0,1
170707,-41.6666666666667,4,2,1,80,0,1
171059,-100,4,2,1,80,0,1
171236,-41.6666666666667,4,2,1,80,0,1
171589,-71.4285714285714,4,2,1,80,0,1
171854,-100,4,2,1,80,0,1
172118,-41.6666666666667,4,2,1,80,0,1
172295,-55.5555555555556,4,2,1,80,0,1
172471,-41.6666666666667,4,2,1,80,0,1
173001,-71.4285714285714,4,2,1,80,0,1
173265,-100,4,2,1,80,0,1
173530,-41.6666666666667,4,2,1,80,0,1
173883,-100,4,2,1,80,0,1
174059,-41.6666666666667,4,2,1,80,0,1
174412,-71.4285714285714,4,2,1,80,0,1
174677,-100,4,2,1,80,0,1
175118,-55.5555555555556,4,2,1,80,0,0
175471,-41.6666666666667,4,2,1,80,0,1
175648,-71.4285714285714,4,2,1,80,0,1
175824,-41.6666666666667,4,2,1,80,0,1
176530,-83.3333333333333,4,2,1,80,0,1
176883,-41.6666666666667,4,2,1,80,0,1
177236,-71.4285714285714,4,2,1,80,0,1
177589,-100,4,2,1,80,0,1
177765,-41.6666666666667,4,2,1,80,0,1
177942,-55.5555555555556,4,2,1,80,0,1
178118,-41.6666666666667,4,2,1,80,0,1
178295,-55.5555555555556,4,2,1,80,0,1
178648,-71.4285714285714,4,2,1,80,0,1
178912,-100,4,2,1,80,0,1
179177,-41.6666666666667,4,2,1,80,0,1
179354,-71.4285714285714,4,2,1,80,0,0
180412,-55.5555555555556,4,2,1,80,0,1
180765,-83.3333333333333,4,2,1,80,0,0
180942,-41.6666666666667,4,2,1,80,0,0
181471,-55.5555555555556,4,2,1,80,0,1
181736,-71.4285714285714,4,2,1,80,0,1
182001,-41.6666666666667,4,2,1,80,0,1
182354,-71.4285714285714,4,2,1,80,0,1
182530,-41.6666666666667,4,2,1,80,0,1
182883,-55.5555555555556,4,2,1,80,0,1
183148,-71.4285714285714,4,2,1,80,0,1
183412,-41.6666666666667,4,2,1,80,0,1
183589,-55.5555555555556,4,2,1,80,0,1
183765,-41.6666666666667,4,2,1,80,0,1
184295,-55.5555555555556,4,2,1,80,0,1
184559,-71.4285714285714,4,2,1,80,0,1
184824,-41.6666666666667,4,2,1,80,0,1
185177,-71.4285714285714,4,2,1,80,0,1
185354,-41.6666666666667,4,2,1,80,0,1
185707,-55.5555555555556,4,2,1,80,0,1
185971,-71.4285714285714,4,2,1,80,0,1
186412,-55.5555555555556,4,2,1,80,0,0
186765,-41.6666666666667,4,2,1,80,0,1
186942,-55.5555555555556,4,2,1,80,0,1
187118,-41.6666666666667,4,2,1,80,0,1
187824,-83.3333333333333,4,2,1,80,0,1
188177,-41.6666666666667,4,2,1,80,0,1
188530,-71.4285714285714,4,2,1,80,0,1
188883,-100,4,2,1,80,0,1
189059,-41.6666666666667,4,2,1,80,0,1
189236,-55.5555555555556,4,2,1,80,0,1
189412,-41.6666666666667,4,2,1,80,0,1
189589,-55.5555555555556,4,2,1,80,0,1
189942,-71.4285714285714,4,2,1,80,0,1
190207,-100,4,2,1,80,0,1
190471,-41.6666666666667,4,2,1,80,0,1
190648,-71.4285714285714,4,2,1,80,0,0
191707,-71.4285714285714,4,2,1,80,0,1
192059,-71.4285714285714,4,2,1,80,0,0
192236,-71.4285714285714,4,2,1,80,0,1
192412,-100,4,2,1,80,0,0
201942,-66.6666666666667,4,2,1,80,0,0
203354,-100,4,2,1,80,0,0
213236,-66.6666666666667,4,2,1,80,0,0
214295,-55.5555555555556,4,2,1,80,0,0

[Colours]
Combo1 : 176,125,30
Combo2 : 132,162,176
Combo3 : 64,179,191
Combo4 : 245,164,52

[HitObjects]
64,169,60,5,0,0:0:0:0:
64,169,412,5,0,0:0:0:0:
131,220,589,1,0,0:0:0:0:
208,187,765,1,0,0:0:0:0:
208,187,1118,5,0,0:0:0:0:
217,103,1295,2,0,L|221:65,2,37.4999988079071
285,153,1471,5,0,0:0:0:0:
285,153,1823,5,0,0:0:0:0:
352,102,2000,1,0,0:0:0:0:
429,135,2176,1,0,0:0:0:0:
429,135,2529,5,0,0:0:0:0:
438,219,2706,2,0,L|442:257,2,37.4999988079071
358,247,2883,5,0,0:0:0:0:
358,247,3235,5,0,0:0:0:0:
291,298,3412,1,0,0:0:0:0:
214,265,3588,1,0,0:0:0:0:
214,265,3941,5,0,0:0:0:0:
205,181,4118,2,0,L|201:143,2,37.4999988079071
135,90,4295,5,0,0:0:0:0:
135,90,4647,5,0,0:0:0:0:
202,39,4824,1,0,0:0:0:0:
279,72,5000,1,0,0:0:0:0:
279,72,5353,5,0,0:0:0:0:
288,156,5530,2,0,L|292:194,2,37.4999988079071
206,182,5707,5,0,0:0:0:0:
206,182,6059,5,0,0:0:0:0:
139,131,6236,1,0,0:0:0:0:
62,164,6412,1,0,0:0:0:0:
62,164,6765,5,0,0:0:0:0:
53,248,6942,2,0,L|49:286,2,37.4999988079071
130,214,7118,5,0,0:0:0:0:
130,214,7470,5,0,0:0:0:0:
197,163,7647,1,0,0:0:0:0:
274,196,7823,1,0,0:0:0:0:
274,196,8176,5,0,0:0:0:0:
283,280,8353,2,0,L|287:318,2,37.4999988079071
351,230,8530,5,0,0:0:0:0:
351,230,8882,5,0,0:0:0:0:
418,281,9059,1,0,0:0:0:0:
495,248,9235,1,0,0:0:0:0:
495,248,9588,5,0,0:0:0:0:
504,164,9765,2,0,L|508:126,2,37.4999988079071
429,96,9942,6,0,B|383:104|383:104|375:113|375:113|320:122,1,112.500000715256,0|0,1:0|0:0,0:0:0:0:
290,200,10118,2,0,B|244:208|244:208|236:217|236:217|181:226,1,112.500000715256,0|0,1:0|0:0,0:0:0:0:
182,225,11001,6,0,P|296:183|191:264,1,337.500002145767,8|0,0:1|0:0,0:0:0:0:
166,219,11354,6,0,B|141:164|141:164|156:101,1,119.999996185303,0|0,1:0|0:0,0:0:0:0:
222,42,11618,1,0,0:0:0:0:
222,42,11707,2,0,B|247:97|247:97|232:160,1,119.999996185303,0|0,1:0|0:0,0:0:0:0:
144,99,11971,1,0,0:0:0:0:
144,99,12059,2,0,L|22:85,1,119.999996185303,0|0,1:0|0:0,0:0:0:0:
248,168,12324,1,0,0:0:0:0:
248,168,12412,6,0,L|309:161,1,59.9999980926514,0|0,1:0|0:0,0:0:0:0:
157,209,12589,2,0,L|126:205,2,29.9999990463257
232,261,12765,38,0,B|255:348|255:348|246:377,1,119.999996185303,0|0,1:0|0:0,0:0:0:0:
345,372,13030,1,0,0:0:0:0:
345,372,13118,2,0,B|322:285|322:285|331:256,1,119.999996185303,0|0,1:0|0:0,0:0:0:0:
511,257,13383,1,0,0:0:0:0:
511,257,13471,2,0,B|465:295|465:295|403:289,1,119.999996185303,0|0,1:0|0:0,0:0:0:0:
403,207,13736,1,0,0:0:0:0:
403,207,13824,6,0,L|396:148,1,59.9999980926514,0|0,1:0|0:0,0:0:0:0:
339,77,14001,2,0,L|342:47,2,29.9999990463257
265,130,14177,38,0,L|143:117,1,119.999996185303,0|0,1:0|0:0,0:0:0:0:
14,221,14442,1,0,0:0:0:0:
14,221,14530,2,0,L|133:208,1,119.999996185303,0|0,1:0|0:0,0:0:0:0:
216,250,14795,1,0,0:0:0:0:
216,250,14883,2,0,B|225:279|225:279|206:367,1,119.999996185303,0|0,1:0|0:0,0:0:0:0:
81,293,15148,1,0,0:0:0:0:
81,293,15236,6,0,L|140:286,1,59.9999980926514,0|0,1:0|0:0,0:0:0:0:
230,245,15412,2,0,L|259:248,2,29.9999990463257
143,198,15589,38,0,B|118:144|118:144|128:75,1,119.999996185303,0|0,1:0|0:0,0:0:0:0:
187,19,15854,1,0,0:0:0:0:
187,19,15942,2,0,B|212:73|212:73|202:142,1,119.999996185303,0|0,1:0|0:0,0:0:0:0:
309,167,16207,1,0,0:0:0:0:
309,167,16295,2,0,B|284:113|284:113|294:44,1,119.999996185303,0|0,1:0|0:0,0:0:0:0:
427,90,16559,1,0,0:0:0:0:
427,90,16648,6,0,L|358:101,1,59.9999980926514,0|0,1:0|0:0,0:0:0:0:
430,175,16824,2,0,L|464:180,2,29.9999990463257
366,238,17001,38,0,B|334:300|334:300|343:367,1,134.999991588593,0|0,1:0|0:0,0:0:0:0:
248,286,17265,1,0,0:0:0:0:
248,286,17354,2,0,B|280:224|280:224|271:157,1,134.999991588593,0|0,1:0|0:0,0:0:0:0:
61,193,17618,1,0,0:0:0:0:
61,193,17707,2,0,L|197:208,1,134.999991588593,0|0,1:0|0:0,0:0:0:0:
75,106,17971,1,0,0:0:0:0:
75,106,18059,6,0,L|7:115,1,67.4999957942964,0|0,1:0|0:0,0:0:0:0:
158,92,18236,2,0,L|192:87,2,33.7499978971482
49,202,18412,38,0,B|30:239|30:239|45:347,1,149.999995231629,0|0,1:0|0:0,0:0:0:0:
251,285,18677,1,0,0:0:0:0:
251,285,18765,2,0,B|185:240|185:240|114:252,1,149.999995231629,0|0,1:0|0:0,0:0:0:0:
321,341,19030,1,0,0:0:0:0:
321,341,19118,2,0,B|340:304|340:304|325:196,1,149.999995231629,0|0,1:0|0:0,0:0:0:0:
399,146,19383,1,0,0:0:0:0:
399,146,19471,6,0,L|410:229,1,74.9999976158143,0|0,1:0|0:0,0:0:0:0:
422,302,19648,2,0,L|426:339,2,37.4999988079071
318,186,19824,38,0,B|243:154|243:154|162:177,1,164.999999790192,0|0,1:0|0:0,0:0:0:0:
132,23,20089,1,0,0:0:0:0:
51,73,20177,2,0,B|126:105|126:105|207:82,1,164.999999790192,0|0,1:0|0:0,0:0:0:0:
413,24,20442,1,0,0:0:0:0:
327,10,20530,2,0,L|310:184,1,164.999999790192,0|0,1:0|0:0,0:0:0:0:
290,353,20795,1,0,0:0:0:0:
237,280,20883,6,0,B|273:260|273:260|314:266,1,82.4999998950959,0|0,1:0|0:0,0:0:0:0:
385,331,21059,2,0,L|392:371,2,41.2499999475479
226,269,21236,6,0,B|181:262|181:262|164:249|164:249|117:242,1,112.500000715256,0|0,1:0|0:0,0:0:0:0:
256,192,21412,12,0,22471,0:0:0:0:
256,192,22648,38,0,P|305:160|373:164,1,119.999996185303
420,216,23177,1,0,0:0:0:0:
368,330,23354,2,0,P|362:300|363:271,2,59.9999980926514
287,286,23883,1,0,0:0:0:0:
218,322,24059,38,0,P|156:305|131:257,1,119.999996185303
61,221,24589,2,0,P|52:245|34:282,1,59.9999980926514
134,176,24942,1,0,0:0:0:0:
64,141,25118,2,0,L|29:136,2,29.9999990463257
64,141,25471,6,0,P|94:108|168:106,1,119.999996185303
236,139,26001,1,0,0:0:0:0:
264,66,26177,2,0,P|289:56|325:51,1,59.9999980926514
390,88,26530,1,0,0:0:0:0:
355,197,26707,38,0,P|339:172|333:142,1,59.9999980926514
428,224,27059,2,0,P|422:253|406:278,1,59.9999980926514
334,311,27412,2,0,P|340:340|356:365,1,59.9999980926514
261,285,27765,1,0,0:0:0:0:
205,340,27942,2,0,L|172:344,2,29.9999990463257
205,340,28295,6,0,P|186:302|215:224,1,119.999996185303
151,175,28824,1,0,0:0:0:0:
85,218,29001,2,0,P|100:245|106:274,1,59.9999980926514
79,141,29354,1,0,0:0:0:0:
143,97,29530,1,0,0:0:0:0:
214,127,29707,38,0,P|239:125|274:108,1,59.9999980926514
325,55,30059,1,0,0:0:0:0:
330,187,30236,2,0,P|342:159|345:129,1,59.9999980926514
254,203,30589,1,0,0:0:0:0:
306,260,30765,2,0,L|339:265,2,29.9999990463257
306,260,31118,6,0,P|276:278|194:251,1,119.999996185303
122,277,31648,1,0,0:0:0:0:
99,351,31824,2,0,P|74:371|46:377,2,59.9999980926514
108,272,32354,38,0,P|83:252|55:246,1,59.9999980926514
64,146,32707,2,0,P|36:156|16:178,1,59.9999980926514
129,189,33059,2,0,P|147:166|154:137,1,59.9999980926514
105,76,33412,1,0,0:0:0:0:
182,64,33589,2,0,L|215:59,2,29.9999990463257
242,139,33942,6,0,B|340:124|313:196|410:179,1,179.99998878479,0|0,1:0|0:0,0:0:0:0:
475,113,34471,2,0,P|476:75|454:23,1,89.9999943923952,0|0,1:0|0:0,0:0:0:0:
385,90,34824,1,0,0:0:0:0:
414,189,35001,2,0,P|458:194|497:216,1,89.9999943923952
341,381,35354,38,0,P|304:302|345:225,1,179.99998878479,0|0,1:0|0:0,0:0:0:0:
400,305,35883,1,0,1:0:0:0:
336,214,36059,2,0,P|298:208|231:222,1,89.9999943923952
183,279,36412,1,0,0:0:0:0:
198,139,36589,1,0,0:0:0:0:
136,203,36765,6,0,P|111:156|171:54,1,179.99998878479,0|0,1:0|0:0,0:0:0:0:
250,73,37295,2,0,P|293:65|329:38,2,89.9999943923952,0|0|0,1:0|0:0|0:0,0:0:0:0:
404,153,37824,2,0,P|419:111|414:67,1,89.9999943923952
318,183,38177,38,0,P|366:237|465:222,1,179.99998878479,0|0,1:0|0:0,0:0:0:0:
296,298,38707,2,0,P|303:341|332:375,1,89.9999943923952,0|0,1:0|0:0,0:0:0:0:
215,260,39059,1,0,0:0:0:0:
125,274,39236,2,0,P|89:301|75:343,1,89.9999943923952
194,167,39589,6,0,B|96:144|125:222|25:200,1,179.99998878479,0|0,1:0|0:0,0:0:0:0:
61,44,40118,2,0,P|104:51|139:79,2,89.9999943923952,0|0|0,1:0|0:0|0:0,0:0:0:0:
223,45,40648,2,0,P|257:42|304:6,1,89.9999943923952
375,60,41001,38,0,P|336:101|339:223,1,179.99998878479,0|0,1:0|0:0,0:0:0:0:
400,281,41530,2,0,P|422:243|424:199,1,89.9999943923952,0|0,1:0|0:0,0:0:0:0:
281,287,41883,2,0,P|319:311|341:350,2,89.9999943923952
141,354,42412,22,0,B|183:361|183:361|192:371|192:371|248:379,1,112.500000715256,0|0,1:0|0:0,0:0:0:0:
256,192,42589,12,0,44530,0:0:0:0:
11,168,45236,6,0,B|56:35|56:35|330:-1|330:-1|301:92|301:92|127:114|127:114|70:280|70:280|140:358|140:358|198:197|198:197|372:175|372:175|407:65|407:65|507:53|507:53|430:321|430:321,1,1799.99994277954,0|0,1:0|0:0,0:0:0:0:
51,380,50883,38,0,B|235:359|235:359|270:263|270:263|454:243|454:243|481:145|481:145|190:182|190:182|156:275|156:275|35:289|35:289|136:-1|136:-1|195:88|195:88|490:51,1,1799.99994277954,0|0,1:0|0:0,0:0:0:0:
45,123,56530,38,0,B|23:66|23:66|51:10,1,119.999996185303,0|0,1:0|0:0,0:0:0:0:
109,69,57236,2,0,B|130:125|130:125|102:181,1,119.999996185303,0|0,1:0|0:0,0:0:0:0:
19,317,57942,38,0,B|-2:260|-2:260|25:204,1,119.999996185303,0|0,1:0|0:0,0:0:0:0:
84,264,58648,2,0,B|105:320|105:320|77:376,1,119.999996185303,0|0,1:0|0:0,0:0:0:0:
214,322,59354,6,0,L|344:333,1,119.999996185303,0|0,1:0|0:0,0:0:0:0:
402,233,60059,2,0,L|272:244,1,119.999996185303,0|0,1:0|0:0,0:0:0:0:
214,144,60765,38,0,L|344:155,1,119.999996185303,0|0,1:0|0:0,0:0:0:0:
402,55,61471,2,0,L|272:66,1,119.999996185303,0|0,1:0|0:0,0:0:0:0:
264,341,62177,6,0,B|283:300|283:300|272:231,1,89.9999943923952,0|0,1:0|0:0,0:0:0:0:
377,162,62530,2,0,B|358:203|358:203|369:272,1,89.9999943923952,0|0,1:0|0:0,0:0:0:0:
455,342,62883,2,0,L|362:333,1,89.9999943923952,0|0,1:0|0:0,0:0:0:0:
186,161,63236,2,0,L|279:170,1,89.9999943923952,0|0,1:0|0:0,0:0:0:0:
434,95,63589,38,0,B|395:75|395:75|345:80,1,89.9999943923952,0|0,1:0|0:0,0:0:0:0:
97,135,63942,2,0,B|136:155|136:155|181:150,1,89.9999943923952,0|0,1:0|0:0,0:0:0:0:
375,162,64295,6,0,L|285:171,1,89.9999943923952,0|0,1:0|0:0,0:0:0:0:
156,68,64648,2,0,L|245:58,1,89.9999943923952,0|0,1:0|0:0,0:0:0:0:
256,256,65001,5,0,0:0:0:0:
256,256,65354,1,0,0:0:0:0:
256,256,65707,1,0,0:0:0:0:
256,256,66236,5,0,0:0:0:0:
256,336,66412,1,0,0:0:0:0:
181,297,66765,6,0,B|119:307,1,59.9999980926514
331,297,66942,2,0,B|393:307,1,59.9999980926514
256,176,67118,1,0,0:0:0:0:
256,256,67294,1,0,0:0:0:0:
252,96,67471,22,0,P|256:38|254:96,1,179.999994277954,8|0,0:1|0:0,0:0:0:0:
342,120,67824,22,0,P|355:93|355:51,1,59.9999980926514,0|0,1:0|0:0,0:0:0:0:
73,169,68001,22,0,B|101:173|101:173|106:169|106:169|110:174|110:174|147:179|147:179|170:167|170:167|201:171|201:171|206:177|206:177|212:173|212:173|242:177,1,179.99998878479,2|0,0:0|0:0,0:0:0:0:
455,251,68177,6,0,P|478:208|458:253,1,149.999995231629,0|0,1:0|0:0,0:0:0:0:
454,250,68265,2,0,P|483:210|458:253,1,149.999995231629
455,251,68354,2,0,P|478:208|458:253,1,149.999995231629
455,251,68442,2,0,P|478:208|458:253,1,149.999995231629
345,237,68530,38,0,P|319:195|348:235,1,149.999995231629,0|0,1:0|0:0,0:0:0:0:
345,237,68618,2,0,P|319:195|348:235,1,149.999995231629
345,237,68707,2,0,P|319:195|348:235,1,149.999995231629
345,237,68795,2,0,P|319:195|348:235,1,149.999995231629
306,339,68883,6,0,P|257:340|306:335,1,149.999995231629,0|0,1:0|0:0,0:0:0:0:
306,339,68971,2,0,P|257:340|306:335,1,149.999995231629
306,339,69059,38,0,B|278:343|278:343|272:339|272:339|269:344|269:344|232:349|232:349|209:337|209:337|178:341|178:341|173:347|173:347|167:343|167:343|136:347,1,179.99998878479,2|0,0:0|0:0,0:0:0:0:
68,170,69236,6,0,P|45:127|65:171,1,149.999995231629,0|0,1:0|0:0,0:0:0:0:
68,170,69324,2,0,P|45:127|65:171,1,149.999995231629
68,170,69412,2,0,P|45:127|65:171,1,149.999995231629
68,170,69500,2,0,P|45:127|65:171,1,149.999995231629
163,131,69589,38,0,B|191:134|191:134|197:130|197:130|202:136|202:136|233:140|233:140|256:128|256:128|293:133|293:133|296:138|296:138|302:134|302:134|330:138,1,179.99998878479,2|0,1:2|0:0,0:0:0:0:
416,81,69765,6,0,P|439:38|418:82,1,149.999995231629
416,81,69853,2,0,P|439:38|418:82,1,149.999995231629
447,203,69942,38,0,P|488:177|448:206,1,149.999995231629,0|0,1:0|0:0,0:0:0:0:
447,203,70030,2,0,P|488:177|448:206,1,149.999995231629
447,203,70118,2,0,P|488:177|448:206,1,149.999995231629
447,203,70206,2,0,P|488:177|448:206,1,149.999995231629
357,297,70295,6,0,P|405:295|356:300,1,149.999995231629,0|0,1:0|0:0,0:0:0:0:
357,297,70383,2,0,P|405:295|356:300,1,149.999995231629
357,297,70471,38,0,B|328:300|328:300|322:296|322:296|317:302|317:302|286:306|286:306|263:294|263:294|226:299|226:299|223:304|223:304|217:300|217:300|189:304,1,179.99998878479,2|0,0:0|0:0,0:0:0:0:
176,315,70648,22,0,P|122:316|177:334,1,134.999991588593,0|0,1:0|0:0,0:0:0:0:
318,213,70824,22,0,B|322:184|322:184|318:178|318:178|324:173|324:173|328:142|328:142|316:119|316:119|321:82|321:82|326:79|326:79|322:73|322:73|326:46,1,179.99998878479,2|0,0:0|0:0,0:0:0:0:
203,66,71001,6,0,P|225:21|199:63,1,149.999995231629,0|0,1:0|0:0,0:0:0:0:
203,66,71089,2,0,P|225:21|199:63,1,149.999995231629
203,66,71177,2,0,P|225:21|199:63,1,149.999995231629
203,66,71265,2,0,P|225:21|199:63,1,149.999995231629
94,101,71354,38,0,P|91:51|90:101,1,149.999995231629,0|0,1:0|0:0,0:0:0:0:
94,101,71442,2,0,P|91:51|90:101,1,149.999995231629
94,101,71530,2,0,P|91:51|90:101,1,149.999995231629
94,101,71618,2,0,P|91:51|90:101,1,149.999995231629
44,212,71707,6,0,P|17:171|40:214,1,149.999995231629,0|0,1:0|0:0,0:0:0:0:
44,212,71795,2,0,P|17:171|40:214,1,149.999995231629
44,212,71883,38,0,B|48:240|48:240|44:246|44:246|50:251|50:251|54:282|54:282|42:305|42:305|47:342|47:342|52:345|52:345|48:351|48:351|52:379,1,179.99998878479,2|0,0:0|0:0,0:0:0:0:
360,327,72059,6,0,P|314:342|362:330,1,149.999995231629,0|0,1:0|0:0,0:0:0:0:
360,327,72147,2,0,P|314:342|362:330,1,149.999995231629
360,327,72235,2,0,P|314:342|362:330,1,149.999995231629
360,327,72323,2,0,P|314:342|362:330,1,149.999995231629
399,249,72412,38,0,B|403:221|403:221|399:215|399:215|404:212|404:212|409:175|409:175|397:152|397:152|401:121|401:121|407:116|407:116|403:110|403:110|407:82,1,179.99998878479,2|0,1:2|0:0,0:0:0:0:
287,25,72589,6,0,P|334:40|286:28,1,149.999995231629
287,25,72677,2,0,P|334:40|286:28,1,149.999995231629
155,69,72765,38,0,P|203:58|156:72,1,149.999995231629,0|0,1:0|0:0,0:0:0:0:
155,69,72853,2,0,P|203:58|156:72,1,149.999995231629
155,69,72942,2,0,P|203:58|156:72,1,149.999995231629
155,69,73030,2,0,P|203:58|156:72,1,149.999995231629
56,169,73118,6,0,P|93:136|59:171,1,149.999995231629,0|0,1:0|0:0,0:0:0:0:
56,169,73206,2,0,P|93:136|59:171,1,149.999995231629
56,169,73295,38,0,B|60:197|60:197|56:203|56:203|62:208|62:208|66:239|66:239|54:262|54:262|59:299|59:299|64:302|64:302|60:308|60:308|64:336,1,179.99998878479,2|0,0:0|0:0,0:0:0:0:
53,352,73471,22,0,P|89:347|123:369,6,67.4999957942964
237,309,73824,38,0,P|189:298|236:312,1,149.999995231629,0|0,1:0|0:0,0:0:0:0:
237,309,73912,2,0,P|189:298|236:312,1,149.999995231629
237,309,74001,2,0,P|189:298|236:312,1,149.999995231629
237,309,74089,2,0,P|189:298|236:312,1,149.999995231629
247,188,74177,38,0,P|210:154|244:190,1,149.999995231629,0|0,1:0|0:0,0:0:0:0:
247,188,74265,2,0,P|210:154|244:190,1,149.999995231629
247,188,74354,2,0,P|210:154|244:190,1,149.999995231629
247,188,74442,2,0,P|210:154|244:190,1,149.999995231629
290,72,74530,6,0,P|275:24|286:72,1,149.999995231629,0|0,1:0|0:0,0:0:0:0:
290,72,74618,2,0,P|275:24|286:72,1,149.999995231629
290,72,74707,38,0,B|262:68|262:68|256:72|256:72|251:66|251:66|220:62|220:62|197:74|197:74|160:69|160:69|157:64|157:64|151:68|151:68|123:64,1,179.99998878479,2|0,0:0|0:0,0:0:0:0:
11,255,74883,6,0,P|47:221|13:257,1,149.999995231629,0|0,1:0|0:0,0:0:0:0:
11,255,74971,2,0,P|47:221|13:257,1,149.999995231629
11,255,75060,2,0,P|47:221|13:257,1,149.999995231629
11,255,75148,2,0,P|47:221|13:257,1,149.999995231629
41,342,75236,38,0,B|69:338|69:338|75:342|75:342|78:337|78:337|115:332|115:332|138:344|138:344|169:340|169:340|174:334|174:334|180:338|180:338|208:334,1,179.99998878479,2|0,1:2|0:0,0:0:0:0:
283,175,75412,6,0,P|293:127|279:173,1,149.999995231629
283,175,75500,2,0,P|293:127|279:173,1,149.999995231629
398,207,75589,38,0,P|431:170|395:204,1,149.999995231629,0|0,1:0|0:0,0:0:0:0:
398,207,75677,2,0,P|431:170|395:204,1,149.999995231629
398,207,75765,2,0,P|431:170|395:204,1,149.999995231629
398,207,75853,2,0,P|431:170|395:204,1,149.999995231629
427,322,75942,6,0,P|474:307|426:318,1,149.999995231629,0|0,1:0|0:0,0:0:0:0:
427,322,76030,2,0,P|474:307|426:318,1,149.999995231629
427,322,76118,38,0,B|399:318|399:318|393:322|393:322|390:317|390:317|353:312|353:312|330:324|330:324|299:320|299:320|294:314|294:314|288:318|288:318|260:314,1,179.99998878479,2|0,0:0|0:0,0:0:0:0:
246,321,76295,22,0,P|192:311|231:351,1,134.999991588593,0|0,1:0|0:0,0:0:0:0:
321,242,76471,22,0,B|317:214|317:214|321:208|321:208|315:203|315:203|311:172|311:172|323:149|323:149|318:112|318:112|313:109|313:109|317:103|317:103|313:75,1,179.99998878479,2|0,0:0|0:0,0:0:0:0:
212,41,76648,6,0,P|175:7|209:43,1,149.999995231629,0|0,1:0|0:0,0:0:0:0:
212,41,76736,2,0,P|175:7|209:43,1,149.999995231629
212,41,76824,2,0,P|175:7|209:43,1,149.999995231629
212,41,76912,2,0,P|175:7|209:43,1,149.999995231629
97,85,77001,38,0,P|48:74|95:88,1,149.999995231629,0|0,1:0|0:0,0:0:0:0:
97,85,77089,2,0,P|48:74|95:88,1,149.999995231629
97,85,77177,2,0,P|48:74|95:88,1,149.999995231629
97,85,77265,2,0,P|48:74|95:88,1,149.999995231629
72,204,77354,6,0,P|24:218|72:207,1,149.999995231629,0|0,1:0|0:0,0:0:0:0:
72,204,77442,2,0,P|24:218|72:207,1,149.999995231629
72,204,77530,38,0,B|68:232|68:232|72:238|72:238|66:243|66:243|62:274|62:274|74:297|74:297|69:334|69:334|64:337|64:337|68:343|68:343|64:371,1,179.99998878479,2|0,0:0|0:0,0:0:0:0:
247,299,77707,6,0,P|280:335|244:301,1,149.999995231629,0|0,1:0|0:0,0:0:0:0:
247,299,77795,2,0,P|280:335|244:301,1,149.999995231629
247,299,77883,2,0,P|280:335|244:301,1,149.999995231629
247,299,77971,2,0,P|280:335|244:301,1,149.999995231629
311,228,78059,38,0,B|307:200|307:200|311:194|311:194|305:189|305:189|301:158|301:158|313:135|313:135|308:98|308:98|303:95|303:95|307:89|307:89|303:61,1,179.99998878479,2|0,1:2|0:0,0:0:0:0:
485,133,78236,6,0,P|516:136|485:143,1,89.9999943923952
484,152,78324,2,0,P|452:150|483:143,1,89.9999943923952
482,169,78412,22,0,B|518:210|518:210|492:207|492:207|487:211|487:211|485:206|485:206|466:203|466:203|450:192|450:192|387:184,1,179.99998878479,8|0,0:1|0:0,0:0:0:0:
221,77,78589,2,0,B|185:36|185:36|211:39|211:39|215:36|215:36|218:40|218:40|237:43|237:43|253:54|253:54|316:62,1,179.99998878479,8|0,0:1|0:0,0:0:0:0:
109,240,78765,6,0,B|69:264|69:264|60:283|60:283|30:302|30:302|25:265|25:265|34:240|34:240|30:213|30:213|39:167|39:167|34:163|34:163|40:159|40:159|49:118|49:118|66:96|66:96|81:17,1,404.999974765779,0|0,1:0|0:0,0:0:0:0:
84,32,79118,22,0,P|99:61|128:77,6,67.4999957942964
153,255,79471,22,0,P|147:223|161:251,1,89.9999943923952,0|0,1:0|0:0,0:0:0:0:
169,253,79559,2,0,P|163:221|177:249,1,89.9999943923952
185,251,79648,2,0,P|179:219|193:247,1,89.9999943923952
201,249,79736,2,0,P|195:217|209:245,1,89.9999943923952
247,311,79824,6,0,P|241:342|255:314,1,89.9999943923952,0|0,1:0|0:0,0:0:0:0:
263,313,79912,2,0,P|257:344|271:316,1,89.9999943923952
279,315,80001,2,0,P|273:346|287:318,1,89.9999943923952
295,317,80089,2,0,P|289:348|303:320,1,89.9999943923952
341,255,80177,38,0,P|335:223|349:251,1,89.9999943923952,0|0,1:0|0:0,0:0:0:0:
357,253,80265,2,0,P|351:221|365:249,1,89.9999943923952
378,245,80354,6,0,B|409:217|409:217|417:219|417:219|415:212|415:212|441:189|441:189|433:153|433:153|427:150|427:150|431:144|431:144|423:106,1,179.99998878479,2|0,0:0|0:0,0:0:0:0:
261,96,80530,38,0,P|267:65|253:93,1,89.9999943923952,0|0,1:0|0:0,0:0:0:0:
245,94,80618,2,0,P|251:63|237:91,1,89.9999943923952
229,92,80707,2,0,P|235:61|221:89,1,89.9999943923952
213,90,80795,2,0,P|219:59|205:87,1,89.9999943923952
126,115,80883,6,0,B|95:143|95:143|87:141|87:141|89:148|89:148|63:171|63:171|71:207|71:207|77:210|77:210|73:216|73:216|80:253,1,179.99998878479,2|0,1:2|0:0,0:0:0:0:
179,323,81059,38,0,P|173:354|187:326,1,89.9999943923952
195,325,81147,2,0,P|189:356|203:328,1,89.9999943923952
240,259,81236,6,0,P|234:227|248:255,1,89.9999943923952,0|0,1:0|0:0,0:0:0:0:
256,257,81324,2,0,P|250:225|264:253,1,89.9999943923952
272,255,81413,2,0,P|266:223|280:251,1,89.9999943923952
288,253,81501,2,0,P|282:221|296:249,1,89.9999943923952
366,297,81589,38,0,P|360:328|374:300,1,89.9999943923952,0|0,1:0|0:0,0:0:0:0:
382,299,81677,2,0,P|376:330|390:302,1,89.9999943923952
402,306,81765,6,0,B|409:268|409:268|405:262|405:262|411:259|411:259|419:223|419:223|393:200|393:200|395:193|395:193|387:195|387:195|356:167,1,179.99998878479,2|0,0:0|0:0,0:0:0:0:
364,154,81942,6,0,P|361:102|406:136,1,134.999991588593,0|0,1:0|0:0,0:0:0:0:
269,108,82118,22,0,B|231:115|231:115|225:111|225:111|222:117|222:117|186:125|186:125|163:99|163:99|156:101|156:101|158:93|158:93|130:62,1,179.99998878479,2|0,0:0|0:0,0:0:0:0:
72,154,82295,6,0,P|23:143|70:157,1,149.999995231629,0|0,1:0|0:0,0:0:0:0:
72,154,82383,2,0,P|23:143|70:157,1,149.999995231629
72,154,82471,2,0,P|23:143|70:157,1,149.999995231629
72,154,82559,2,0,P|23:143|70:157,1,149.999995231629
94,268,82648,38,0,P|46:282|94:271,1,149.999995231629,0|0,1:0|0:0,0:0:0:0:
94,268,82736,2,0,P|46:282|94:271,1,149.999995231629
94,268,82824,2,0,P|46:282|94:271,1,149.999995231629
94,268,82912,2,0,P|46:282|94:271,1,149.999995231629
182,348,83001,6,0,P|148:384|184:350,1,149.999995231629,0|0,1:0|0:0,0:0:0:0:
182,348,83089,2,0,P|148:384|184:350,1,149.999995231629
182,348,83177,38,0,B|210:344|210:344|216:348|216:348|221:342|221:342|252:338|252:338|275:350|275:350|312:345|312:345|315:340|315:340|321:344|321:344|349:340,1,179.99998878479,2|0,0:0|0:0,0:0:0:0:
444,175,83354,6,0,P|491:189|443:178,1,149.999995231629,0|0,1:0|0:0,0:0:0:0:
444,175,83442,2,0,P|491:189|443:178,1,149.999995231629
444,175,83530,2,0,P|491:189|443:178,1,149.999995231629
444,175,83618,2,0,P|491:189|443:178,1,149.999995231629
364,145,83707,38,0,B|336:141|336:141|330:145|330:145|327:140|327:140|290:135|290:135|267:147|267:147|236:143|236:143|231:137|231:137|225:141|225:141|197:137,1,179.99998878479,2|0,1:2|0:0,0:0:0:0:
76,192,83883,6,0,P|28:181|74:195,1,149.999995231629
76,192,83971,2,0,P|28:181|74:195,1,149.999995231629
141,298,84059,38,0,P|93:312|141:301,1,149.999995231629,0|0,1:0|0:0,0:0:0:0:
141,298,84147,2,0,P|93:312|141:301,1,149.999995231629
141,298,84236,2,0,P|93:312|141:301,1,149.999995231629
141,298,84324,2,0,P|93:312|141:301,1,149.999995231629
257,347,84412,6,0,P|223:383|259:349,1,149.999995231629,0|0,1:0|0:0,0:0:0:0:
257,347,84500,2,0,P|223:383|259:349,1,149.999995231629
257,347,84589,38,0,B|285:351|285:351|291:347|291:347|294:352|294:352|331:357|331:357|354:345|354:345|385:349|385:349|390:355|390:355|396:351|396:351|424:355,1,179.99998878479,2|0,0:0|0:0,0:0:0:0:
439,366,84765,22,0,P|419:337|419:302,6,67.4999957942964
346,148,85118,22,0,P|377:142|349:156,1,89.9999943923952,0|0,1:0|0:0,0:0:0:0:
348,164,85207,2,0,P|379:158|351:172,1,89.9999943923952
350,180,85295,2,0,P|381:174|353:188,1,89.9999943923952
352,196,85383,2,0,P|383:190|355:204,1,89.9999943923952
276,208,85471,6,0,P|244:202|272:216,1,89.9999943923952,0|0,1:0|0:0,0:0:0:0:
274,224,85559,2,0,P|242:218|270:232,1,89.9999943923952
272,240,85648,2,0,P|240:234|268:248,1,89.9999943923952
270,256,85736,2,0,P|238:250|266:264,1,89.9999943923952
319,327,85824,38,0,P|350:321|322:335,1,89.9999943923952,0|0,1:0|0:0,0:0:0:0:
321,343,85912,2,0,P|352:337|324:351,1,89.9999943923952
328,364,86001,6,0,B|290:371|290:371|284:367|284:367|281:373|281:373|245:381|245:381|222:355|222:355|215:357|215:357|217:349|217:349|189:318,1,179.99998878479,2|0,0:0|0:0,0:0:0:0:
81,168,86177,38,0,P|49:174|77:160,1,89.9999943923952,0|0,1:0|0:0,0:0:0:0:
79,152,86265,2,0,P|47:158|75:144,1,89.9999943923952
77,136,86354,2,0,P|45:142|73:128,1,89.9999943923952
75,120,86442,2,0,P|43:126|71:112,1,89.9999943923952
70,26,86530,6,0,B|107:19|107:19|113:22|113:22|116:17|116:17|152:8|152:8|175:35|175:35|182:33|182:33|180:41|180:41|208:72,1,179.99998878479,2|0,1:2|0:0,0:0:0:0:
329,86,86707,38,0,P|360:80|332:94,1,89.9999943923952
331,102,86795,2,0,P|362:96|334:110,1,89.9999943923952
270,156,86883,6,0,P|238:150|266:164,1,89.9999943923952,0|0,1:0|0:0,0:0:0:0:
268,172,86971,2,0,P|236:166|264:180,1,89.9999943923952
266,188,87060,2,0,P|234:182|262:196,1,89.9999943923952
264,204,87148,2,0,P|232:198|260:212,1,89.9999943923952
318,264,87236,38,0,P|349:258|321:272,1,89.9999943923952,0|0,1:0|0:0,0:0:0:0:
320,280,87324,2,0,P|351:274|323:288,1,89.9999943923952
327,299,87412,6,0,B|299:330|299:330|301:337|301:337|294:336|294:336|271:362|271:362|235:353|235:353|232:348|232:348|226:352|226:352|188:344,1,179.99998878479,2|0,0:0|0:0,0:0:0:0:
171,346,87589,22,0,P|128:312|157:362,1,134.999991588593,0|0,1:0|0:0,0:0:0:0:
124,216,87765,22,0,B|131:178|131:178|127:172|127:172|133:169|133:169|141:133|141:133|115:110|115:110|117:103|117:103|109:105|109:105|78:77,1,179.99998878479,2|0,0:0|0:0,0:0:0:0:
199,68,87942,38,0,P|213:20|202:68,1,149.999995231629,0|0,1:0|0:0,0:0:0:0:
199,68,88030,2,0,P|213:20|202:68,1,149.999995231629
199,68,88118,2,0,P|213:20|202:68,1,149.999995231629
199,68,88206,2,0,P|213:20|202:68,1,149.999995231629
323,72,88295,6,0,P|359:38|325:74,1,149.999995231629,0|0,1:0|0:0,0:0:0:0:
323,72,88383,2,0,P|359:38|325:74,1,149.999995231629
323,72,88471,2,0,P|359:38|325:74,1,149.999995231629
323,72,88559,2,0,P|359:38|325:74,1,149.999995231629
445,116,88648,38,0,P|493:105|446:119,1,149.999995231629,0|0,1:0|0:0,0:0:0:0:
445,116,88736,2,0,P|493:105|446:119,1,149.999995231629
446,119,88824,6,0,B|442:147|442:147|446:153|446:153|441:156|441:156|436:193|436:193|448:216|448:216|444:247|444:247|438:252|438:252|442:258|442:258|438:286,1,179.99998878479,2|0,0:0|0:0,0:0:0:0:
361,384,89001,22,0,B|400:345|400:345|410:345|410:345|409:336|409:336|448:297|448:297|396:286|396:286|367:292|367:292|309:280,1,269.999983177186,0|0,1:0|0:0,0:0:0:0:
199,360,89265,6,0,B|226:375|226:375|219:328|219:328|222:320|222:320|217:315|217:315|208:270,1,134.999991588593,0|0,1:0|0:0,0:0:0:0:
132,155,89442,2,0,B|105:140|105:140|112:187|112:187|109:194|109:194|114:200|114:200|123:245,1,134.999991588593,0|0,1:0|0:0,0:0:0:0:
218,263,89618,1,0,1:0:0:0:
3,287,89707,22,0,B|56:276|56:276|65:267|65:267|132:254,1,134.999991588593,0|0,1:0|0:0,0:0:0:0:
274,175,89883,2,0,B|221:164|221:164|212:155|212:155|145:142,1,134.999991588593,0|0,1:0|0:0,0:0:0:0:
183,367,90059,22,0,B|250:356|250:356|271:344|271:344|304:353|304:353|333:333|333:333|357:338|357:338|428:329|428:329|433:335|433:335|435:328|435:328|484:320|484:320|498:324|498:324|510:317|510:317|491:288|491:288|492:283|492:283|487:281|487:281|468:249|468:249|383:263,1,494.999999370575,8|0,0:1|0:0,0:0:0:0:
394,250,90412,22,0,B|360:184|360:184|378:103,1,149.999995231629,0|0,1:0|0:0,0:0:0:0:
260,17,90677,1,0,0:0:0:0:
260,17,90765,2,0,B|294:83|294:83|276:164,1,149.999995231629,0|0,1:0|0:0,0:0:0:0:
205,205,91030,1,0,0:0:0:0:
205,205,91118,2,0,L|49:185,1,149.999995231629,0|0,1:0|0:0,0:0:0:0:
143,303,91383,1,0,0:0:0:0:
143,303,91471,6,0,L|221:293,1,74.9999976158143,0|0,1:0|0:0,0:0:0:0:
297,281,91648,2,0,L|336:276,2,37.4999988079071
388,195,91824,38,0,B|431:256|431:256|413:330,1,149.999995231629,0|0,1:0|0:0,0:0:0:0:
306,123,92089,1,0,0:0:0:0:
306,123,92177,2,0,L|460:107,1,149.999995231629,0|0,1:0|0:0,0:0:0:0:
250,63,92442,1,0,0:0:0:0:
250,63,92530,2,0,L|96:47,1,149.999995231629,0|0,1:0|0:0,0:0:0:0:
164,209,92795,1,0,0:0:0:0:
164,209,92883,6,0,L|175:134,1,74.9999976158143,0|0,1:0|0:0,0:0:0:0:
102,263,93059,2,0,L|107:300,2,37.4999988079071
191,291,93236,38,0,B|264:308|264:308|320:258,1,149.999995231629,0|0,1:0|0:0,0:0:0:0:
448,333,93501,1,0,0:0:0:0:
448,333,93589,2,0,B|375:316|375:316|319:366,1,149.999995231629,0|0,1:0|0:0,0:0:0:0:
240,219,93854,1,0,0:0:0:0:
240,219,93942,2,0,L|262:65,1,149.999995231629,0|0,1:0|0:0,0:0:0:0:
338,162,94207,1,0,0:0:0:0:
338,162,94295,6,0,L|412:148,1,74.9999976158143,0|0,1:0|0:0,0:0:0:0:
467,88,94471,2,0,L|504:95,2,37.4999988079071
403,23,94648,38,0,B|350:77|350:77|275:66,1,149.999995231629,0|0,1:0|0:0,0:0:0:0:
184,51,94912,1,0,0:0:0:0:
184,51,95001,2,0,B|110:40|110:40|57:94,1,149.999995231629,0|0,1:0|0:0,0:0:0:0:
126,264,95265,1,0,0:0:0:0:
126,264,95354,2,0,B|154:236|154:236|141:120,1,149.999995231629,0|0,1:0|0:0,0:0:0:0:
233,198,95618,1,0,0:0:0:0:
233,198,95707,6,0,L|241:272,1,74.9999976158143,0|0,1:0|0:0,0:0:0:0:
180,332,95883,2,0,L|175:369,2,37.4999988079071
257,275,96059,38,0,L|415:290,1,149.999995231629,0|0,1:0|0:0,0:0:0:0:
491,186,96324,1,0,0:0:0:0:
491,186,96412,2,0,L|341:200,1,149.999995231629,0|0,1:0|0:0,0:0:0:0:
181,122,96677,1,0,0:0:0:0:
181,122,96765,2,0,B|212:107|212:107|327:118,1,149.999995231629,0|0,1:0|0:0,0:0:0:0:
230,197,97030,1,0,0:0:0:0:
230,197,97118,6,0,L|150:204,1,74.9999976158143,0|0,1:0|0:0,0:0:0:0:
73,165,97295,2,0,L|35:161,2,37.4999988079071
107,348,97471,38,0,B|157:292|157:292|145:215,1,149.999995231629,0|0,1:0|0:0,0:0:0:0:
209,363,97736,1,0,0:0:0:0:
209,363,97824,2,0,B|234:336|234:336|346:351,1,149.999995231629,0|0,1:0|0:0,0:0:0:0:
434,245,98089,1,0,0:0:0:0:
434,245,98177,2,0,B|409:272|409:272|297:257,1,149.999995231629,0|0,1:0|0:0,0:0:0:0:
363,112,98442,1,0,0:0:0:0:
363,112,98530,6,0,L|373:189,1,74.9999976158143,0|0,1:0|0:0,0:0:0:0:
281,254,98707,2,0,L|276:291,2,37.4999988079071
224,167,98883,38,0,B|158:129|158:129|84:146,1,149.999995231629,0|0,1:0|0:0,0:0:0:0:
45,18,99148,1,0,0:0:0:0:
45,18,99236,2,0,B|111:56|111:56|185:39,1,149.999995231629,0|0,1:0|0:0,0:0:0:0:
72,153,99501,1,0,0:0:0:0:
72,153,99589,2,0,L|88:306,1,149.999995231629,0|0,1:0|0:0,0:0:0:0:
172,355,99854,1,0,0:0:0:0:
172,355,99942,6,0,L|180:278,1,74.9999976158143,0|0,1:0|0:0,0:0:0:0:
255,225,100118,2,0,L|252:188,2,37.4999988079071
263,311,100295,6,0,B|313:300|313:300|323:288|323:288|368:277,1,112.500000715256,0|0,1:0|0:0,0:0:0:0:
408,207,100471,2,0,B|458:196|458:196|468:184|468:184|513:173,1,112.500000715256,0|0,1:0|0:0,0:0:0:0:
380,290,100648,21,0,0:0:0:0:
396,194,100824,1,0,0:0:0:0:
363,103,101001,22,0,B|318:92|318:92|308:80|308:80|258:69,1,112.500000715256,0|0,1:0|0:0,0:0:0:0:
243,77,101354,6,0,P|280:122|167:88,1,337.500002145767,8|0,0:1|0:0,0:0:0:0:
56,140,101707,6,0,B|68:198|68:198|23:251,1,119.999996185303,0|0,1:0|0:0,0:0:0:0:
101,360,101971,1,0,0:0:0:0:
101,360,102059,2,0,B|89:302|89:302|134:249,1,119.999996185303,0|0,1:0|0:0,0:0:0:0:
298,307,102324,1,0,0:0:0:0:
298,307,102412,2,0,L|175:326,1,119.999996185303,0|0,1:0|0:0,0:0:0:0:
333,222,102677,1,0,0:0:0:0:
333,222,102765,6,0,L|344:145,1,59.9999980926514,0|0,1:0|0:0,0:0:0:0:
382,292,102942,2,0,L|386:321,2,29.9999990463257
421,216,103118,38,0,B|444:198|444:198|432:107,1,119.999996185303,0|0,1:0|0:0,0:0:0:0:
359,41,103383,1,0,0:0:0:0:
359,41,103471,2,0,B|336:59|336:59|348:150,1,119.999996185303,0|0,1:0|0:0,0:0:0:0:
258,125,103736,1,0,0:0:0:0:
258,125,103824,2,0,L|242:-4,1,119.999996185303,0|0,1:0|0:0,0:0:0:0:
130,160,104089,1,0,0:0:0:0:
130,160,104177,6,0,L|191:170,1,59.9999980926514,0|0,1:0|0:0,0:0:0:0:
60,207,104354,2,0,L|29:212,2,29.9999990463257
121,274,104530,38,0,B|180:263|180:263|229:300,1,119.999996185303,0|0,1:0|0:0,0:0:0:0:
370,250,104795,1,0,0:0:0:0:
370,250,104883,2,0,B|311:261|311:261|262:224,1,119.999996185303,0|0,1:0|0:0,0:0:0:0:
160,355,105148,1,0,0:0:0:0:
160,355,105236,2,0,L|36:370,1,119.999996185303,0|0,1:0|0:0,0:0:0:0:
110,267,105501,1,0,0:0:0:0:
110,267,105589,6,0,L|120:197,1,59.9999980926514,0|0,1:0|0:0,0:0:0:0:
60,143,105765,2,0,L|55:108,2,29.9999990463257
131,198,105942,38,0,B|154:180|154:180|245:192,1,119.999996185303,0|0,1:0|0:0,0:0:0:0:
311,98,106207,1,0,0:0:0:0:
311,98,106295,2,0,B|288:116|288:116|197:104,1,119.999996185303,0|0,1:0|0:0,0:0:0:0:
325,195,106559,1,0,0:0:0:0:
325,195,106648,2,0,L|444:180,1,119.999996185303,0|0,1:0|0:0,0:0:0:0:
287,269,106912,1,0,0:0:0:0:
287,269,107001,6,0,L|276:337,1,59.9999980926514,0|0,1:0|0:0,0:0:0:0:
362,377,107177,2,0,L|356:343,2,29.9999990463257
261,334,107354,38,0,B|194:322|194:322|136:364,1,134.999991588593,0|0,1:0|0:0,0:0:0:0:
12,290,107618,1,0,0:0:0:0:
12,290,107707,2,0,B|79:302|79:302|137:260,1,134.999991588593,0|0,1:0|0:0,0:0:0:0:
78,80,107971,1,0,0:0:0:0:
78,80,108059,2,0,L|58:220,1,134.999991588593,0|0,1:0|0:0,0:0:0:0:
158,73,108324,1,0,0:0:0:0:
158,73,108412,6,0,L|150:6,1,67.4999957942964,0|0,1:0|0:0,0:0:0:0:
170,154,108589,2,0,L|174:187,2,33.7499978971482
240,97,108765,38,0,B|352:90|352:90|378:121,1,149.999995231629,0|0,1:0|0:0,0:0:0:0:
433,203,109030,1,0,0:0:0:0:
433,203,109118,2,0,B|321:196|321:196|295:227,1,149.999995231629,0|0,1:0|0:0,0:0:0:0:
215,336,109383,1,0,0:0:0:0:
215,336,109471,2,0,B|222:262|222:262|171:202,1,149.999995231629,0|0,1:0|0:0,0:0:0:0:
61,302,109736,1,0,0:0:0:0:
61,302,109824,6,0,L|136:291,1,74.9999976158143,0|0,1:0|0:0,0:0:0:0:
229,337,110001,2,0,L|266:342,2,37.4999988079071
124,275,110177,38,0,B|70:211|70:211|78:130,1,164.999999790192,0|0,1:0|0:0,0:0:0:0:
172,34,110442,1,0,0:0:0:0:
160,119,110530,2,0,L|334:109,1,164.999999790192,0|0,1:0|0:0,0:0:0:0:
394,278,110795,1,0,0:0:0:0:
453,217,110883,2,0,B|425:187|425:187|275:196,1,164.999999790192,0|0,1:0|0:0,0:0:0:0:
138,285,111148,1,0,0:0:0:0:
213,337,111236,6,0,B|232:301|232:301|225:250,1,82.4999998950959,0|0,1:0|0:0,0:0:0:0:
163,201,111412,2,0,L|113:196,2,41.2499999475479
218,125,111589,6,0,B|264:115|264:115|277:104|277:104|329:94,1,112.500000715256,0|0,1:0|0:0,0:0:0:0:
403,115,111765,2,0,B|449:105|449:105|462:94|462:94|514:84,1,112.500000715256,0|0,1:0|0:0,0:0:0:0:
400,132,111942,21,0,0:0:0:0:
321,82,112118,1,0,0:0:0:0:
230,112,112295,22,0,B|184:102|184:102|171:91|171:91|119:81,1,112.500000715256,0|0,1:0|0:0,0:0:0:0:
106,91,112648,6,0,P|18:108|138:167,1,337.500002145767,8|0,0:1|0:0,0:0:0:0:
225,32,113001,38,0,B|271:22|271:22|284:11|284:11|336:1,1,112.500000715256,0|0,1:0|0:0,0:0:0:0:
256,192,113177,12,0,115736,0:0:0:0:
256,192,115824,12,0,118559,0:0:0:0:
256,192,118648,12,0,121383,0:0:0:0:
256,192,121471,12,0,124295,0:0:0:0:
256,192,135589,22,0,P|296:173|342:177,1,89.9999971389771
398,240,135942,1,0,0:0:0:0:
394,253,136030,1,0,0:0:0:0:
390,266,136118,1,0,0:0:0:0:
386,279,136207,1,0,0:0:0:0:
382,292,136295,1,0,0:0:0:0:
351,168,136471,6,0,P|356:147|363:134,1,29.9999990463257
294,95,136648,2,0,P|266:83|231:79,1,59.9999980926514
164,112,136912,1,0,0:0:0:0:
164,112,137001,38,0,P|136:124|70:119,1,89.9999971389771
29,217,137354,1,0,0:0:0:0:
42,215,137442,1,0,0:0:0:0:
55,213,137530,1,0,0:0:0:0:
69,211,137618,1,0,0:0:0:0:
82,209,137706,1,0,0:0:0:0:
114,311,137883,6,0,P|122:292|126:275,1,29.9999990463257
186,228,138059,2,0,P|204:260|207:298,1,59.9999980926514
273,338,138324,1,0,0:0:0:0:
273,338,138412,38,0,P|279:308|320:265,1,89.9999971389771
272,192,138765,1,0,0:0:0:0:
269,178,138853,1,0,0:0:0:0:
267,165,138941,1,0,0:0:0:0:
264,152,139029,1,0,0:0:0:0:
262,138,139117,1,0,0:0:0:0:
359,191,139295,6,0,P|370:201|384:209,1,29.9999990463257
417,135,139471,2,0,P|457:126|477:112,1,59.9999980926514
418,51,139736,1,0,0:0:0:0:
418,51,139824,38,0,P|391:36|329:36,1,89.9999971389771
267,94,140177,1,0,0:0:0:0:
269,107,140265,1,0,0:0:0:0:
271,120,140353,1,0,0:0:0:0:
273,133,140441,1,0,0:0:0:0:
276,147,140529,1,0,0:0:0:0:
156,101,140707,6,0,P|187:88|208:86,1,29.9999990463257
157,181,140883,2,0,P|113:169|90:139,1,59.9999980926514
173,265,141148,1,0,0:0:0:0:
173,265,141236,38,0,P|197:248|259:244,1,89.9999971389771
315,304,141589,1,0,0:0:0:0:
304,312,141677,1,0,0:0:0:0:
293,319,141765,1,0,0:0:0:0:
280,324,141853,1,0,0:0:0:0:
267,327,141941,1,0,0:0:0:0:
396,325,142118,6,0,P|430:330|449:339,1,29.9999990463257
378,241,142295,2,0,P|373:208|383:170,1,59.9999980926514
438,124,142559,1,0,0:0:0:0:
438,124,142648,38,0,P|437:82|402:30,1,89.9999971389771
321,22,143001,1,0,0:0:0:0:
319,36,143089,1,0,0:0:0:0:
319,49,143177,1,0,0:0:0:0:
321,62,143265,1,0,0:0:0:0:
325,75,143353,1,0,0:0:0:0:
269,141,143530,6,0,P|238:153|215:156,1,29.9999990463257
177,215,143707,2,0,P|215:230|245:258,1,59.9999980926514
322,306,144059,6,0,B|278:312|278:312|268:322|268:322|215:328,1,112.500000715256,0|0,1:0|0:0,0:0:0:0:
256,192,144236,12,0,146177,0:0:0:0:
320,281,146883,6,0,B|431:252|431:252|516:336|516:336|304:389|304:389|233:354|233:354|211:274|211:274|245:195|245:195|400:155|400:155|451:38|451:38|171:109|171:109|116:221|116:221|27:184|27:184|78:70|78:70|33:-14|33:-14|-1:61,1,1799.99994277954,0|0,1:0|0:0,0:0:0:0:
487,62,152530,38,0,B|424:201|424:201|44:104|44:104|288:19|288:19|197:241|197:241|13:199|13:199|64:317|64:317|280:372|280:372|323:281|323:281|443:312,1,1799.99994277954,0|0,1:0|0:0,0:0:0:0:
147,332,158177,22,0,B|88:348|88:348|33:306,1,119.999996185303,0|0,1:0|0:0,0:0:0:0:
247,202,158883,2,0,B|263:261|263:261|221:316,1,119.999996185303,0|0,1:0|0:0,0:0:0:0:
36,126,159589,6,0,B|1:173|1:173|17:232,1,119.999996185303,0|0,1:0|0:0,0:0:0:0:
222,121,160295,2,0,B|176:86|176:86|117:102,1,119.999996185303,0|0,1:0|0:0,0:0:0:0:
444,145,161001,38,0,L|462:26,1,119.999996185303,0|0,1:0|0:0,0:0:0:0:
252,236,161707,2,0,L|234:117,1,119.999996185303,0|0,1:0|0:0,0:0:0:0:
414,272,162412,6,0,L|432:153,1,119.999996185303,0|0,1:0|0:0,0:0:0:0:
261,364,163118,2,0,L|243:245,1,119.999996185303,0|0,1:0|0:0,0:0:0:0:
158,211,163824,38,0,B|121:186|121:186|65:193,1,89.9999943923952,0|0,1:0|0:0,0:0:0:0:
283,168,164177,2,0,B|320:193|320:193|364:187,1,89.9999943923952,0|0,1:0|0:0,0:0:0:0:
98,278,164530,2,0,L|82:374,1,89.9999943923952,0|0,1:0|0:0,0:0:0:0:
343,101,164883,2,0,L|359:5,1,89.9999943923952,0|0,1:0|0:0,0:0:0:0:
70,52,165236,6,0,B|104:80|104:80|149:74,1,89.9999943923952,0|0,1:0|0:0,0:0:0:0:
431,132,165589,2,0,B|397:104|397:104|352:110,1,89.9999943923952,0|0,1:0|0:0,0:0:0:0:
132,162,165942,38,0,L|222:150,1,89.9999943923952,0|0,1:0|0:0,0:0:0:0:
369,22,166295,2,0,L|279:34,1,89.9999943923952,0|0,1:0|0:0,0:0:0:0:
256,256,166648,21,0,0:0:0:0:
256,256,167001,1,0,0:0:0:0:
256,256,167354,1,0,0:0:0:0:
256,256,167883,5,0,0:0:0:0:
256,176,168059,1,0,0:0:0:0:
121,306,168412,6,0,B|181:297,1,59.9999980926514
390,306,168589,2,0,B|331:297,1,59.9999980926514
256,336,168765,1,0,0:0:0:0:
256,256,168941,1,0,0:0:0:0:
256,176,169118,22,0,P|254:117|253:176,1,179.999994277954,8|0,0:1|0:0,0:0:0:0:
149,148,169471,22,0,P|151:177|164:204,1,59.9999980926514,0|0,1:0|0:0,0:0:0:0:
446,54,169648,22,0,B|427:45|427:45|403:51|403:51|390:63|390:63|379:50|379:50|338:42|338:42|317:45|317:45|277:39,1,179.99998878479,2|0,0:0|0:0,0:0:0:0:
166,40,169824,21,0,0:0:0:0:
156,29,169912,1,0,0:0:0:0:
145,19,170001,2,0,P|161:68|146:18,1,179.99998878479
173,215,170177,22,0,P|126:270|0:257,1,209.999986915589,8|0,0:1|0:0,0:0:0:0:
304,199,170442,2,0,P|234:180|179:228,1,149.999995231629,0|0,1:0|0:0,0:0:0:0:
292,284,170707,6,0,B|311:293|311:293|334:287|334:287|347:274|347:274|359:288|359:288|400:296|400:296|421:293|421:293|461:299,1,179.99998878479,2|0,1:2|0:0,0:0:0:0:
467,290,171059,6,0,P|426:282|401:249,1,74.9999976158143,0|0,1:0|0:0,0:0:0:0:
333,120,171236,22,0,B|352:111|352:111|375:117|375:117|388:129|388:129|400:116|400:116|441:108|441:108|462:110|462:110|502:105,1,179.99998878479,2|0,0:0|0:0,0:0:0:0:
205,67,171412,21,0,0:0:0:0:
189,141,171501,1,0,0:0:0:0:
173,215,171589,38,0,P|126:270|0:257,1,209.999986915589,8|0,0:1|0:0,0:0:0:0:
304,199,171854,2,0,P|234:180|179:228,1,149.999995231629,0|0,1:0|0:0,0:0:0:0:
292,284,172119,38,0,B|311:293|311:293|334:287|334:287|347:274|347:274|359:288|359:288|400:296|400:296|421:293|421:293|461:299,1,179.99998878479,2|0,1:2|0:0,0:0:0:0:
471,292,172295,22,0,P|425:336|471:372,1,134.999991588593,0|0,1:0|0:0,0:0:0:0:
485,182,172471,22,0,B|466:191|466:191|442:185|442:185|429:172|429:172|418:186|418:186|377:194|377:194|356:191|356:191|316:197,1,179.99998878479,2|0,0:0|0:0,0:0:0:0:
189,244,172648,21,0,0:0:0:0:
180,256,172736,1,0,0:0:0:0:
170,267,172825,2,0,P|209:223|168:265,1,179.99998878479
268,94,173001,22,0,P|367:105|431:28,1,209.999986915589,8|0,0:1|0:0,0:0:0:0:
135,145,173265,2,0,P|182:91|254:100,1,149.999995231629,0|0,1:0|0:0,0:0:0:0:
189,244,173530,6,0,B|170:235|170:235|146:241|146:241|133:253|133:253|122:240|122:240|81:232|81:232|60:234|60:234|20:229,1,179.99998878479,2|0,1:2|0:0,0:0:0:0:
11,240,173883,6,0,P|48:250|76:281,1,74.9999976158143,0|0,1:0|0:0,0:0:0:0:
250,351,174059,22,0,B|231:360|231:360|207:354|207:354|194:341|194:341|183:355|183:355|142:363|142:363|121:360|121:360|81:366,1,179.99998878479,2|0,0:0|0:0,0:0:0:0:
300,242,174236,21,0,0:0:0:0:
284,168,174325,1,0,0:0:0:0:
268,94,174412,38,0,P|367:105|431:28,1,209.999986915589,8|0,0:1|0:0,0:0:0:0:
135,145,174677,2,0,P|182:91|254:100,1,149.999995231629,0|0,1:0|0:0,0:0:0:0:
60,165,174942,6,0,P|96:170|120:143,1,74.9999976158143,2|0,1:2|0:0,0:0:0:0:
39,26,175118,6,0,P|57:53|61:87,6,67.4999957942964
131,132,175471,6,0,B|140:151|140:151|134:174|134:174|121:187|121:187|135:199|135:199|143:240|143:240|140:261|140:261|146:301,1,179.99998878479,2|0,1:2|0:0,0:0:0:0:
254,358,175648,22,0,P|268:353|283:353,4,26.2499983644486
251,257,175824,22,0,B|226:281|226:281|227:233|227:233|267:218|267:218|270:209|270:209|278:216|278:216|312:205,1,179.99998878479,8|0,0:1|0:0,0:0:0:0:
409,318,176001,2,0,B|442:327|442:327|400:350|400:350|367:323|367:323|358:325|358:325|360:315|360:315|333:290,1,179.99998878479
383,150,176177,2,0,B|374:116|374:116|415:141|415:141|408:183|408:183|414:190|414:190|404:193|404:193|397:228,1,179.99998878479
131,288,176354,6,0,B|140:269|140:269|134:245|134:245|121:232|121:232|135:221|135:221|143:180|143:180|140:159|140:159|146:119,1,179.99998878479,2|0,1:2|0:0,0:0:0:0:
180,41,176530,6,0,P|224:27|271:35,1,89.9999943923952
94,55,176707,2,0,P|49:61|7:47,1,89.9999943923952
281,47,176883,22,0,B|290:66|290:66|284:89|284:89|271:102|271:102|285:114|285:114|293:155|293:155|290:176|290:176|296:216,1,179.99998878479,2|0,1:2|0:0,0:0:0:0:
129,370,177059,21,0,0:0:0:0:
147,295,177148,1,0,0:0:0:0:
166,220,177236,6,0,P|101:292|106:163,1,314.999980373383,8|0,0:1|0:0,0:0:0:0:
111,149,177589,38,0,P|82:148|68:153,2,37.4999988079071
278,221,177765,22,0,B|287:202|287:202|281:178|281:178|268:165|268:165|282:154|282:154|290:113|290:113|287:92|287:92|293:52,1,179.99998878479,2|0,1:2|0:0,0:0:0:0:
303,68,177942,22,0,P|376:65|365:114,1,134.999991588593
367,207,178118,38,0,B|376:226|376:226|370:249|370:249|357:262|357:262|371:274|371:274|379:315|379:315|376:336|376:336|382:376,1,179.99998878479,2|0,1:2|0:0,0:0:0:0:
236,384,178295,22,0,P|225:374|201:362,12,33.7499978971482
154,281,178648,6,0,P|117:308|56:306,1,104.999993457794,8|0,0:1|0:0,0:0:0:0:
11,176,178824,1,0,0:0:0:0:
54,93,178912,38,0,P|98:151|88:224,1,149.999995231629,0|0,1:0|0:0,0:0:0:0:
233,291,179177,22,0,B|242:272|242:272|236:248|236:248|223:235|223:235|237:224|237:224|245:183|245:183|242:162|242:162|248:122,1,179.99998878479,2|0,1:2|0:0,0:0:0:0:
339,33,179354,22,0,P|337:82|367:126,1,104.999993457794,0|0,1:0|0:0,0:0:0:0:
494,216,179530,22,0,P|468:202|431:197,1,52.4999967288972
443,213,179618,2,0,P|413:213|378:228,1,52.4999967288972
397,235,179707,22,0,P|366:276|368:328,1,104.999993457794,0|0,1:0|0:0,0:0:0:0:
166,280,179883,22,0,P|192:294|229:299,1,52.4999967288972
217,283,179971,2,0,P|246:282|281:267,1,52.4999967288972
263,261,180059,21,8,0:1:0:0:
200,204,180148,1,8,0:1:0:0:
115,218,180236,1,0,1:0:0:0:
76,297,180324,1,0,1:0:0:0:
114,376,180412,22,0,B|139:354|139:354|144:357|144:357|141:352|141:352|165:333|165:333|168:264|168:264|145:248|145:248|145:242|145:242|139:244|139:244|112:223|112:223|118:191|118:191|114:158|114:158|145:151|145:151|179:129|179:129|188:154|188:154|208:169,1,404.999974765779,8|0,0:1|0:0,0:0:0:0:
258,108,180765,22,0,P|301:114|338:90,1,89.9999943923952
493,221,180942,22,0,B|458:192|458:192|421:205|421:205|378:198|378:198|374:192|374:192|372:198|372:198|311:205,1,179.99998878479,2|0,1:2|0:0,0:0:0:0:
250,305,181118,21,0,0:0:0:0:
235,303,181206,1,0,0:0:0:0:
220,300,181295,2,0,P|277:311|220:297,1,179.99998878479
93,173,181471,22,0,P|123:270|11:388,1,269.999983177186,8|0,0:1|0:0,0:0:0:0:
170,18,181736,2,0,P|91:80|108:179,1,209.999986915589,0|0,1:0|0:0,0:0:0:0:
181,116,182001,38,0,B|216:87|216:87|253:100|253:100|296:93|296:93|300:87|300:87|302:93|302:93|363:100,1,179.99998878479,2|0,1:2|0:0,0:0:0:0:
494,136,182177,21,0,0:0:0:0:
449,69,182354,2,0,P|417:112|426:177,1,104.999993457794,0|0,1:0|0:0,0:0:0:0:
495,263,182530,22,0,B|460:234|460:234|423:247|423:247|380:240|380:240|376:234|376:234|374:240|374:240|313:247,1,179.99998878479,2|0,0:0|0:0,0:0:0:0:
120,320,182707,21,0,0:0:0:0:
106,246,182795,1,0,0:0:0:0:
93,173,182883,22,0,P|123:270|11:388,1,269.999983177186,8|0,0:1|0:0,0:0:0:0:
170,18,183148,2,0,P|91:80|108:179,1,209.999986915589,0|0,1:1|0:0,0:0:0:0:
181,116,183412,6,0,B|216:145|216:145|253:132|253:132|296:139|296:139|300:145|300:145|302:139|302:139|363:132,1,179.99998878479,2|0,1:2|0:0,0:0:0:0:
349,122,183589,6,0,P|385:68|312:68,1,134.999991588593,0|0,1:0|0:0,0:0:0:0:
260,232,183765,22,0,B|297:236|297:236|299:242|299:242|303:236|303:236|346:229|346:229|383:242|383:242|418:213,1,179.99998878479,2|0,0:0|0:0,0:0:0:0:
465,327,183942,21,0,0:0:0:0:
459,340,184030,1,0,0:0:0:0:
454,355,184119,2,0,P|472:299|456:355,1,179.99998878479
248,220,184295,22,0,P|282:132|132:21,1,269.999983177186,8|0,0:1|0:0,0:0:0:0:
338,366,184559,2,0,P|247:328|259:231,1,209.999986915589,0|0,1:0|0:0,0:0:0:0:
165,136,184824,6,0,B|127:131|127:131|125:125|125:125|121:131|121:131|78:138|78:138|41:125|41:125|6:154,1,179.99998878479,2|0,1:2|0:0,0:0:0:0:
84,54,185001,5,0,0:0:0:0:
55,218,185177,2,0,P|96:249|158:246,1,104.999993457794,0|0,1:0|0:0,0:0:0:0:
243,47,185354,22,0,B|280:42|280:42|282:36|282:36|286:42|286:42|329:49|329:49|366:36|366:36|401:65,1,179.99998878479,2|0,0:0|0:0,0:0:0:0:
398,192,185530,21,0,0:0:0:0:
323,206,185618,1,0,0:0:0:0:
248,220,185707,22,0,P|282:132|132:21,1,269.999983177186,8|0,0:1|0:0,0:0:0:0:
338,366,185971,2,0,P|247:328|259:231,1,209.999986915589,0|0,1:0|0:0,0:0:0:0:
442,353,186236,22,0,P|391:342|347:383,1,104.999993457794,2|0,1:2|0:0,0:0:0:0:
176,371,186412,6,0,P|157:344|156:308,6,67.4999957942964
49,253,186765,22,0,B|44:216|44:216|38:214|38:214|44:210|44:210|51:167|51:167|38:130|38:130|67:95,1,179.99998878479,2|0,1:2|0:0,0:0:0:0:
248,220,186942,22,0,P|246:235|235:253,4,33.7499978971482
390,63,187118,22,0,B|413:70|413:70|437:64|437:64|404:91|404:91|391:124|391:124|393:130|393:130|387:133|387:133|370:177,1,179.99998878479,8|0,0:1|0:0,0:0:0:0:
178,119,187295,2,0,B|172:95|172:95|155:77|155:77|194:91|194:91|230:87|230:87|234:82|234:82|240:86|240:86|287:78,1,179.99998878479
332,274,187471,2,0,B|313:290|313:290|306:314|306:314|300:272|300:272|278:244|278:244|271:243|271:243|272:236|272:236|242:199,1,179.99998878479
476,142,187648,38,0,B|481:179|481:179|487:181|487:181|481:185|481:185|474:228|474:228|487:265|487:265|458:300,1,179.99998878479,2|0,1:2|0:0,0:0:0:0:
388,351,187824,22,0,P|343:354|302:325,1,89.9999943923952
217,347,188001,2,0,P|172:344|131:373,1,89.9999943923952
63,318,188177,22,0,B|34:283|34:283|47:246|47:246|40:203|40:203|34:199|34:199|40:197|40:197|45:160,1,179.99998878479,2|0,1:2|0:0,0:0:0:0:
148,77,188354,21,0,0:0:0:0:
220,51,188442,1,0,0:0:0:0:
292,25,188530,6,0,P|397:48|279:98,1,314.999980373383,8|0,0:1|0:0,0:0:0:0:
270,119,188883,38,0,P|282:138|301:152,2,37.4999988079071
187,183,189059,22,0,B|158:218|158:218|171:255|171:255|164:298|164:298|158:302|158:302|164:304|164:304|169:341,1,179.99998878479,2|0,1:2|0:0,0:0:0:0:
153,353,189236,38,0,P|103:314|73:363,1,134.999991588593
242,384,189412,22,0,B|271:349|271:349|258:312|258:312|265:269|265:269|271:265|271:265|265:263|265:263|260:226,1,179.99998878479,2|0,1:2|0:0,0:0:0:0:
428,222,189589,6,0,P|451:215|483:216,12,33.7499978971482
454,304,189942,6,0,P|403:305|358:267,1,104.999993457794,8|0,0:1|0:0,0:0:0:0:
428,138,190118,1,0,0:0:0:0:
457,60,190207,38,0,P|391:64|348:129,1,149.999995231629,0|0,1:0|0:0,0:0:0:0:
270,214,190471,22,0,B|265:251|265:251|259:253|259:253|265:257|265:257|272:300|272:300|259:337|259:337|288:372,1,179.99998878479,2|0,0:0|0:0,0:0:0:0:
80,318,190648,22,0,P|121:291|176:294,1,104.999993457794,0|0,1:0|0:0,0:0:0:0:
69,197,190824,22,0,P|50:172|44:140,1,52.4999967288972
52,141,190912,2,0,P|48:109|58:79,1,52.4999967288972
65,84,191001,22,0,P|116:80|160:108,1,104.999993457794,0|0,1:0|0:0,0:0:0:0:
294,168,191177,22,0,P|275:193|269:225,1,52.4999967288972
277,224,191265,2,0,P|273:255|283:285,1,52.4999967288972
290,281,191354,21,8,0:1:0:0:
371,273,191442,1,8,0:1:0:0:
422,209,191530,1,0,1:0:0:0:
411,128,191618,1,0,1:0:0:0:
345,80,191707,22,0,B|308:76|308:76|301:79|301:79|299:75|299:75|266:72|266:72|248:89|248:89|215:85|215:85|201:86|201:86|168:81|168:81|159:62|159:62|118:58|118:58|114:52|114:52|109:57|109:57|64:51|64:51|82:136|82:136|111:132,1,419.999973831178,8|0,0:1|0:0,0:0:0:0:
97,146,192236,6,0,P|120:184|111:261,1,104.999993457794,8|0,0:1|0:0,0:0:0:0:
39,267,192412,6,0,L|188:285,1,149.999995231629,0|0,1:0|0:0,0:0:0:0:
311,346,192677,1,0,0:0:0:0:
311,346,192765,2,0,B|274:280|274:280|284:205,1,149.999995231629,0|0,1:0|0:0,0:0:0:0:
340,120,193118,2,0,B|377:186|377:186|367:259,1,149.999995231629,0|0,1:0|0:0,0:0:0:0:
255,66,193471,6,0,B|321:29|321:29|394:38,1,149.999995231629,0|0,1:0|0:0,0:0:0:0:
278,194,193824,2,0,L|118:213,1,149.999995231629,0|0,1:0|0:0,0:0:0:0:
34,126,194089,1,0,0:0:0:0:
34,126,194177,2,0,B|62:101|62:101|176:112,1,149.999995231629,0|0,1:0|0:0,0:0:0:0:
187,297,194530,2,0,B|159:322|159:322|45:311,1,149.999995231629,0|0,1:0|0:0,0:0:0:0:
274,183,194883,38,0,L|292:333,1,149.999995231629,0|0,1:0|0:0,0:0:0:0:
373,161,195236,2,0,L|391:11,1,149.999995231629,0|0,1:0|0:0,0:0:0:0:
505,215,195501,1,0,0:0:0:0:
505,215,195589,2,0,B|444:260|444:260|356:249,1,149.999995231629,0|0,1:0|0:0,0:0:0:0:
152,353,195942,2,0,B|213:308|213:308|286:317,1,149.999995231629,0|0,1:0|0:0,0:0:0:0:
126,246,196295,6,0,L|113:93,1,149.999995231629,0|0,1:0|0:0,0:0:0:0:
21,192,196648,1,0,1:0:0:0:
218,150,196824,1,0,0:0:0:0:
218,150,196912,1,0,0:0:0:0:
218,150,197001,1,0,1:0:0:0:
103,83,197177,1,0,0:0:0:0:
137,259,197354,2,0,B|197:265|197:265|227:253|227:253|284:258,1,149.999995231629,0|0,1:0|0:0,0:0:0:0:
413,201,197618,1,0,0:0:0:0:
413,201,197707,38,0,B|374:266|374:266|391:349,1,149.999995231629,0|0,1:0|0:0,0:0:0:0:
280,244,198059,2,0,B|319:179|319:179|302:96,1,149.999995231629,0|0,1:0|0:0,0:0:0:0:
355,30,198324,1,0,0:0:0:0:
355,30,198412,2,0,L|511:42,1,149.999995231629,0|0,1:0|0:0,0:0:0:0:
290,112,198765,2,0,L|134:124,1,149.999995231629,0|0,1:0|0:0,0:0:0:0:
186,352,199118,6,0,B|203:240|203:240|183:204,1,149.999995231629,0|0,1:0|0:0,0:0:0:0:
68,29,199471,2,0,B|51:141|51:141|71:177,1,149.999995231629,0|0,1:0|0:0,0:0:0:0:
202,218,199736,1,0,0:0:0:0:
202,218,199824,2,0,L|358:206,1,149.999995231629,0|0,1:0|0:0,0:0:0:0:
172,346,200177,2,0,L|16:334,1,149.999995231629,0|0,1:0|0:0,0:0:0:0:
189,87,200530,38,0,B|227:154|227:154|213:230,1,149.999995231629,0|0,1:0|0:0,0:0:0:0:
83,180,200883,1,0,1:0:0:0:
275,87,201059,2,0,L|185:77,1,74.9999976158143
71,172,201236,1,0,1:0:0:0:
289,98,201412,1,0,0:0:0:0:
55,34,201589,1,0,1:0:0:0:
303,109,201765,1,0,0:0:0:0:
116,263,201942,22,0,B|162:256|162:256|174:244|174:244|222:236,1,112.500000715256,0|0,1:0|0:0,0:0:0:0:
256,192,202118,12,0,203177,0:0:0:0:
64,215,203354,5,0,0:0:0:0:
64,215,203706,5,0,0:0:0:0:
131,164,203883,1,0,0:0:0:0:
208,197,204059,1,0,0:0:0:0:
208,197,204412,5,0,0:0:0:0:
217,281,204589,2,0,L|221:319,2,37.4999988079071
285,231,204765,5,0,0:0:0:0:
285,231,205117,5,0,0:0:0:0:
352,282,205294,1,0,0:0:0:0:
429,249,205470,1,0,0:0:0:0:
429,249,205823,5,0,0:0:0:0:
438,165,206000,2,0,L|442:127,2,37.4999988079071
358,137,206177,5,0,0:0:0:0:
358,137,206529,5,0,0:0:0:0:
291,86,206706,1,0,0:0:0:0:
214,119,206882,1,0,0:0:0:0:
214,119,207235,5,0,0:0:0:0:
205,203,207412,2,0,L|201:241,2,37.4999988079071
135,294,207589,5,0,0:0:0:0:
135,294,207941,5,0,0:0:0:0:
202,345,208118,1,0,0:0:0:0:
279,312,208294,1,0,0:0:0:0:
279,312,208647,5,0,0:0:0:0:
288,228,208824,2,0,L|292:190,2,37.4999988079071
206,202,209001,5,0,0:0:0:0:
206,202,209353,5,0,0:0:0:0:
139,253,209530,1,0,0:0:0:0:
62,220,209706,1,0,0:0:0:0:
62,220,210059,5,0,0:0:0:0:
53,136,210236,2,0,L|49:98,2,37.4999988079071
130,170,210412,5,0,0:0:0:0:
130,170,210764,5,0,0:0:0:0:
197,221,210941,1,0,0:0:0:0:
274,188,211117,1,0,0:0:0:0:
274,188,211470,5,0,0:0:0:0:
283,104,211647,2,0,L|287:66,2,37.4999988079071
351,154,211824,5,0,0:0:0:0:
351,154,212176,5,0,0:0:0:0:
402,221,212353,1,0,0:0:0:0:
369,298,212529,1,0,0:0:0:0:
369,298,212882,5,0,0:0:0:0:
285,307,213059,2,0,L|247:311,2,37.4999988079071
170,353,213236,6,0,B|164:307|164:307|153:293|153:293|146:245,1,112.500000715256,0|0,1:0|0:0,0:0:0:0:
114,163,213412,2,0,B|108:117|108:117|97:103|97:103|90:55,1,112.500000715256,0|0,1:0|0:0,0:0:0:0:
91,56,214295,6,0,B|119:46|119:46|125:49|125:49|130:43|130:43|162:35|162:35|165:25|165:25|172:31|172:31|229:16|229:16|263:37|263:37|300:46|300:46|310:62|310:62|361:95|361:95|358:122|358:122|362:127|362:127|357:130|357:130|355:156|355:156|303:178|303:178|269:157|269:157|262:161|262:161|259:152|259:152|210:123,1,539.999966354372,2|0,0:0|0:0,0:0:0:0:
