osu file format v14

[General]
AudioFilename: audio.mp3
AudioLeadIn: 0
PreviewTime: 169030
Countdown: 0
SampleSet: Soft
StackLeniency: 0.2
Mode: 0
LetterboxInBreaks: 0
WidescreenStoryboard: 1

[Editor]
Bookmarks: 135589
DistanceSpacing: 1.5
BeatDivisor: 8
GridSize: 32
TimelineZoom: 2.4

[Metadata]
Title:Whiplash ft. josh pan (sakuraburst Remix)
TitleUnicode:Whiplash ft. josh pan (sakuraburst Remix)
Artist:X&G
ArtistUnicode:X&G
Creator:rawrneru
Version:CUDI OVERHAUL
Source:
Tags:
BeatmapID:2646799
BeatmapSetID:806301

[Difficulty]
HPDrainRate:5.8
CircleSize:4
OverallDifficulty:8.5
ApproachRate:9.6
SliderMultiplier:2.99999990463257
SliderTickRate:1

[Events]
//Background and Video events
0,0,"415400.jpg",0,0
//Break Periods
2,11730,67315
//Storyboard Layer 0 (Background)
//Storyboard Layer 1 (Fail)
//Storyboard Layer 2 (Pass)
//Storyboard Layer 3 (Foreground)
//Storyboard Layer 4 (Overlay)
//Storyboard Sound Samples

[TimingPoints]
60,352.941176470588,4,2,1,80,1,0
60,-250,4,2,1,80,0,0
9942,-66.6666666666667,4,2,1,80,0,0
11001,-50,4,2,1,80,0,0
11354,-100,4,2,1,80,0,0
67824,-125,4,2,1,80,0,0
68001,-41.6666666666667,4,2,1,80,0,0
68177,-33.3333333333333,4,2,1,80,0,0

[Colours]
Combo1 : 176,125,30
Combo2 : 132,162,176
Combo3 : 64,179,191
Combo4 : 245,164,52

[HitObjects]
256,192,60,6,0,P|241:223|213:243,1,59.9999980926514
256,192,412,2,0,P|238:221|208:239,1,59.9999980926514
256,192,765,2,0,P|235:219|204:234,1,59.9999980926514
119,330,1118,1,0,0:0:0:0:
119,330,1295,1,0,0:0:0:0:
119,330,1471,6,0,P|149:313|183:314,1,59.9999980926514
119,330,1823,2,0,P|150:316|184:319,1,59.9999980926514
119,330,2176,2,0,P|151:319|185:325,1,59.9999980926514
318,335,2530,1,0,0:0:0:0:
318,335,2707,1,0,0:0:0:0:
318,335,2883,6,0,P|283:330|256:309,1,59.9999980926514
318,335,3235,2,0,P|284:327|258:304,1,59.9999980926514
318,335,3588,2,0,P|285:324|261:299,1,59.9999980926514
245,170,3942,1,0,0:0:0:0:
245,170,4119,1,0,0:0:0:0:
245,170,4295,6,0,P|269:193|280:226,1,59.9999980926514
245,170,4647,2,0,P|267:195|275:229,1,59.9999980926514
245,170,5000,2,0,P|265:197|269:231,1,59.9999980926514
305,99,5354,1,0,0:0:0:0:
305,99,5531,1,0,0:0:0:0:
305,99,5707,6,0,P|298:65|309:32,1,59.9999980926514
305,99,6059,2,0,P|301:64|315:33,1,59.9999980926514
305,99,6412,2,0,P|304:64|321:34,1,59.9999980926514
429,93,6765,1,0,0:0:0:0:
429,93,6942,1,0,0:0:0:0:
429,93,7118,6,0,P|414:124|386:144,1,59.9999980926514
429,93,7470,2,0,P|411:122|381:140,1,59.9999980926514
429,93,7823,2,0,P|408:120|377:135,1,59.9999980926514
309,235,8177,1,0,0:0:0:0:
309,235,8354,1,0,0:0:0:0:
309,235,8530,6,0,P|339:218|373:219,1,59.9999980926514
309,235,8882,2,0,P|340:221|374:224,1,59.9999980926514
309,235,9235,2,0,P|341:224|375:230,1,59.9999980926514
478,316,9589,1,0,0:0:0:0:
478,316,9766,1,0,0:0:0:0:
478,316,9942,6,0,B|431:323|431:323|415:335|415:335|362:342,1,112.500000715256
286,353,10118,2,0,B|239:360|239:360|223:372|223:372|170:379,1,112.500000715256
178,377,11001,6,0,P|211:224|84:349,1,449.999985694885
152,291,11354,6,0,L|181:142,1,149.999995231629
64,127,67824,6,0,P|97:96|93:51,1,89.9999971389771
95,54,68001,6,0,B|103:91|103:91|101:96|101:96|109:134|109:134|112:137|112:137|118:164|118:164|115:168|115:168|119:172|119:172|127:209|127:209|130:213|130:213|129:219|129:219|130:225,1,179.99998878479
147,353,68177,6,0,B|157:322|157:322|127:312|127:312|116:342|116:342|177:363,1,112.500000715256
147,353,68265,2,0,B|157:322|157:322|127:312|127:312|116:342|116:342|177:363,1,112.500000715256
147,353,68354,2,0,B|157:322|157:322|127:312|127:312|116:342|116:342|177:363,1,112.500000715256
147,353,68442,2,0,B|157:322|157:322|127:312|127:312|116:342|116:342|177:363,1,112.500000715256
231,281,68530,6,0,B|255:260|255:260|234:235|234:235|210:256|210:256|251:305,1,112.500000715256
231,281,68618,2,0,B|255:260|255:260|234:235|234:235|210:256|210:256|251:305,1,112.500000715256
231,281,68707,2,0,B|255:260|255:260|234:235|234:235|210:256|210:256|251:305,1,112.500000715256
231,281,68795,2,0,B|255:260|255:260|234:235|234:235|210:256|210:256|251:305,1,112.500000715256
340,262,68883,6,0,B|371:255|371:255|365:224|365:224|333:230|333:230|346:293,1,112.500000715256
340,262,68971,2,0,B|371:255|371:255|365:224|365:224|333:230|333:230|346:293,1,112.500000715256
