osu file format v14

[General]
AudioFilename: audio.mp3
AudioLeadIn: 0
PreviewTime: 169030
Countdown: 0
SampleSet: Normal
StackLeniency: 0.7
Mode: 3
LetterboxInBreaks: 0
SpecialStyle: 0
WidescreenStoryboard: 1

[Editor]
DistanceSpacing: 0.8
BeatDivisor: 4
GridSize: 8
TimelineZoom: 2.3

[Metadata]
Title:Whiplash ft. josh pan (sakuraburst Remix)
TitleUnicode:Whiplash ft. josh pan (sakuraburst Remix)
Artist:X&G
ArtistUnicode:X&G
Creator:error_exe777
Version:normal
Source:
Tags:sv ln
BeatmapID:1529232
BeatmapSetID:723633

[Difficulty]
HPDrainRate:7
CircleSize:4
OverallDifficulty:7
ApproachRate:5
SliderMultiplier:1.4
SliderTickRate:1

[Events]
//Background and Video events
0,0,"you_re_not_alone_by_nanomortis-d8vbecq.png",0,0
//Break Periods
2,113201,123095
//Storyboard Layer 0 (Background)
//Storyboard Layer 1 (Fail)
//Storyboard Layer 2 (Pass)
//Storyboard Layer 3 (Foreground)
//Storyboard Sound Samples

[TimingPoints]
60,352.941176470588,4,1,1,80,1,0

[HitObjects]
320,192,60,5,0,0:0:0:100:kick2.wav
192,192,412,1,0,0:0:0:100:kick2.wav
192,192,765,1,0,0:0:0:100:kick2.wav
448,192,1118,128,0,1471:0:0:0:100:kick2.wav
320,192,1471,1,0,0:0:0:100:kick2.wav
64,192,1824,1,0,0:0:0:100:kick2.wav
64,192,2177,1,0,0:0:0:100:kick2.wav
320,192,2530,128,0,2883:0:0:0:100:kick2.wav
192,192,2883,1,0,0:0:0:100:kick2.wav
448,192,3236,1,0,0:0:0:100:kick2.wav
448,192,3589,1,0,0:0:0:100:kick2.wav
320,192,3942,128,0,4295:0:0:0:100:kick2.wav
64,192,4295,1,0,0:0:0:100:kick2.wav
320,192,4648,1,0,0:0:0:100:kick2.wav
320,192,5001,1,0,0:0:0:100:kick2.wav
192,192,5354,128,0,5707:0:0:0:100:kick2.wav
448,192,5707,1,0,0:0:0:100:kick2.wav
64,192,6059,1,0,0:0:0:100:kick2.wav
64,192,6412,1,0,0:0:0:100:kick2.wav
320,192,6765,128,0,7118:0:0:0:100:kick2.wav
448,192,7118,1,0,0:0:0:100:kick2.wav
192,192,7471,1,0,0:0:0:100:kick2.wav
192,192,7824,1,0,0:0:0:100:kick2.wav
320,192,8177,128,0,8530:0:0:0:100:kick2.wav
64,192,8530,1,0,0:0:0:100:kick2.wav
448,192,8883,1,0,0:0:0:100:kick2.wav
448,192,9236,1,0,0:0:0:100:kick2.wav
192,192,9589,128,0,9942:0:0:0:100:kick2.wav
320,192,9942,1,0,0:0:0:70:drum.wav
320,192,10118,1,0,0:0:0:70:drum.wav
64,192,11001,128,0,11354:0:0:0:0:
192,192,11354,1,0,0:0:0:100:kick1.wav
448,192,11707,1,0,0:0:0:100:kick1.wav
64,192,11883,1,0,0:0:0:0:
192,192,12059,1,0,0:0:0:100:kick1.wav
448,192,12412,128,0,12765:0:0:0:100:kick1.wav
320,192,12765,1,0,0:0:0:100:kick1.wav
64,192,13118,1,0,0:0:0:100:kick1.wav
448,192,13295,1,0,0:0:0:0:
320,192,13471,1,0,0:0:0:100:kick1.wav
64,192,13824,128,0,14177:0:0:0:100:kick1.wav
192,192,14177,1,0,0:0:0:100:kick1.wav
448,192,14530,1,0,0:0:0:100:kick1.wav
64,192,14707,1,0,0:0:0:0:
320,192,14883,1,0,0:0:0:100:kick1.wav
192,192,15236,128,0,15589:0:0:0:100:kick1.wav
448,192,15589,1,0,0:0:0:100:kick1.wav
64,192,15942,1,0,0:0:0:100:kick1.wav
320,192,16118,1,0,0:0:0:0:
192,192,16295,1,0,0:0:0:100:kick1.wav
448,192,16471,128,0,16648:0:0:0:0:
320,192,16648,128,0,17001:0:0:0:100:kick1.wav
64,192,17001,1,0,0:0:0:100:kick1.wav
448,192,17354,1,0,0:0:0:100:kick1.wav
192,192,17530,1,0,0:0:0:0:
320,192,17707,1,0,0:0:0:100:kick1.wav
64,192,17883,1,0,0:0:0:0:
448,192,18059,1,0,0:0:0:100:kick1.wav
192,192,18412,1,0,0:0:0:100:kick1.wav
320,192,18589,1,0,0:0:0:0:
64,192,18765,1,0,0:0:0:100:kick1.wav
448,192,18942,1,0,0:0:0:0:
192,192,19118,1,0,0:0:0:100:kick1.wav
320,192,19295,1,0,0:0:0:0:
64,192,19471,1,0,0:0:0:100:kick1.wav
448,192,19824,1,0,0:0:0:100:kick1.wav
192,192,20177,1,0,0:0:0:100:kick1.wav
320,192,20354,1,0,0:0:0:0:
64,192,20530,1,0,0:0:0:100:kick1.wav
448,192,20883,128,0,21236:0:0:0:100:kick1.wav
64,192,21059,1,0,0:0:0:0:
320,192,21236,1,0,0:0:0:0:
64,192,22648,1,0,0:0:0:70:drum.wav
448,192,22648,1,0,0:0:0:30:clap1.wav
192,192,23001,1,0,0:0:0:30:clap1.wav
320,192,23354,1,0,0:0:0:30:clap1.wav
64,192,23707,1,0,0:0:0:30:clap1.wav
448,192,24059,1,0,0:0:0:30:clap1.wav
192,192,24412,1,0,0:0:0:30:clap1.wav
320,192,24765,1,0,0:0:0:30:clap1.wav
64,192,25118,1,0,0:0:0:30:clap1.wav
192,192,25118,1,0,0:0:0:0:
448,192,25471,1,0,0:0:0:30:clap1.wav
64,192,25824,1,0,0:0:0:30:clap1.wav
320,192,26177,1,0,0:0:0:30:clap1.wav
192,192,26530,1,0,0:0:0:30:clap1.wav
448,192,26883,1,0,0:0:0:30:clap1.wav
64,192,27236,1,0,0:0:0:30:clap1.wav
192,192,27589,1,0,0:0:0:30:clap1.wav
320,192,27942,1,0,0:0:0:30:clap1.wav
448,192,27942,1,0,0:0:0:0:
64,192,28295,1,0,0:0:0:30:clap1.wav
320,192,28295,1,0,0:0:0:0:
448,192,28648,1,0,0:0:0:30:clap1.wav
192,192,29001,1,0,0:0:0:30:clap1.wav
320,192,29354,1,0,0:0:0:30:clap1.wav
64,192,29707,1,0,0:0:0:30:clap1.wav
448,192,30059,1,0,0:0:0:30:clap1.wav
192,192,30412,1,0,0:0:0:30:clap1.wav
320,192,30765,1,0,0:0:0:30:clap1.wav
448,192,30765,1,0,0:0:0:0:
64,192,31118,1,0,0:0:0:30:clap1.wav
320,192,31471,1,0,0:0:0:30:clap1.wav
192,192,31824,1,0,0:0:0:30:clap1.wav
448,192,32177,1,0,0:0:0:30:clap1.wav
64,192,32530,1,0,0:0:0:30:clap1.wav
192,192,32883,1,0,0:0:0:30:clap1.wav
320,192,33236,1,0,0:0:0:30:clap1.wav
64,192,33589,1,0,0:0:0:30:clap1.wav
448,192,33589,1,0,0:0:0:0:
192,192,33942,1,0,0:0:0:30:clap1.wav
448,192,33942,1,0,0:0:0:70:drum.wav
64,192,34295,1,0,0:0:0:30:clap1.wav
448,192,34471,1,0,0:0:0:70:drum.wav
320,192,34648,1,0,0:0:0:30:clap1.wav
64,192,35001,1,0,0:0:0:30:clap1.wav
320,192,35354,1,0,0:0:0:30:clap1.wav
448,192,35354,1,0,0:0:0:70:drum.wav
192,192,35707,1,0,0:0:0:30:clap1.wav
448,192,35883,1,0,0:0:0:70:drum.wav
64,192,36059,1,0,0:0:0:30:clap1.wav
192,192,36412,1,0,0:0:0:30:clap1.wav
448,192,36412,1,0,0:0:0:0:
192,192,36765,1,0,0:0:0:30:clap1.wav
320,192,36765,1,0,0:0:0:70:drum.wav
64,192,37118,1,0,0:0:0:30:clap1.wav
448,192,37295,1,0,0:0:0:70:drum.wav
320,192,37471,1,0,0:0:0:30:clap1.wav
64,192,37824,1,0,0:0:0:30:clap1.wav
192,192,38177,1,0,0:0:0:30:clap1.wav
448,192,38177,1,0,0:0:0:70:drum.wav
320,192,38530,1,0,0:0:0:30:clap1.wav
64,192,38707,1,0,0:0:0:70:drum.wav
448,192,38883,1,0,0:0:0:30:clap1.wav
192,192,39236,1,0,0:0:0:30:clap1.wav
320,192,39236,1,0,0:0:0:0:
64,192,39589,1,0,0:0:0:30:clap1.wav
320,192,39589,1,0,0:0:0:70:drum.wav
448,192,39942,1,0,0:0:0:30:clap1.wav
192,192,40118,1,0,0:0:0:70:drum.wav
320,192,40295,1,0,0:0:0:30:clap1.wav
64,192,40648,1,0,0:0:0:30:clap1.wav
192,192,41001,1,0,0:0:0:30:clap1.wav
448,192,41001,1,0,0:0:0:70:drum.wav
320,192,41354,1,0,0:0:0:30:clap1.wav
64,192,41530,1,0,0:0:0:70:drum.wav
192,192,41707,1,0,0:0:0:30:clap1.wav
320,192,42059,1,0,0:0:0:30:clap1.wav
448,192,42059,1,0,0:0:0:0:
64,192,42412,128,0,44530:0:0:0:70:drum.wav
448,192,42412,1,0,0:0:0:0:
320,192,42942,1,0,0:0:0:0:
448,192,43471,1,0,0:0:0:0:
192,192,44001,1,0,0:0:0:0:
320,192,44530,1,0,0:0:0:0:
64,192,45236,1,0,0:0:0:100:kick1.wav
448,192,45236,128,0,50883:0:0:0:70:drum.wav
64,192,50883,128,0,56530:0:0:0:100:kick1.wav
320,192,50883,1,0,0:0:0:70:drum.wav
192,192,56530,1,0,0:0:0:100:kick1.wav
320,192,56530,128,0,62177:0:0:0:70:drum.wav
448,192,57236,1,0,0:0:0:100:kick1.wav
64,192,57942,1,0,0:0:0:100:kick1.wav
192,192,58648,1,0,0:0:0:100:kick1.wav
448,192,59354,1,0,0:0:0:100:kick1.wav
64,192,60059,1,0,0:0:0:100:kick1.wav
448,192,60765,1,0,0:0:0:100:kick1.wav
192,192,61471,1,0,0:0:0:100:kick1.wav
192,192,62177,128,0,65001:0:0:0:100:kick1.wav
448,192,62177,1,0,0:0:0:70:drum.wav
64,192,62530,1,0,0:0:0:100:kick1.wav
448,192,62883,1,0,0:0:0:100:kick1.wav
320,192,63236,1,0,0:0:0:100:kick1.wav
448,192,63589,1,0,0:0:0:100:kick1.wav
64,192,63942,1,0,0:0:0:100:kick1.wav
320,192,64295,1,0,0:0:0:100:kick1.wav
448,192,64648,1,0,0:0:0:100:kick1.wav
64,192,65001,1,0,0:0:0:100:kick2.wav
320,192,65354,1,0,0:0:0:100:kick2.wav
192,192,65707,1,0,0:0:0:100:kick2.wav
448,192,66236,1,0,0:0:0:100:kick2.wav
64,192,66412,1,0,0:0:0:100:kick2.wav
192,192,66765,1,0,0:0:0:100:kick2.wav
64,192,67471,1,0,0:0:0:100:snare.wav
448,192,67471,1,0,0:0:0:0:
192,192,67824,1,0,0:0:0:100:kick1.wav
448,192,67824,1,0,0:0:0:0:
64,192,68001,128,0,68177:0:0:0:0:
448,192,68177,1,0,0:0:0:100:kick1.wav
192,192,68354,1,0,0:0:0:0:
448,192,68530,1,0,0:0:0:100:kick1.wav
64,192,68707,1,0,0:0:0:0:
320,192,68883,1,0,0:0:0:100:kick1.wav
192,192,69059,128,0,69236:0:0:0:0:
448,192,69236,1,0,0:0:0:100:kick1.wav
320,192,69412,1,0,0:0:0:0:
64,192,69589,128,0,69765:0:0:0:100:kick1.wav
448,192,69765,1,0,0:0:0:0:
192,192,69942,1,0,0:0:0:100:kick1.wav
320,192,70118,1,0,0:0:0:0:
64,192,70295,1,0,0:0:0:100:kick1.wav
192,192,70471,128,0,70648:0:0:0:0:
448,192,70648,1,0,0:0:0:100:kick1.wav
64,192,70824,128,0,71001:0:0:0:0:
192,192,71001,1,0,0:0:0:100:kick1.wav
320,192,71177,1,0,0:0:0:0:
64,192,71354,1,0,0:0:0:100:kick1.wav
448,192,71530,1,0,0:0:0:0:
192,192,71707,1,0,0:0:0:100:kick1.wav
320,192,71883,128,0,72059:0:0:0:0:
64,192,72059,1,0,0:0:0:100:kick1.wav
192,192,72236,1,0,0:0:0:0:
448,192,72412,128,0,72589:0:0:0:100:kick1.wav
320,192,72589,1,0,0:0:0:0:
192,192,72765,1,0,0:0:0:100:kick1.wav
448,192,72942,1,0,0:0:0:0:
64,192,73118,1,0,0:0:0:100:kick1.wav
192,192,73295,128,0,73471:0:0:0:0:
448,192,73471,128,0,73824:0:0:0:100:kick1.wav
64,192,73648,128,0,73824:0:0:0:0:
192,192,73824,1,0,0:0:0:100:kick1.wav
320,192,74001,1,0,0:0:0:0:
64,192,74177,1,0,0:0:0:100:kick1.wav
448,192,74354,1,0,0:0:0:0:
192,192,74530,1,0,0:0:0:100:kick1.wav
320,192,74707,128,0,74883:0:0:0:0:
64,192,74883,1,0,0:0:0:100:kick1.wav
448,192,75059,1,0,0:0:0:0:
192,192,75236,128,0,75412:0:0:0:100:kick1.wav
64,192,75412,1,0,0:0:0:0:
448,192,75589,1,0,0:0:0:100:kick1.wav
192,192,75765,1,0,0:0:0:0:
320,192,75942,1,0,0:0:0:100:kick1.wav
64,192,76118,128,0,76295:0:0:0:0:
192,192,76295,1,0,0:0:0:100:kick1.wav
448,192,76471,128,0,76648:0:0:0:0:
320,192,76648,1,0,0:0:0:100:kick1.wav
64,192,76824,1,0,0:0:0:0:
192,192,77001,1,0,0:0:0:100:kick1.wav
448,192,77177,1,0,0:0:0:0:
64,192,77354,1,0,0:0:0:100:kick1.wav
320,192,77530,128,0,77707:0:0:0:0:
192,192,77707,1,0,0:0:0:100:kick1.wav
448,192,77883,1,0,0:0:0:0:
64,192,78059,128,0,78236:0:0:0:100:kick1.wav
320,192,78236,1,0,0:0:0:0:
192,192,78412,128,0,78589:0:0:0:100:kick1.wav
320,192,78589,1,0,0:0:0:0:
448,192,78765,128,0,79118:0:0:0:100:kick1.wav
64,192,78942,128,0,79118:0:0:0:0:
320,192,79118,128,0,79471:0:0:0:100:kick1.wav
192,192,79471,1,0,0:0:0:100:kick1.wav
448,192,79648,1,0,0:0:0:0:
64,192,79824,1,0,0:0:0:100:kick1.wav
320,192,80001,1,0,0:0:0:0:
192,192,80177,1,0,0:0:0:100:kick1.wav
448,192,80354,128,0,80530:0:0:0:0:
64,192,80530,1,0,0:0:0:100:kick1.wav
320,192,80707,1,0,0:0:0:0:
192,192,80883,128,0,81059:0:0:0:100:kick1.wav
448,192,81059,1,0,0:0:0:0:
64,192,81236,1,0,0:0:0:100:kick1.wav
320,192,81412,1,0,0:0:0:0:
192,192,81589,1,0,0:0:0:100:kick1.wav
448,192,81765,128,0,81942:0:0:0:0:
64,192,81942,1,0,0:0:0:100:kick1.wav
192,192,82118,128,0,82295:0:0:0:0:
320,192,82295,1,0,0:0:0:100:kick1.wav
448,192,82471,1,0,0:0:0:0:
64,192,82648,1,0,0:0:0:100:kick1.wav
320,192,82824,1,0,0:0:0:0:
192,192,83001,1,0,0:0:0:100:kick1.wav
448,192,83177,128,0,83354:0:0:0:0:
64,192,83354,1,0,0:0:0:100:kick1.wav
320,192,83530,1,0,0:0:0:0:
192,192,83707,128,0,83883:0:0:0:100:kick1.wav
448,192,83883,1,0,0:0:0:0:
64,192,84059,1,0,0:0:0:100:kick1.wav
320,192,84236,1,0,0:0:0:0:
192,192,84412,1,0,0:0:0:100:kick1.wav
448,192,84589,128,0,84765:0:0:0:0:
64,192,84765,128,0,85118:0:0:0:100:kick1.wav
192,192,84942,128,0,85118:0:0:0:0:
320,192,85118,1,0,0:0:0:100:kick1.wav
448,192,85295,1,0,0:0:0:0:
64,192,85471,1,0,0:0:0:100:kick1.wav
320,192,85648,1,0,0:0:0:0:
192,192,85824,1,0,0:0:0:100:kick1.wav
448,192,86001,128,0,86177:0:0:0:0:
320,192,86177,1,0,0:0:0:100:kick1.wav
64,192,86354,1,0,0:0:0:0:
192,192,86530,128,0,86707:0:0:0:100:kick1.wav
448,192,86707,1,0,0:0:0:0:
64,192,86883,1,0,0:0:0:100:kick1.wav
320,192,87059,1,0,0:0:0:0:
448,192,87236,1,0,0:0:0:100:kick1.wav
192,192,87412,128,0,87589:0:0:0:0:
320,192,87589,1,0,0:0:0:100:kick1.wav
64,192,87765,128,0,87942:0:0:0:0:
448,192,87942,1,0,0:0:0:100:kick1.wav
192,192,88118,1,0,0:0:0:0:
320,192,88295,1,0,0:0:0:100:kick1.wav
64,192,88471,1,0,0:0:0:0:
448,192,88648,1,0,0:0:0:100:kick1.wav
192,192,88824,128,0,89001:0:0:0:0:
320,192,89001,1,0,0:0:0:100:kick1.wav
64,192,89265,1,0,0:0:0:100:kick1.wav
192,192,89442,1,0,0:0:0:100:kick1.wav
448,192,89707,1,0,0:0:0:100:kick1.wav
64,192,89883,1,0,0:0:0:100:kick1.wav
192,192,90059,1,0,0:0:0:70:drum.wav
448,192,90059,1,0,0:0:0:0:
64,192,90412,1,0,0:0:0:100:kick1.wav
192,192,90412,1,0,0:0:0:0:
448,192,90765,1,0,0:0:0:100:kick1.wav
192,192,90942,1,0,0:0:0:0:
320,192,91118,1,0,0:0:0:100:kick1.wav
64,192,91471,128,0,91824:0:0:0:100:kick1.wav
192,192,91824,1,0,0:0:0:100:kick1.wav
448,192,92177,1,0,0:0:0:100:kick1.wav
192,192,92354,1,0,0:0:0:0:
320,192,92530,1,0,0:0:0:100:kick1.wav
64,192,92883,128,0,93236:0:0:0:100:kick1.wav
448,192,93236,1,0,0:0:0:100:kick1.wav
192,192,93589,1,0,0:0:0:100:kick1.wav
320,192,93765,1,0,0:0:0:0:
64,192,93942,1,0,0:0:0:100:kick1.wav
448,192,94295,128,0,94648:0:0:0:100:kick1.wav
192,192,94648,1,0,0:0:0:100:kick1.wav
64,192,95001,1,0,0:0:0:100:kick1.wav
320,192,95177,1,0,0:0:0:0:
448,192,95354,1,0,0:0:0:100:kick1.wav
192,192,95530,128,0,95707:0:0:0:0:
320,192,95707,128,0,96059:0:0:0:100:kick1.wav
64,192,96059,1,0,0:0:0:100:kick1.wav
448,192,96412,1,0,0:0:0:100:kick1.wav
192,192,96589,1,0,0:0:0:0:
320,192,96765,1,0,0:0:0:100:kick1.wav
64,192,96942,1,0,0:0:0:0:
192,192,97118,128,0,97471:0:0:0:100:kick1.wav
448,192,97471,1,0,0:0:0:100:kick1.wav
320,192,97648,1,0,0:0:0:0:
64,192,97824,1,0,0:0:0:100:kick1.wav
192,192,98001,1,0,0:0:0:0:
320,192,98177,1,0,0:0:0:100:kick1.wav
448,192,98354,1,0,0:0:0:0:
64,192,98530,128,0,98883:0:0:0:100:kick1.wav
192,192,98883,1,0,0:0:0:100:kick1.wav
320,192,99236,1,0,0:0:0:100:kick1.wav
64,192,99412,1,0,0:0:0:0:
448,192,99589,1,0,0:0:0:100:kick1.wav
192,192,99942,128,0,100295:0:0:0:100:kick1.wav
448,192,100295,1,0,0:0:0:70:drum.wav
448,192,100471,1,0,0:0:0:70:drum.wav
64,192,100648,1,0,0:0:0:0:
192,192,100824,1,0,0:0:0:0:
320,192,101001,1,0,0:0:0:70:drum.wav
448,192,101354,128,0,101707:0:0:0:0:
64,192,101707,1,0,0:0:0:100:kick1.wav
192,192,102059,1,0,0:0:0:100:kick1.wav
320,192,102236,1,0,0:0:0:0:
64,192,102412,1,0,0:0:0:100:kick1.wav
192,192,102765,128,0,103118:0:0:0:100:kick1.wav
320,192,103118,1,0,0:0:0:100:kick1.wav
64,192,103471,1,0,0:0:0:100:kick1.wav
448,192,103648,1,0,0:0:0:0:
320,192,103824,1,0,0:0:0:100:kick1.wav
192,192,104177,128,0,104530:0:0:0:100:kick1.wav
448,192,104530,1,0,0:0:0:100:kick1.wav
64,192,104883,1,0,0:0:0:100:kick1.wav
320,192,105059,1,0,0:0:0:0:
192,192,105236,1,0,0:0:0:100:kick1.wav
448,192,105589,128,0,105942:0:0:0:100:kick1.wav
64,192,105942,1,0,0:0:0:100:kick1.wav
320,192,106295,1,0,0:0:0:100:kick1.wav
192,192,106471,1,0,0:0:0:0:
448,192,106648,1,0,0:0:0:100:kick1.wav
64,192,106824,128,0,107001:0:0:0:0:
320,192,107001,128,0,107354:0:0:0:100:kick1.wav
192,192,107354,1,0,0:0:0:100:kick1.wav
448,192,107707,1,0,0:0:0:100:kick1.wav
64,192,107883,1,0,0:0:0:0:
320,192,108059,1,0,0:0:0:100:kick1.wav
192,192,108236,1,0,0:0:0:0:
448,192,108412,128,0,108765:0:0:0:100:kick1.wav
64,192,108765,1,0,0:0:0:100:kick1.wav
320,192,108942,1,0,0:0:0:0:
192,192,109118,1,0,0:0:0:100:kick1.wav
64,192,109295,1,0,0:0:0:0:
448,192,109471,1,0,0:0:0:100:kick1.wav
192,192,109648,1,0,0:0:0:0:
320,192,109824,128,0,110177:0:0:0:100:kick1.wav
64,192,110177,1,0,0:0:0:100:kick1.wav
448,192,110530,1,0,0:0:0:100:kick1.wav
192,192,110707,1,0,0:0:0:0:
320,192,110883,1,0,0:0:0:100:kick1.wav
64,192,111236,128,0,111589:0:0:0:100:kick1.wav
448,192,111589,1,0,0:0:0:70:drum.wav
448,192,111765,1,0,0:0:0:70:drum.wav
64,192,112295,1,0,0:0:0:70:drum.wav
320,192,112648,128,0,113001:0:0:0:0:
192,192,113001,1,0,0:0:0:100:kick1.wav
64,192,124295,5,0,0:0:0:30:clap1.wav
320,192,124295,1,0,0:0:0:70:drum.wav
192,192,124648,1,0,0:0:0:0:
320,192,124824,1,0,0:0:0:30:clap1.wav
64,192,125001,1,0,0:0:0:0:
448,192,125354,1,0,0:0:0:0:
192,192,125707,1,0,0:0:0:30:clap1.wav
448,192,126059,1,0,0:0:0:0:
64,192,126236,1,0,0:0:0:30:clap1.wav
320,192,126412,1,0,0:0:0:0:
192,192,126765,1,0,0:0:0:0:
448,192,127118,1,0,0:0:0:30:clap1.wav
64,192,127471,1,0,0:0:0:0:
320,192,127648,1,0,0:0:0:30:clap1.wav
192,192,127824,1,0,0:0:0:0:
448,192,128177,1,0,0:0:0:0:
64,192,128530,1,0,0:0:0:30:clap1.wav
192,192,128883,1,0,0:0:0:0:
320,192,129059,1,0,0:0:0:30:clap1.wav
64,192,129236,1,0,0:0:0:0:
448,192,129589,1,0,0:0:0:0:
192,192,129942,1,0,0:0:0:30:clap1.wav
448,192,130295,1,0,0:0:0:0:
64,192,130471,1,0,0:0:0:30:clap1.wav
320,192,130648,1,0,0:0:0:0:
192,192,131001,1,0,0:0:0:0:
448,192,131354,1,0,0:0:0:30:clap1.wav
64,192,131707,1,0,0:0:0:0:
320,192,131883,1,0,0:0:0:30:clap1.wav
192,192,132059,1,0,0:0:0:0:
448,192,132412,1,0,0:0:0:0:
64,192,132765,1,0,0:0:0:30:clap1.wav
320,192,133118,1,0,0:0:0:0:
192,192,133295,1,0,0:0:0:30:clap1.wav
448,192,133471,1,0,0:0:0:0:
64,192,133824,1,0,0:0:0:0:
320,192,134177,1,0,0:0:0:30:clap1.wav
192,192,134530,1,0,0:0:0:0:
448,192,134707,1,0,0:0:0:30:clap1.wav
64,192,134883,1,0,0:0:0:0:
320,192,135236,1,0,0:0:0:0:
64,192,135589,1,0,0:0:0:30:clap1.wav
192,192,135589,1,0,0:0:0:70:drum.wav
448,192,135765,1,0,0:0:0:0:
64,192,135942,1,0,0:0:0:0:
320,192,136118,1,0,0:0:0:30:clap1.wav
192,192,136295,1,0,0:0:0:0:
448,192,136648,1,0,0:0:0:0:
64,192,137001,1,0,0:0:0:30:clap1.wav
320,192,137001,1,0,0:0:0:0:
192,192,137177,1,0,0:0:0:0:
448,192,137354,1,0,0:0:0:0:
64,192,137530,1,0,0:0:0:30:clap1.wav
320,192,137707,1,0,0:0:0:0:
192,192,138059,1,0,0:0:0:0:
320,192,138412,1,0,0:0:0:30:clap1.wav
448,192,138412,1,0,0:0:0:0:
64,192,138589,1,0,0:0:0:0:
448,192,138765,1,0,0:0:0:0:
192,192,138942,1,0,0:0:0:30:clap1.wav
320,192,139118,1,0,0:0:0:0:
64,192,139471,1,0,0:0:0:0:
192,192,139824,1,0,0:0:0:30:clap1.wav
448,192,139824,1,0,0:0:0:0:
320,192,140001,1,0,0:0:0:0:
192,192,140177,1,0,0:0:0:0:
64,192,140354,1,0,0:0:0:30:clap1.wav
448,192,140530,1,0,0:0:0:0:
192,192,140883,1,0,0:0:0:0:
64,192,141236,1,0,0:0:0:30:clap1.wav
320,192,141236,1,0,0:0:0:0:
448,192,141412,1,0,0:0:0:0:
192,192,141589,1,0,0:0:0:0:
320,192,141765,1,0,0:0:0:30:clap1.wav
64,192,141942,1,0,0:0:0:0:
448,192,142295,1,0,0:0:0:0:
64,192,142648,1,0,0:0:0:30:clap1.wav
192,192,142648,1,0,0:0:0:0:
320,192,142824,1,0,0:0:0:0:
448,192,143001,1,0,0:0:0:0:
64,192,143177,1,0,0:0:0:30:clap1.wav
320,192,143354,1,0,0:0:0:0:
192,192,143707,1,0,0:0:0:0:
64,192,144059,1,0,0:0:0:30:clap1.wav
448,192,144059,128,0,146177:0:0:0:50:drum.wav
64,192,146883,1,0,0:0:0:100:kick1.wav
320,192,146883,128,0,152530:0:0:0:70:drum.wav
192,192,152530,128,0,158177:0:0:0:100:kick1.wav
448,192,152530,1,0,0:0:0:70:drum.wav
64,192,158177,128,0,163824:0:0:0:100:kick1.wav
448,192,158177,1,0,0:0:0:70:drum.wav
192,192,158883,1,0,0:0:0:100:kick1.wav
448,192,159589,1,0,0:0:0:100:kick1.wav
320,192,160295,1,0,0:0:0:100:kick1.wav
192,192,161001,1,0,0:0:0:100:kick1.wav
448,192,161707,1,0,0:0:0:100:kick1.wav
192,192,162412,1,0,0:0:0:100:kick1.wav
320,192,163118,1,0,0:0:0:100:kick1.wav
192,192,163824,1,0,0:0:0:100:kick1.wav
448,192,163824,128,0,166648:0:0:0:70:drum.wav
320,192,164177,1,0,0:0:0:100:kick1.wav
64,192,164530,1,0,0:0:0:100:kick1.wav
192,192,164883,1,0,0:0:0:100:kick1.wav
320,192,165236,1,0,0:0:0:100:kick1.wav
64,192,165589,1,0,0:0:0:100:kick1.wav
320,192,165942,1,0,0:0:0:100:kick1.wav
192,192,166295,1,0,0:0:0:100:kick1.wav
64,192,166648,1,0,0:0:0:100:kick2.wav
192,192,167001,1,0,0:0:0:100:kick2.wav
320,192,167354,1,0,0:0:0:100:kick2.wav
64,192,167883,1,0,0:0:0:100:kick2.wav
448,192,168059,1,0,0:0:0:100:kick2.wav
192,192,168412,1,0,0:0:0:100:kick2.wav
64,192,169118,1,0,0:0:0:100:snare.wav
448,192,169118,1,0,0:0:0:0:
64,192,169471,1,0,0:0:0:100:kick1.wav
320,192,169471,128,0,169824:0:0:0:0:
448,192,169824,1,0,0:0:0:0:
192,192,170001,1,0,0:0:0:0:
64,192,170177,128,0,170442:0:0:0:100:snare.wav
320,192,170177,1,0,0:0:0:0:
448,192,170442,128,0,170707:0:0:0:100:kick1.wav
192,192,170707,128,0,170883:0:0:0:100:kick1.wav
64,192,171059,1,0,0:0:0:100:kick1.wav
320,192,171059,128,0,171412:0:0:0:0:
448,192,171412,1,0,0:0:0:0:
64,192,171589,128,0,171854:0:0:0:100:snare.wav
192,192,171589,1,0,0:0:0:0:
448,192,171854,128,0,172118:0:0:0:100:kick1.wav
192,192,172118,128,0,172295:0:0:0:100:kick1.wav
320,192,172295,1,0,0:0:0:100:kick1.wav
64,192,172471,128,0,172648:0:0:0:0:
448,192,172648,1,0,0:0:0:0:
192,192,172824,1,0,0:0:0:0:
320,192,173001,128,0,173265:0:0:0:100:snare.wav
448,192,173001,1,0,0:0:0:0:
64,192,173265,128,0,173530:0:0:0:100:kick1.wav
448,192,173530,128,0,173707:0:0:0:100:kick1.wav
192,192,173883,128,0,174236:0:0:0:100:kick1.wav
320,192,173883,1,0,0:0:0:0:
448,192,174236,1,0,0:0:0:0:
64,192,174412,1,0,0:0:0:100:snare.wav
320,192,174412,128,0,174677:0:0:0:0:
192,192,174677,128,0,174942:0:0:0:100:kick1.wav
448,192,174942,128,0,175118:0:0:0:100:kick1.wav
64,192,175118,128,0,175471:0:0:0:0:
320,192,175471,128,0,175648:0:0:0:100:kick1.wav
448,192,175648,1,0,0:0:0:0:
448,192,175824,128,0,176177:0:0:0:100:snare.wav
192,192,176177,128,0,176354:0:0:0:0:
320,192,176354,128,0,176530:0:0:0:100:kick1.wav
64,192,176530,1,0,0:0:0:0:
192,192,176707,128,0,176883:0:0:0:0:
448,192,176883,128,0,177059:0:0:0:100:kick1.wav
64,192,177059,1,0,0:0:0:0:
320,192,177236,128,0,177501:0:0:0:100:snare.wav
192,192,177501,1,0,0:0:0:0:
448,192,177765,128,0,177942:0:0:0:100:kick1.wav
64,192,177942,1,0,0:0:0:0:
192,192,178118,128,0,178295:0:0:0:100:kick1.wav
320,192,178295,128,0,178648:0:0:0:0:
64,192,178648,1,0,0:0:0:100:snare.wav
448,192,178648,1,0,0:0:0:0:
192,192,178912,1,0,0:0:0:100:kick1.wav
448,192,179177,128,0,179354:0:0:0:0:
64,192,179354,1,0,0:0:0:100:kick1.wav
64,192,179707,1,0,0:0:0:100:kick1.wav
64,192,180059,1,0,0:0:0:70:drum.wav
448,192,180236,1,0,0:0:0:0:
192,192,180412,128,0,180765:0:0:0:100:snare.wav
64,192,180765,1,0,0:0:0:100:kick1.wav
448,192,180765,128,0,181118:0:0:0:0:
64,192,181118,1,0,0:0:0:0:
192,192,181295,1,0,0:0:0:0:
320,192,181471,1,0,0:0:0:100:snare.wav
448,192,181471,128,0,181736:0:0:0:0:
64,192,181736,128,0,182001:0:0:0:100:kick1.wav
192,192,182001,128,0,182177:0:0:0:100:kick1.wav
64,192,182354,1,0,0:0:0:100:kick1.wav
448,192,182354,128,0,182707:0:0:0:0:
320,192,182707,1,0,0:0:0:0:
64,192,182883,1,0,0:0:0:100:snare.wav
192,192,182883,128,0,183148:0:0:0:0:
320,192,183148,128,0,183412:0:0:0:100:kick1.wav
448,192,183412,128,0,183589:0:0:0:100:kick1.wav
64,192,183589,1,0,0:0:0:100:kick1.wav
192,192,183765,128,0,183942:0:0:0:0:
320,192,183942,1,0,0:0:0:0:
64,192,184118,1,0,0:0:0:0:
320,192,184295,1,0,0:0:0:100:snare.wav
448,192,184295,128,0,184559:0:0:0:0:
192,192,184559,128,0,184824:0:0:0:100:kick1.wav
64,192,184824,128,0,185001:0:0:0:100:kick1.wav
192,192,185177,1,0,0:0:0:100:kick1.wav
320,192,185177,128,0,185530:0:0:0:0:
448,192,185530,1,0,0:0:0:0:
64,192,185707,1,0,0:0:0:100:snare.wav
192,192,185707,128,0,185971:0:0:0:0:
320,192,185971,128,0,186236:0:0:0:100:kick1.wav
448,192,186236,128,0,186412:0:0:0:100:kick1.wav
192,192,186412,128,0,186589:0:0:0:0:
64,192,186589,128,0,186765:0:0:0:0:
448,192,186765,128,0,186942:0:0:0:100:kick1.wav
192,192,186942,1,0,0:0:0:0:
192,192,187118,128,0,187471:0:0:0:100:snare.wav
320,192,187471,128,0,187648:0:0:0:0:
64,192,187648,128,0,187824:0:0:0:100:kick1.wav
448,192,187824,1,0,0:0:0:0:
320,192,188001,128,0,188177:0:0:0:0:
64,192,188177,128,0,188354:0:0:0:100:kick1.wav
448,192,188354,1,0,0:0:0:0:
192,192,188530,128,0,188795:0:0:0:100:snare.wav
320,192,188795,1,0,0:0:0:0:
448,192,189059,128,0,189236:0:0:0:100:kick1.wav
64,192,189236,1,0,0:0:0:0:
320,192,189412,128,0,189589:0:0:0:100:kick1.wav
192,192,189589,128,0,189942:0:0:0:0:
64,192,189942,1,0,0:0:0:100:snare.wav
448,192,189942,1,0,0:0:0:0:
320,192,190207,1,0,0:0:0:100:kick1.wav
64,192,190471,128,0,190648:0:0:0:0:
448,192,190648,1,0,0:0:0:100:kick1.wav
448,192,191001,1,0,0:0:0:100:kick1.wav
448,192,191354,1,0,0:0:0:70:drum.wav
64,192,191530,1,0,0:0:0:0:
320,192,191707,128,0,192059:0:0:0:100:snare.wav
64,192,192059,1,0,0:0:0:0:
192,192,192236,1,0,0:0:0:100:snare.wav
448,192,192236,1,0,0:0:0:0:
320,192,192412,1,0,0:0:0:100:kick1.wav
64,192,192589,1,0,0:0:0:0:
192,192,192765,1,0,0:0:0:100:kick1.wav
448,192,193118,1,0,0:0:0:100:kick1.wav
64,192,193295,1,0,0:0:0:0:
192,192,193471,1,0,0:0:0:100:kick1.wav
448,192,193824,1,0,0:0:0:100:kick1.wav
320,192,194001,1,0,0:0:0:0:
64,192,194177,1,0,0:0:0:100:kick1.wav
448,192,194530,1,0,0:0:0:100:kick1.wav
192,192,194707,1,0,0:0:0:0:
320,192,194883,1,0,0:0:0:100:kick1.wav
64,192,195236,1,0,0:0:0:100:kick1.wav
448,192,195412,1,0,0:0:0:0:
320,192,195589,1,0,0:0:0:100:kick1.wav
192,192,195942,1,0,0:0:0:100:kick1.wav
64,192,196118,1,0,0:0:0:0:
448,192,196295,1,0,0:0:0:100:kick1.wav
320,192,196648,1,0,0:0:0:100:kick1.wav
192,192,196824,1,0,0:0:0:0:
64,192,197001,1,0,0:0:0:100:kick1.wav
448,192,197177,128,0,197354:0:0:0:0:
192,192,197354,128,0,197707:0:0:0:100:kick1.wav
320,192,197707,1,0,0:0:0:100:kick1.wav
64,192,198059,1,0,0:0:0:100:kick1.wav
448,192,198236,1,0,0:0:0:0:
192,192,198412,1,0,0:0:0:100:kick1.wav
320,192,198765,1,0,0:0:0:100:kick1.wav
448,192,198942,1,0,0:0:0:0:
64,192,199118,1,0,0:0:0:100:kick1.wav
192,192,199471,1,0,0:0:0:100:kick1.wav
320,192,199648,1,0,0:0:0:0:
448,192,199824,1,0,0:0:0:100:kick1.wav
320,192,200177,1,0,0:0:0:100:kick1.wav
192,192,200354,1,0,0:0:0:0:
64,192,200530,1,0,0:0:0:100:kick1.wav
448,192,200883,1,0,0:0:0:100:kick1.wav
192,192,201059,1,0,0:0:0:0:
320,192,201236,1,0,0:0:0:100:kick1.wav
448,192,201589,128,0,201942:0:0:0:100:kick1.wav
64,192,201765,1,0,0:0:0:0:
192,192,201942,1,0,0:0:0:0:
64,192,203354,1,0,0:0:0:30:clap1.wav
320,192,203707,1,0,0:0:0:30:clap1.wav
192,192,204059,1,0,0:0:0:30:clap1.wav
448,192,204412,128,0,204765:0:0:0:30:clap1.wav
64,192,204765,1,0,0:0:0:30:clap1.wav
320,192,205118,1,0,0:0:0:30:clap1.wav
192,192,205471,1,0,0:0:0:30:clap1.wav
64,192,205824,128,0,206177:0:0:0:30:clap1.wav
320,192,205824,1,0,0:0:0:0:
448,192,206177,1,0,0:0:0:30:clap1.wav
192,192,206530,1,0,0:0:0:30:clap1.wav
320,192,206883,1,0,0:0:0:30:clap1.wav
448,192,207236,128,0,207589:0:0:0:30:clap1.wav
64,192,207589,1,0,0:0:0:30:clap1.wav
320,192,207942,1,0,0:0:0:30:clap1.wav
192,192,208295,1,0,0:0:0:30:clap1.wav
64,192,208648,1,0,0:0:0:30:clap1.wav
448,192,208648,128,0,209001:0:0:0:0:
192,192,209001,1,0,0:0:0:30:clap1.wav
320,192,209354,1,0,0:0:0:30:clap1.wav
64,192,209707,1,0,0:0:0:30:clap1.wav
448,192,210059,128,0,210412:0:0:0:30:clap1.wav
192,192,210412,1,0,0:0:0:30:clap1.wav
320,192,210765,1,0,0:0:0:30:clap1.wav
448,192,211118,1,0,0:0:0:30:clap1.wav
64,192,211471,128,0,211824:0:0:0:30:clap1.wav
192,192,211471,1,0,0:0:0:0:
320,192,211824,1,0,0:0:0:30:clap1.wav
448,192,212177,1,0,0:0:0:30:clap1.wav
192,192,212530,1,0,0:0:0:30:clap1.wav
64,192,212883,128,0,213236:0:0:0:30:clap1.wav
448,192,213236,1,0,0:0:0:70:drum.wav
448,192,213412,1,0,0:0:0:70:drum.wav
64,192,214207,128,0,214648:0:0:0:0:
