osu file format v14

[General]
AudioFilename: audio.mp3
AudioLeadIn: 0
PreviewTime: -1
Countdown: 1
SampleSet: Normal
StackLeniency: 0.7
Mode: 0
LetterboxInBreaks: 0
WidescreenStoryboard: 1

[Editor]
DistanceSpacing: 0.8
BeatDivisor: 4
GridSize: 8
TimelineZoom: 1

[Metadata]
Title:Opening (TV Size)
TitleUnicode:Opening (TV Size)
Artist:X Men
ArtistUnicode:X Men
Creator:Kaplan
Version:Storm
Source:
Tags:
BeatmapID:1538515
BeatmapSetID:728777

[Difficulty]
HPDrainRate:5
CircleSize:6
OverallDifficulty:5
ApproachRate:7
SliderMultiplier:1.4
SliderTickRate:1

[Events]
//Background and Video events
0,0,"X-Men_The_Animated_Series.png",0,0
//Break Periods
//Storyboard Layer 0 (Background)
//Storyboard Layer 1 (Fail)
//Storyboard Layer 2 (Pass)
//Storyboard Layer 3 (Foreground)
//Storyboard Sound Samples

[TimingPoints]
2340,247.831474597274,4,1,0,100,1,0
6305,247.831474597274,4,1,0,100,1,0
16713,-66.6666666666667,4,1,0,100,0,0
18200,-100,4,1,0,100,0,0
24644,-66.6666666666667,4,1,0,100,0,0
40010,-100,4,1,0,100,0,0
40505,-66.6666666666667,4,1,0,100,0,0

[HitObjects]
120,104,9774,5,0,0:0:0:0:
152,80,9898,1,0,0:0:0:0:
192,80,10022,1,0,0:0:0:0:
224,104,10146,1,0,0:0:0:0:
232,168,10270,2,0,P|288:232|456:156,1,280
456,104,11013,1,0,0:0:0:0:
392,280,11757,5,0,0:0:0:0:
360,304,11881,1,0,0:0:0:0:
320,304,12005,1,0,0:0:0:0:
288,280,12129,1,0,0:0:0:0:
280,216,12253,2,0,P|224:152|56:228,1,280
56,280,12996,1,0,0:0:0:0:
104,112,13739,5,0,0:0:0:0:
160,160,13863,1,0,0:0:0:0:
192,96,13987,1,0,0:0:0:0:
240,152,14111,1,0,0:0:0:0:
272,72,14235,2,0,P|352:64|408:240,1,280
312,208,14979,1,0,0:0:0:0:
88,208,16218,6,0,P|104:272|176:280,1,140
192,216,16713,2,0,P|160:160|320:208,1,420.000016021729
216,80,17705,5,0,0:0:0:0:
296,144,17829,1,0,0:0:0:0:
216,200,17953,1,0,0:0:0:0:
296,272,18076,1,0,0:0:0:0:
384,312,18200,2,0,L|384:32,1,280
472,208,18944,1,0,0:0:0:0:
40,160,19687,5,0,0:0:0:0:
131,106,19811,1,0,0:0:0:0:
185,198,19935,1,0,0:0:0:0:
93,251,20059,1,0,0:0:0:0:
176,312,20183,2,0,P|240:312|272:128,1,280
176,48,20927,1,0,0:0:0:0:
448,160,21670,5,0,0:0:0:0:
360,160,21794,1,0,0:0:0:0:
304,72,21918,1,0,0:0:0:0:
248,160,22042,1,0,0:0:0:0:
184,80,22166,2,0,P|112:88|168:232,1,280
304,232,22909,1,0,0:0:0:0:
312,80,24148,6,0,P|232:56|176:64,1,140
240,152,24644,2,0,P|160:160|288:304,1,420.000016021729
200,248,26131,6,0,L|160:112,2,140.000005340576
312,248,26627,2,0,L|352:112,2,140.000005340576
144,248,27122,2,0,L|104:112,2,140.000005340576
368,248,27618,2,0,L|408:112,2,140.000005340576
200,144,28114,6,0,P|280:120|328:144,2,140.000005340576
327,240,28609,2,0,P|263:265|200:240,2,140.000005340576
200,88,29105,2,0,P|280:64|328:88,2,140.000005340576
327,296,29601,2,0,P|263:321|200:296,2,140.000005340576
176,64,30096,6,0,L|64:192,2,140.000005340576
152,232,30592,2,0,L|264:104,2,140.000005340576
328,168,31088,2,0,L|216:296,2,140.000005340576
136,288,31583,5,0,0:0:0:0:
56,208,31749,1,0,0:0:0:0:
96,96,31914,1,0,0:0:0:0:
208,72,32079,2,0,B|424:72|424:72|424:176|424:176|208:176|208:176|208:288|208:288|424:288|424:288,1,840.000032043458
128,64,33566,5,0,0:0:0:0:
64,136,33690,1,0,0:0:0:0:
88,224,33814,1,0,0:0:0:0:
184,248,33938,1,0,0:0:0:0:
160,152,34062,2,0,B|272:120|272:120|272:48|272:48|400:152|312:248,1,420.000016021729
416,312,34805,1,0,0:0:0:0:
80,168,35549,5,0,0:0:0:0:
136,56,35673,1,0,0:0:0:0:
184,168,35796,1,0,0:0:0:0:
240,56,35920,1,0,0:0:0:0:
288,168,36044,2,0,B|352:56|352:56|400:168|296:336,1,420.000016021729
184,272,36788,1,0,0:0:0:0:
184,272,37531,5,0,0:0:0:0:
112,160,37655,1,0,0:0:0:0:
184,48,37779,1,0,0:0:0:0:
312,48,37903,1,0,0:0:0:0:
200,128,38027,2,0,P|312:136|184:272,1,420.000016021729
256,208,38770,1,0,0:0:0:0:
280,80,40010,2,0,P|336:80|352:160,1,140
80,80,40505,2,0,L|400:352,1,420.000016021729
104,96,41497,6,0,L|72:200,2,105.000004005432
168,144,41868,1,0,0:0:0:0:
192,64,41992,2,0,P|304:64|328:320,1,420.000016021729
256,192,42736,1,0,0:0:0:0:
408,72,43479,6,0,L|328:176,2,105.000004005432
280,56,43851,1,0,0:0:0:0:
416,232,43975,2,0,P|352:312|128:176,1,420.000016021729
128,64,44718,1,0,0:0:0:0:
256,120,45462,6,0,L|160:184,2,105.000004005432
96,224,45834,1,0,0:0:0:0:
192,280,45958,2,0,P|384:144|296:32,1,420.000016021729
96,64,46701,1,0,0:0:0:0:
296,144,47940,5,0,0:0:0:0:
320,280,48188,1,0,0:0:0:0:
112,64,48436,2,0,B|200:168|200:168|80:168|80:168|176:320,1,420.000016021729
184,64,49923,6,0,P|144:128|200:224,1,140.000005340576
240,136,50253,1,0,0:0:0:0:
224,248,50419,2,0,P|344:312|400:336,1,140.000005340576
408,240,50749,1,0,0:0:0:0:
344,168,50914,2,0,P|272:112|256:64,1,140.000005340576
360,72,51245,1,0,0:0:0:0:
136,96,51410,2,0,P|88:208|136:248,1,140.000005340576
208,272,51740,1,0,0:0:0:0:
280,56,51905,6,2,P|392:96|392:112,1,140.000005340576
248,112,52236,1,2,0:0:0:0:
400,160,52401,2,2,P|352:208|272:192,1,140.000005340576
184,192,52732,1,2,0:0:0:0:
176,48,52897,2,2,P|80:104|80:128,1,140.000005340576
264,232,53227,1,2,0:0:0:0:
232,112,53392,2,2,P|160:128|136:192,1,140.000005340576
328,296,53723,1,0,0:0:0:0:
312,216,53888,6,0,L|400:56,2,140.000005340576
200,216,54384,2,0,L|112:56,2,140.000005340576
168,320,54879,5,0,0:0:0:0:
256,344,55045,1,0,0:0:0:0:
344,320,55210,1,0,0:0:0:0:
416,248,55375,1,0,0:0:0:0:
360,120,55540,1,0,0:0:0:0:
200,72,55706,1,0,0:0:0:0:
80,112,55871,2,0,B|80:192|80:192|248:200|288:192|312:120|312:120|208:136|208:136|160:200|248:320|248:320|432:192,1,840.000032043458
320,72,57358,6,0,L|424:104,2,105.000004005432
352,160,57730,1,0,0:0:0:0:
416,248,57853,2,0,P|288:312|144:112,1,420.000016021729
248,192,58597,1,0,0:0:0:0:
256,192,59340,12,0,60084,0:0:0:0:
