osu file format v14

[General]
AudioFilename: audio.mp3
AudioLeadIn: 0
PreviewTime: 24318
Countdown: 0
SampleSet: Normal
StackLeniency: 0.7
Mode: 1
LetterboxInBreaks: 0
WidescreenStoryboard: 1

[Editor]
Bookmarks: 2849,6253,9280,12306,15333,18359,21386,24412,27439,30465,33492,36140,39166,42193,45598,48624,51651,54677,57704,60730,63757,66783,69810,72458
DistanceSpacing: 1.5
BeatDivisor: 2
GridSize: 16
TimelineZoom: 0.9999998

[Metadata]
Title:Zao Gao Xian Jin Guo
TitleUnicode:枣糕先进国
Artist:Wuwaa
ArtistUnicode:呜哇啊
Creator:[-E S I A-]
Version:Futsuu
Source:星のカービィ3
Tags:kirby's kirby dreamland dream land of the stars 3 sand canyon 1 nintendo novelty chinese bbd bilibili bili douga 音mad otomad oto-mad Geping Gepao Angry German Kid McDonald Zaogaoxianjinguo 金馆长 Jin Guan Zhang Jinguanzhang E_S_I_A [-E_S_I_A-] ESIA [-ESIA-]
BeatmapID:3819837
BeatmapSetID:1858416

[Difficulty]
HPDrainRate:8
CircleSize:2
OverallDifficulty:4
ApproachRate:10
SliderMultiplier:1.4
SliderTickRate:3

[Events]
//Background and Video events
Video,-80,"ayonima.mp4"
0,0,"BG.JPG",0,60
//Break Periods
//Storyboard Layer 0 (Background)
//Storyboard Layer 1 (Fail)
//Storyboard Layer 2 (Pass)
//Storyboard Layer 3 (Foreground)
//Storyboard Layer 4 (Overlay)
//Storyboard Sound Samples

[TimingPoints]
201,378.310214375788,4,1,0,70,1,0
24412,-100,4,1,0,80,0,1
35762,-100,4,1,0,80,0,0
36045,-100,4,1,0,70,0,0
60730,-100,4,1,0,80,0,1
72079,-100,4,1,0,80,0,0
72363,-100,4,1,0,70,0,0

[HitObjects]
362,253,201,5,0,0:0:0:0:
290,159,579,1,8,0:0:0:0:
339,251,768,1,0,0:0:0:0:
401,166,957,1,8,0:0:0:0:
290,159,1335,1,8,0:0:0:0:
390,188,1714,1,0,0:0:0:0:
401,166,1903,1,8,0:0:0:0:
397,187,2281,1,0,0:0:0:0:
296,160,2470,1,8,0:0:0:0:
270,159,3227,1,8,0:0:0:0:
458,67,3605,1,0,0:0:0:0:
232,213,3794,1,0,0:0:0:0:
335,237,3984,1,8,0:0:0:0:
232,213,4362,1,0,0:0:0:0:
232,213,4740,1,8,0:0:0:0:
437,167,5119,1,8,0:0:0:0:
337,229,5497,1,0,0:0:0:0:
282,169,6253,1,8,0:0:0:0:
174,240,6632,1,0,0:0:0:0:
231,152,6821,1,8,0:0:0:0:
345,205,7010,1,0,0:0:0:0:
318,277,7388,1,8,0:0:0:0:
440,160,7767,1,0,0:0:0:0:
350,192,7956,1,0,0:0:0:0:
350,192,8334,1,0,0:0:0:0:
318,172,8523,1,8,0:0:0:0:
350,192,9280,1,8,0:0:0:0:
350,192,9469,1,8,0:0:0:0:
406,44,9658,1,0,0:0:0:0:
245,197,10037,1,8,0:0:0:0:
328,202,10226,1,8,0:0:0:0:
297,192,10415,1,0,0:0:0:0:
245,197,10793,1,8,0:0:0:0:
453,219,11171,1,8,0:0:0:0:
245,197,11550,1,0,0:0:0:0:
254,232,12306,1,8,0:0:0:0:
254,232,12685,1,8,0:0:0:0:
254,232,12874,1,0,0:0:0:0:
254,232,13063,1,8,0:0:0:0:
254,232,13441,1,8,0:0:0:0:
268,266,13820,1,0,0:0:0:0:
254,232,14009,1,8,0:0:0:0:
252,188,14387,1,0,0:0:0:0:
252,188,14576,1,8,0:0:0:0:
394,259,15333,1,0,0:0:0:0:
394,259,15711,1,0,0:0:0:0:
394,259,15900,1,0,0:0:0:0:
316,197,16090,1,8,0:0:0:0:
316,197,16468,1,8,0:0:0:0:
394,259,16846,1,0,0:0:0:0:
291,236,17224,1,0,0:0:0:0:
291,236,17603,1,8,0:0:0:0:
374,221,18359,1,8,0:0:0:0:
374,221,18738,1,8,0:0:0:0:
374,221,18927,1,8,0:0:0:0:
374,221,19116,1,0,0:0:0:0:
374,221,19494,1,8,0:0:0:0:
374,221,19873,1,0,0:0:0:0:
281,203,20251,1,0,0:0:0:0:
281,203,20440,1,0,0:0:0:0:
281,203,20629,1,8,0:0:0:0:
384,185,21386,1,8,0:0:0:0:
435,176,21764,1,0,0:0:0:0:
346,232,21953,1,8,0:0:0:0:
384,185,22332,1,0,0:0:0:0:
425,166,22521,1,8,0:0:0:0:
346,232,22899,1,8,0:0:0:0:
346,232,23277,1,8,0:0:0:0:
333,197,23656,1,0,0:0:0:0:
334,207,24412,1,0,0:0:0:0:
382,227,24791,1,0,0:0:0:0:
329,198,24980,1,0,0:0:0:0:
382,227,25169,1,8,0:0:0:0:
382,227,25358,1,8,0:0:0:0:
379,122,25547,1,0,0:0:0:0:
283,173,25926,1,0,0:0:0:0:
387,157,26304,1,8,0:0:0:0:
387,157,26682,1,0,0:0:0:0:
455,236,27439,1,8,0:0:0:0:
420,196,27817,1,8,0:0:0:0:
420,196,28006,1,8,0:0:0:0:
420,196,28195,1,0,0:0:0:0:
270,201,28385,1,0,0:0:0:0:
420,196,28574,1,8,0:0:0:0:
420,196,28952,1,8,0:0:0:0:
377,193,29330,1,0,0:0:0:0:
325,194,29709,1,8,0:0:0:0:
429,193,30465,1,8,0:0:0:0:
377,193,30844,1,0,0:0:0:0:
466,166,31033,1,0,0:0:0:0:
351,150,31222,1,8,0:0:0:0:
371,177,31979,1,8,0:0:0:0:
370,167,32357,1,0,0:0:0:0:
370,167,32546,1,0,0:0:0:0:
371,177,32735,1,8,0:0:0:0:
162,153,33113,1,8,0:0:0:0:
307,213,33491,1,0,0:0:0:0:
280,206,33870,1,8,0:0:0:0:
307,213,34059,1,0,0:0:0:0:
307,213,34248,1,8,0:0:0:0:
280,206,34627,1,8,0:0:0:0:
280,206,35005,1,0,0:0:0:0:
359,205,35762,1,8,0:0:0:0:
356,208,36518,1,0,0:0:0:0:
358,103,36707,1,8,0:0:0:0:
508,149,37086,1,8,0:0:0:0:
258,321,37275,1,0,0:0:0:0:
306,252,37653,1,8,0:0:0:0:
288,179,38032,1,8,0:0:0:0:
339,186,38221,1,8,0:0:0:0:
339,186,38410,1,0,0:0:0:0:
393,194,38788,1,8,0:0:0:0:
393,194,39545,1,0,0:0:0:0:
353,228,39734,1,8,0:0:0:0:
353,228,39923,1,0,0:0:0:0:
343,190,40301,1,8,0:0:0:0:
445,164,40491,1,8,0:0:0:0:
343,190,40680,1,0,0:0:0:0:
238,191,41058,1,0,0:0:0:0:
290,290,41436,1,8,0:0:0:0:
346,201,41625,1,0,0:0:0:0:
395,186,41815,1,8,0:0:0:0:
446,171,42571,1,0,0:0:0:0:
348,211,42950,1,8,0:0:0:0:
446,171,43139,1,8,0:0:0:0:
404,187,43328,1,0,0:0:0:0:
196,215,43706,1,8,0:0:0:0:
404,187,44084,1,0,0:0:0:0:
300,200,44463,1,0,0:0:0:0:
404,187,44652,1,0,0:0:0:0:
247,207,44841,1,8,0:0:0:0:
260,157,45598,1,8,0:0:0:0:
409,162,45976,1,0,0:0:0:0:
304,169,46165,1,0,0:0:0:0:
404,187,46354,1,8,0:0:0:0:
404,187,46733,1,0,0:0:0:0:
361,184,47111,1,8,0:0:0:0:
404,187,47489,1,8,0:0:0:0:
361,184,47678,1,8,0:0:0:0:
466,184,47868,1,0,0:0:0:0:
368,284,48624,1,0,0:0:0:0:
404,197,49003,1,8,0:0:0:0:
365,184,49192,1,8,0:0:0:0:
425,262,49381,1,0,0:0:0:0:
413,157,49759,1,8,0:0:0:0:
315,228,50137,1,0,0:0:0:0:
361,180,50327,1,8,0:0:0:0:
261,191,50705,1,0,0:0:0:0:
469,178,50894,1,8,0:0:0:0:
365,184,51651,1,8,0:0:0:0:
365,184,52029,1,0,0:0:0:0:
261,168,52218,1,0,0:0:0:0:
295,266,52407,1,8,0:0:0:0:
279,162,52786,1,0,0:0:0:0:
304,200,53164,1,8,0:0:0:0:
408,193,53353,1,0,0:0:0:0:
407,190,53731,1,0,0:0:0:0:
505,259,53921,1,8,0:0:0:0:
350,207,54677,1,0,0:0:0:0:
351,217,55055,1,8,0:0:0:0:
350,207,55245,1,8,0:0:0:0:
453,190,55434,1,0,0:0:0:0:
453,190,55812,1,8,0:0:0:0:
298,220,56190,1,8,0:0:0:0:
298,220,56380,1,8,0:0:0:0:
298,220,56569,1,0,0:0:0:0:
298,220,56758,1,8,0:0:0:0:
298,220,56947,1,8,0:0:0:0:
142,140,57704,1,0,0:0:0:0:
298,220,57893,1,0,0:0:0:0:
347,201,58082,1,8,0:0:0:0:
298,220,58460,1,0,0:0:0:0:
298,220,58649,1,0,0:0:0:0:
345,198,58839,1,8,0:0:0:0:
243,182,59217,1,8,0:0:0:0:
243,181,59595,1,8,0:0:0:0:
451,180,59784,1,8,0:0:0:0:
347,170,59974,1,0,0:0:0:0:
334,207,60730,1,0,0:0:0:0:
382,227,61109,1,0,0:0:0:0:
355,107,61298,1,0,0:0:0:0:
382,227,61487,1,8,0:0:0:0:
329,198,61676,1,8,0:0:0:0:
382,227,61865,1,0,0:0:0:0:
283,173,62244,1,0,0:0:0:0:
387,157,62622,1,8,0:0:0:0:
387,157,63000,1,0,0:0:0:0:
455,236,63757,1,8,0:0:0:0:
420,196,64135,1,8,0:0:0:0:
453,96,64324,1,8,0:0:0:0:
420,196,64513,1,0,0:0:0:0:
420,196,64702,1,0,0:0:0:0:
420,196,64892,1,8,0:0:0:0:
420,196,65270,1,8,0:0:0:0:
377,193,65648,1,0,0:0:0:0:
325,194,66027,1,8,0:0:0:0:
425,164,66783,1,8,0:0:0:0:
372,172,67161,1,0,0:0:0:0:
325,194,67540,1,8,0:0:0:0:
425,164,67729,1,8,0:0:0:0:
320,173,68107,1,0,0:0:0:0:
417,211,68296,1,8,0:0:0:0:
441,154,69053,1,8,0:0:0:0:
379,228,69810,1,8,0:0:0:0:
377,175,70188,1,0,0:0:0:0:
377,175,70377,1,0,0:0:0:0:
377,175,70566,1,8,0:0:0:0:
377,175,70945,1,8,0:0:0:0:
170,211,71323,1,0,0:0:0:0:
377,187,72079,1,8,0:0:0:0:
442,198,72458,1,12,0:0:0:0:
