osu file format v14

[General]
AudioFilename: audio.mp3
AudioLeadIn: 0
PreviewTime: -1
Countdown: 1
SampleSet: None
StackLeniency: 0.7
Mode: 0
LetterboxInBreaks: 0
WidescreenStoryboard: 0

[Editor]
DistanceSpacing: 0.2
BeatDivisor: 8
GridSize: 16
TimelineZoom: 1

[Metadata]
Title:MUSICA FODA
TitleUnicode:MUSICA FODA
Artist:Wubbix
ArtistUnicode:Wubbix
Creator:Detonador174
Version:Insane
Source:
Tags:
BeatmapID:1712631
BeatmapSetID:816677

[Difficulty]
HPDrainRate:5
CircleSize:5
OverallDifficulty:5
ApproachRate:5
SliderMultiplier:1.4
SliderTickRate:1

[Events]
//Background and Video events
0,0,"PUtassa.jpg",0,0
//Break Periods
//Storyboard Layer 0 (Background)
//Storyboard Layer 1 (Fail)
//Storyboard Layer 2 (Pass)
//Storyboard Layer 3 (Foreground)
//Storyboard Sound Samples

[TimingPoints]
0,260.869565217391,4,3,0,14,1,0
13206,-80,4,3,0,14,0,0

[HitObjects]
159,126,1043,5,0,0:0:0:0:
265,138,1434,1,0,0:0:0:0:
405,126,1858,5,0,0:0:0:0:
423,185,2021,2,0,B|303:209|309:213,1,105
75,186,2510,1,0,0:0:0:0:
219,105,2902,1,0,0:0:0:0:
92,147,3195,5,0,0:0:0:0:
107,166,3260,1,0,0:0:0:0:
122,180,3358,1,0,0:0:0:0:
199,246,3489,5,0,0:0:0:0:
345,119,4108,5,0,0:0:0:0:
225,66,4499,1,0,0:0:0:0:
149,166,4826,1,0,0:0:0:0:
193,225,4989,2,0,B|341:228,1,140
412,306,5608,5,0,0:0:0:0:
390,182,5999,1,0,0:0:0:0:
84,227,6293,6,0,P|123:197|127:192,1,52.5
124,194,6489,2,0,P|89:142|89:142,1,52.5
172,142,7206,5,0,0:0:0:0:
337,106,7597,1,0,0:0:0:0:
253,208,7956,1,0,0:0:0:0:
214,261,8152,2,0,B|303:317,1,105
366,302,8739,5,0,0:0:0:0:
359,149,9130,1,0,0:0:0:0:
231,68,9326,1,0,0:0:0:0:
190,105,9391,1,0,0:0:0:0:
166,148,9456,1,0,0:0:0:0:
72,166,9684,1,0,0:0:0:0:
349,64,10271,5,0,0:0:0:0:
216,67,10695,1,0,0:0:0:0:
255,209,11086,1,0,0:0:0:0:
182,213,11282,2,0,B|74:182|74:184,1,105
196,162,11804,5,0,0:0:0:0:
256,192,12065,12,0,12782,0:0:0:0:
256,192,13206,6,0,P|365:114|366:114,1,131.25
401,162,13565,2,0,P|370:220|305:248,1,131.25
219,260,13956,6,0,P|130:208|128:198,1,109.375
149,148,14347,2,0,B|210:99|181:55,2,109.375
207,188,14771,6,0,P|276:176|295:151,1,87.5
256,113,15065,2,0,P|358:53|415:71,1,175
406,179,15586,5,0,0:0:0:0:
440,244,15652,1,0,0:0:0:0:
362,274,15717,1,0,0:0:0:0:
472,141,15913,1,0,0:0:0:0:
96,186,16271,2,0,P|165:205|182:149,1,131.25
181,114,16597,2,0,P|123:68|81:140,1,175
301,236,17054,2,0,B|231:191|219:189|275:153,1,131.25
53,247,17478,5,0,0:0:0:0:
166,316,17641,1,0,0:0:0:0:
244,326,17869,6,0,P|309:331|344:281,1,131.25
354,217,18163,2,0,B|452:182|461:160|339:146,1,175
255,121,18652,5,0,0:0:0:0:
172,98,18847,5,0,0:0:0:0:
146,121,18913,1,0,0:0:0:0:
137,159,18978,1,0,0:0:0:0:
268,252,19434,6,0,B|309:284|313:287|318:289|323:293|332:298|343:311|352:306|352:306|401:284,1,153.125
473,210,19826,2,0,P|344:195|325:199,1,131.25
257,188,20217,1,0,0:0:0:0:
211,215,20380,1,0,0:0:0:0:
154,258,20478,6,0,P|71:262|67:246,2,109.375
216,300,21032,5,0,0:0:0:0:
290,318,21163,2,0,L|370:280,1,87.5
461,240,21391,1,0,0:0:0:0:
323,138,21782,5,0,0:0:0:0:
281,152,21847,1,0,0:0:0:0:
237,155,21913,1,0,0:0:0:0:
150,81,22141,2,0,B|86:71|92:106|48:92|44:199,1,175
87,233,22533,6,0,P|125:259|199:278,1,109.375
195,279,22728,2,0,P|272:318|301:295,1,131.25
325,275,22956,1,0,0:0:0:0:
381,174,23119,2,0,B|400:116|371:96|420:45,1,131.25
246,52,23478,5,0,0:0:0:0:
123,128,23673,2,0,P|108:144|138:129,2,109.375
101,57,24130,1,0,0:0:0:0:
15,112,24228,6,0,L|73:218,1,109.375
128,283,24489,1,0,0:0:0:0:
223,207,24652,1,0,0:0:0:0:
272,143,24749,6,0,B|350:152|362:186|361:187,1,87.5
340,258,25010,2,0,L|388:257,3,43.75
256,194,25630,6,0,P|167:217|161:180,1,153.125
208,183,25989,2,0,P|251:138|306:176,1,131.25
316,223,26282,2,0,B|268:291|231:302|178:292,1,153.125
52,128,26739,6,0,L|159:120,2,87.5
36,60,27163,6,0,P|108:38|198:53,1,153.125
251,64,27521,2,0,B|343:66|371:58,1,109.375
402,53,27749,1,0,0:0:0:0:
419,142,27945,5,0,0:0:0:0:
393,168,28010,1,0,0:0:0:0:
370,191,28076,1,0,0:0:0:0:
198,166,28336,2,0,P|241:206|314:219,1,131.25
314,158,28728,5,0,0:0:0:0:
257,113,28793,2,0,B|172:94|161:98|131:159,1,153.125
105,211,29086,1,0,0:0:0:0:
99,281,29217,2,0,B|139:315|246:315|246:315|265:309,1,153.125
307,312,29543,1,0,0:0:0:0:
413,306,29739,2,0,P|464:247|448:223,2,109.375
216,204,30260,5,0,0:0:0:0:
160,162,30456,2,0,B|78:167|43:148|24:131,1,131.25
35,68,30782,1,0,0:0:0:0:
142,68,31043,5,0,0:0:0:0:
199,111,31271,1,0,0:0:0:0:
229,136,31336,1,0,0:0:0:0:
272,148,31402,1,0,0:0:0:0:
152,231,31826,5,0,0:0:0:0:
227,200,31956,2,0,P|299:215|352:180,1,131.25
346,187,32217,1,0,0:0:0:0:
479,91,32413,2,0,P|466:62|407:43,1,87.5
337,57,32608,1,0,0:0:0:0:
254,50,32771,2,0,B|104:54|115:57|105:58|82:58,2,153.125
61,155,33391,6,0,L|195:186,1,131.25
105,256,33749,2,0,L|150:102,1,153.125
223,127,34076,1,0,0:0:0:0:
263,162,34173,1,0,0:0:0:0:
303,204,34304,1,0,0:0:0:0:
416,190,34499,5,0,0:0:0:0:
158,262,34956,2,0,P|189:193|212:195,1,109.375
123,158,35315,2,0,P|90:120|150:71,1,131.25
182,31,35706,6,0,B|307:35|307:35,1,109.375
317,100,36097,2,0,P|388:100|406:99,2,87.5
384,186,36652,5,0,0:0:0:0:
243,186,37043,1,0,0:0:0:0:
128,160,37173,5,0,0:0:0:0:
172,106,37402,2,0,L|229:57,3,65.625
260,144,37923,1,0,0:0:0:0:
