osu file format v14

[General]
AudioFilename: Luotianyi - Quan Yu Tian Xia.mp3
AudioLeadIn: 0
PreviewTime: 666
Countdown: 0
SampleSet: Normal
StackLeniency: 0.9
Mode: 0
LetterboxInBreaks: 1
WidescreenStoryboard: 1

[Editor]
DistanceSpacing: 1.3
BeatDivisor: 3
GridSize: 4
TimelineZoom: 3.699999

[Metadata]
Title:Quan Yu Tian Xia
TitleUnicode:权御天下
Artist:Wu gui
ArtistUnicode:乌龟
Creator:DenierNezzar
Version:Hard
Source:VOCALOID Luo Tian Yi
Tags:Bilibili VOCALOID Luo Tian Yi
BeatmapID:710381
BeatmapSetID:309618

[Difficulty]
HPDrainRate:5
CircleSize:3.2
OverallDifficulty:4
ApproachRate:6.5
SliderMultiplier:1.4
SliderTickRate:1

[Events]
//Background and Video events
0,0,"f00ef27e39773cc2648a072013da62ac.jpg",0,0
Video,313,"123.avi"
//Break Periods
2,22271,31475
2,113082,122286
2,193515,201096
//Storyboard Layer 0 (Background)
//Storyboard Layer 1 (Fail)
//Storyboard Layer 2 (Pass)
//Storyboard Layer 3 (Foreground)
//Storyboard Sound Samples

[TimingPoints]
1315,324.324595469256,4,1,2,100,1,0
11693,-100,4,1,2,100,0,1
22071,-100,4,1,1,100,0,0
42828,-100,4,1,2,100,0,1
53206,-100,4,1,2,100,0,0
53531,-100,4,1,1,100,0,0
73963,-133.333333333333,4,1,1,100,0,0
81747,-100,4,1,1,100,0,1
102504,-100,4,1,2,100,0,1
112882,-100,4,1,1,100,0,0
154720,-133.333333333333,4,1,1,100,0,0
162179,-100,4,1,1,100,0,1
182936,-100,4,1,1,100,0,0
203693,-90.9090909090909,4,1,1,100,0,1
214071,-90.9090909090909,4,1,1,100,0,1
224774,-100,4,1,2,100,0,0
234828,-100,4,1,2,100,0,1
245207,-100,4,1,1,100,0,0

[Colours]
Combo1 : 255,128,192
Combo2 : 0,128,255
Combo3 : 255,128,128
Combo4 : 128,128,255
Combo5 : 255,128,64
Combo6 : 192,192,192

[HitObjects]
48,136,1315,5,0,0:0:0:0:
216,76,2287,1,2,0:0:0:0:
188,164,2450,2,0,P|224:172|260:156,1,70,2|2,0:0|0:0,0:0:0:0:
356,216,3585,1,2,0:0:0:0:
376,128,3747,2,0,P|412:140|444:180,1,70,2|2,0:0|0:0,0:0:0:0:
200,272,4882,6,0,P|208:316|244:344,1,70
304,292,5206,2,0,B|332:332|332:332|424:312,3,140,0|0|0|2,0:0|0:0|0:0|0:0,0:0:0:0:
344,148,6504,5,2,0:0:0:0:
184,200,7477,6,0,L|280:180,1,70,2|2,0:0|0:0,0:0:0:0:
272,96,7801,1,2,0:0:0:0:
384,220,8774,2,0,L|336:164,1,70,2|2,0:0|0:0,0:0:0:0:
360,80,9098,1,2,0:0:0:0:
160,296,10071,6,0,L|176:216,1,70,2|2,0:0|0:0,0:0:0:0:
92,188,10396,2,0,B|108:136|160:108|232:144,3,140,2|2|2|2,0:0|0:0|0:0|0:0,0:0:0:0:
368,208,11693,5,8,0:0:0:0:
296,264,11855,1,0,0:0:0:0:
208,240,12017,2,0,L|108:260,1,70,4|0,0:0|0:0,0:0:0:0:
52,288,12342,2,0,P|36:252|48:216,1,70
116,172,12666,2,0,L|128:92,1,70,4|0,0:0|0:0,0:0:0:0:
204,56,12990,5,0,0:0:0:0:
292,76,13152,1,0,0:0:0:0:
380,48,13315,2,0,P|376:112|360:140,1,70,4|0,0:0|0:0,0:0:0:0:
300,168,13639,2,0,L|296:252,1,70
364,300,13963,2,0,B|328:336|280:320,1,70,4|0,0:0|0:0,0:0:0:0:
224,276,14287,5,0,0:0:0:0:
220,368,14450,1,0,0:0:0:0:
144,320,14612,2,0,B|96:320|60:364,1,70,4|0,0:0|0:0,0:0:0:0:
48,252,14936,2,0,P|20:200|28:168,1,70
112,188,15260,2,0,B|156:164|196:200,1,70,4|0,0:0|0:0,0:0:0:0:
264,216,15585,5,0,0:0:0:0:
236,128,15747,2,0,B|280:112|280:112|324:128,1,70,0|4,0:0|0:0,0:0:0:0:
376,68,16071,2,0,P|388:120|376:148,1,70
408,224,16396,2,0,B|388:232|388:232|340:224,2,70,0|4|0,0:0|0:0|0:0,0:0:0:0:
500,220,16882,5,0,0:0:0:0:
452,144,17044,1,0,0:0:0:0:
468,56,17206,2,0,B|416:64|416:64|384:84,1,70,4|0,0:0|0:0,0:0:0:0:
360,156,17531,2,0,B|316:148|284:116,1,70
296,36,17855,2,0,L|208:68,1,70,4|0,0:0|0:0,0:0:0:0:
148,96,18179,5,0,0:0:0:0:
56,84,18342,1,0,0:0:0:0:
76,172,18504,2,0,L|64:248,1,70,4|0,0:0|0:0,0:0:0:0:
76,332,18828,2,0,P|124:304|140:272,1,70
160,208,19152,2,0,L|248:236,1,70,4|0,0:0|0:0,0:0:0:0:
316,216,19477,5,0,0:0:0:0:
280,132,19639,1,0,0:0:0:0:
320,52,19801,2,0,B|376:84|376:84|396:64,1,70,4|0,0:0|0:0,0:0:0:0:
456,32,20125,2,0,P|464:88|448:120,1,70
396,164,20450,2,0,L|404:240,1,70,4|0,0:0|0:0,0:0:0:0:
448,312,20774,5,0,0:0:0:0:
356,312,20936,2,0,L|272:312,2,70,0|4|0,0:0|0:0|0:0,0:0:0:0:
312,232,21423,2,0,L|320:140,1,70
232,192,21747,2,0,P|196:200|148:196,1,70,4|0,0:0|0:0,0:0:0:0:
96,140,22071,1,8,0:0:0:0:
88,104,32450,5,0,0:0:0:0:
264,144,32774,6,0,L|412:144,1,140,8|0,0:0|0:0,0:0:0:0:
408,328,33423,1,8,0:0:0:0:
440,244,33585,1,0,0:0:0:0:
348,256,33747,1,0,0:0:0:0:
264,220,33909,2,0,P|208:240|172:232,1,70,0|8,0:0|0:0,0:0:0:0:
196,148,34233,1,0,0:0:0:0:
360,72,34558,6,0,L|440:72,2,70,0|8|0,0:0|0:0|0:0,0:0:0:0:
180,104,35206,2,0,L|88:96,2,70,0|8|0,0:0|0:0|0:0,0:0:0:0:
344,184,35855,2,0,L|432:200,2,70,0|8|0,0:0|0:0|0:0,0:0:0:0:
260,144,36342,2,0,B|252:184|252:184|256:216,1,70
300,292,36666,2,0,L|208:308,1,70,8|0,0:0|0:0,0:0:0:0:
148,340,36990,2,0,P|144:288|156:248,1,70
76,212,37315,2,0,L|80:156,4,35,8|0|0|0|0,0:0|0:0|0:0|0:0|0:0,0:0:0:0:
240,136,37963,6,0,P|248:68|260:60,1,70,8|0,0:0|0:0,0:0:0:0:
328,108,38288,1,0,0:0:0:0:
300,288,38612,2,0,L|396:288,1,70,8|0,0:0|0:0,0:0:0:0:
452,328,38936,2,0,L|452:240,1,70
404,180,39261,1,8,0:0:0:0:
440,96,39423,1,0,0:0:0:0:
264,144,39747,6,0,L|264:44,2,70,0|8|0,0:0|0:0|0:0,0:0:0:0:
210,246,40396,2,0,L|208:316,2,70,0|8|0,0:0|0:0|0:0,0:0:0:0:
160,140,41044,2,0,L|152:44,2,70,0|8|0,0:0|0:0|0:0,0:0:0:0:
84,188,41531,2,0,B|96:240|96:240|112:264,1,70
116,344,41855,2,0,L|204:304,1,70,8|0,0:0|0:0,0:0:0:0:
272,324,42179,2,0,B|276:264|276:264|264:228,1,70
356,216,42504,2,0,L|440:248,2,70,8|0|0,0:0|0:0|0:0,0:0:0:0:
176,180,43152,6,0,L|276:180,1,70,4|0,0:0|0:0,0:0:0:0:
284,96,43477,2,0,L|214:96,1,70
124,108,43801,2,0,B|80:148|80:148|88:188,1,70,4|0,0:0|0:0,0:0:0:0:
124,240,44125,5,0,0:0:0:0:
108,332,44288,1,0,0:0:0:0:
192,296,44450,2,0,P|240:272|276:272,1,70,4|0,0:0|0:0,0:0:0:0:
340,308,44774,2,0,L|364:212,1,70
448,236,45098,2,0,P|432:168|420:148,1,70,4|0,0:0|0:0,0:0:0:0:
440,76,45423,5,0,0:0:0:0:
356,108,45585,1,0,0:0:0:0:
268,80,45747,2,0,B|220:104|220:104|172:96,1,70,4|0,0:0|0:0,0:0:0:0:
116,120,46071,2,0,B|128:168|176:188,1,70
248,176,46396,2,0,L|240:272,1,70,4|0,0:0|0:0,0:0:0:0:
160,284,46720,5,0,0:0:0:0:
236,336,46882,2,0,L|320:344,1,70,0|4,0:0|0:0,0:0:0:0:
392,316,47206,2,0,B|388:272|388:272|372:248,1,70
388,160,47531,2,0,L|476:144,2,70,0|4|0,0:0|0:0|0:0,0:0:0:0:
296,172,48017,5,0,0:0:0:0:
328,88,48179,1,0,0:0:0:0:
248,44,48342,2,0,L|152:64,1,70,4|0,0:0|0:0,0:0:0:0:
88,56,48666,2,0,P|80:108|92:132,1,70
172,156,48990,2,0,P|176:200|164:248,1,70,4|0,0:0|0:0,0:0:0:0:
128,304,49315,5,0,0:0:0:0:
220,312,49477,1,0,0:0:0:0:
308,332,49639,2,0,B|372:332|372:332|388:300,1,70,4|0,0:0|0:0,0:0:0:0:
340,244,49963,2,0,P|356:200|356:160,1,70
268,192,50288,2,0,B|228:200|228:200|184:188,1,70,4|0,0:0|0:0,0:0:0:0:
108,192,50612,5,0,0:0:0:0:
76,108,50774,1,0,0:0:0:0:
152,56,50936,2,0,B|208:40|208:40|232:64,1,70,4|0,0:0|0:0,0:0:0:0:
308,36,51260,2,0,P|304:80|268:120,1,70
308,192,51585,2,0,L|328:284,1,70,4|0,0:0|0:0,0:0:0:0:
376,336,51909,5,0,0:0:0:0:
416,252,52071,2,0,P|436:188|436:168,1,70,0|4,0:0|0:0,0:0:0:0:
448,96,52396,1,0,0:0:0:0:
364,56,52558,2,0,L|268:60,2,70,0|0|4,0:0|0:0|0:0,0:0:0:0:
276,316,53206,1,8,0:0:0:0:
200,152,53531,6,0,L|124:172,1,70,8|0,0:0|0:0,0:0:0:0:
96,252,53855,2,0,L|176:272,1,70
252,240,54179,1,8,0:0:0:0:
252,240,54342,1,0,0:0:0:0:
336,272,54504,1,0,0:0:0:0:
424,244,54666,2,0,B|436:204|436:204|428:148,1,70,0|8,0:0|0:0,0:0:0:0:
396,92,54990,1,0,0:0:0:0:
240,184,55315,6,0,B|188:176|188:176|172:144,2,70,0|8|0,0:0|0:0|0:0,0:0:0:0:
160,348,55963,2,0,B|176:288|176:288|200:284,2,70,0|8|0,0:0|0:0|0:0,0:0:0:0:
336,296,56612,2,0,L|404:324,2,70,0|8|0,0:0|0:0|0:0,0:0:0:0:
388,224,57098,1,0,0:0:0:0:
360,136,57260,1,0,0:0:0:0:
364,228,57423,1,8,0:0:0:0:
280,200,57585,1,0,0:0:0:0:
192,220,57747,1,0,0:0:0:0:
220,132,57909,1,0,0:0:0:0:
136,100,58071,2,0,L|80:92,4,35,8|0|0|0|0,0:0|0:0|0:0|0:0|0:0,0:0:0:0:
316,60,58720,6,0,B|356:48|356:48|408:68,1,70,8|0,0:0|0:0,0:0:0:0:
348,144,59044,2,0,B|308:156|308:156|256:136,1,70
204,96,59369,1,8,0:0:0:0:
204,96,59531,1,0,0:0:0:0:
120,128,59693,1,0,0:0:0:0:
148,216,59855,2,0,B|144:264|144:264|120:288,1,70,0|8,0:0|0:0,0:0:0:0:
40,264,60179,1,0,0:0:0:0:
216,308,60504,2,0,L|308:332,2,70,0|8|0,0:0|0:0|0:0,0:0:0:0:
256,228,61152,2,0,L|244:136,2,70,0|8|0,0:0|0:0|0:0,0:0:0:0:
168,248,61801,2,0,L|96:240,2,70,0|8|0,0:0|0:0|0:0,0:0:0:0:
220,324,62287,5,0,0:0:0:0:
220,324,62449,1,0,0:0:0:0:
312,332,62612,1,8,0:0:0:0:
312,332,62774,1,0,0:0:0:0:
396,300,62936,1,0,0:0:0:0:
396,300,63098,1,0,0:0:0:0:
456,232,63260,2,0,L|460:180,4,35,8|0|0|0|0,0:0|0:0|0:0|0:0|0:0,0:0:0:0:
300,136,63909,5,8,0:0:0:0:
212,160,64071,2,0,L|124:144,1,70
156,328,64558,1,8,0:0:0:0:
156,328,64720,1,0,0:0:0:0:
236,284,64882,1,0,0:0:0:0:
320,316,65044,2,0,B|356:324|356:324|388:292,1,70,0|8,0:0|0:0,0:0:0:0:
412,216,65369,1,0,0:0:0:0:
348,48,65693,2,0,L|432:68,2,70,0|8|0,0:0|0:0|0:0,0:0:0:0:
168,76,66342,2,0,L|72:44,2,70,0|8|0,0:0|0:0|0:0,0:0:0:0:
336,148,66990,2,0,L|304:236,1,70,0|8,0:0|0:0,0:0:0:0:
344,300,67315,1,0,0:0:0:0:
256,320,67477,5,0,0:0:0:0:
168,296,67639,1,0,0:0:0:0:
80,316,67801,1,8,0:0:0:0:
108,228,67963,1,0,0:0:0:0:
52,156,68125,1,0,0:0:0:0:
108,84,68288,1,0,0:0:0:0:
192,116,68450,2,0,L|244:112,4,35,8|0|0|0|0,0:0|0:0|0:0|0:0|0:0,0:0:0:0:
368,72,69098,6,0,P|376:116|364:160,1,70,8|0,0:0|0:0,0:0:0:0:
284,108,69423,2,0,L|188:120,1,70
140,68,69747,1,8,0:0:0:0:
116,156,69909,1,0,0:0:0:0:
40,204,70071,2,0,P|76:236|112:240,1,70
184,216,70396,2,0,L|172:304,1,70,8|0,0:0|0:0,0:0:0:0:
356,300,70882,6,0,B|408:328|408:328|432:316,2,70,0|8|0,0:0|0:0|0:0,0:0:0:0:
444,140,71531,2,0,L|460:48,2,70,0|8|0,0:0|0:0|0:0,0:0:0:0:
284,224,72179,2,0,P|320:200|376:208,2,70,0|8|0,0:0|0:0|0:0,0:0:0:0:
208,276,72666,1,0,0:0:0:0:
120,296,72828,1,0,0:0:0:0:
180,364,72990,1,8,0:0:0:0:
208,276,73152,1,0,0:0:0:0:
120,296,73315,1,0,0:0:0:0:
56,228,73477,1,0,0:0:0:0:
80,140,73639,2,0,L|80:92,4,35,8|0|0|0|0,0:0|0:0|0:0|0:0|0:0,0:0:0:0:
196,72,74288,5,8,0:0:0:0:
328,112,74612,1,0,0:0:0:0:
460,152,74936,1,8,0:0:0:0:
400,276,75261,2,0,L|412:352,3,52.5000020027161,0|0|8|0,0:0|0:0|0:0|0:0,0:0:0:0:
364,200,76071,1,0,0:0:0:0:
364,200,76233,1,8,0:0:0:0:
244,132,76558,5,0,0:0:0:0:
244,132,76720,1,0,0:0:0:0:
112,172,77044,1,0,0:0:0:0:
112,172,77206,1,0,0:0:0:0:
168,296,77531,1,8,0:0:0:0:
168,296,77693,1,0,0:0:0:0:
296,248,78017,1,0,0:0:0:0:
296,248,78179,1,8,0:0:0:0:
428,288,78504,2,0,P|448:216|444:184,1,105.000004005432,0|8,0:0|0:0,0:0:0:0:
372,72,79152,5,0,0:0:0:0:
372,72,79315,1,0,0:0:0:0:
240,96,79639,1,0,0:0:0:0:
240,96,79801,1,0,0:0:0:0:
108,64,80125,1,8,0:0:0:0:
108,64,80288,1,0,0:0:0:0:
256,192,80450,12,0,81747,0:0:0:0:
344,72,82071,6,0,L|440:76,2,70,8|0|0,0:0|0:0|0:0,0:0:0:0:
164,52,82720,5,8,0:0:0:0:
76,68,82882,1,0,0:0:0:0:
132,140,83044,2,0,P|124:184|136:212,1,70
184,284,83369,1,8,0:0:0:0:
96,312,83531,1,0,0:0:0:0:
276,280,83855,6,0,L|352:280,1,70,0|8,0:0|0:0,0:0:0:0:
432,312,84179,2,0,P|432:264|416:220,1,70
340,84,84666,2,0,L|424:52,2,70,8|0|0,0:0|0:0|0:0,0:0:0:0:
156,80,85315,5,8,0:0:0:0:
156,80,85477,1,0,0:0:0:0:
68,96,85639,2,0,P|80:144|72:176,1,70
168,172,85963,2,0,L|236:200,1,70,8|0,0:0|0:0,0:0:0:0:
296,264,86288,2,0,P|320:224|320:168,1,70
396,144,86612,2,0,L|448:96,2,70,8|0|0,0:0|0:0|0:0,0:0:0:0:
228,72,87261,6,0,B|184:72|184:72|140:52,2,70,8|0|0,0:0|0:0|0:0,0:0:0:0:
152,236,87909,1,8,0:0:0:0:
152,236,88071,1,0,0:0:0:0:
220,296,88233,2,0,B|260:316|260:316|300:308,2,70,0|0|8,0:0|0:0|0:0,0:0:0:0:
276,224,88720,1,0,0:0:0:0:
428,124,89044,6,0,L|408:32,1,70,0|8,0:0|0:0,0:0:0:0:
328,88,89369,2,0,P|288:112|256:108,1,70
84,116,89855,2,0,L|103:48,2,70,8|0|0,0:0|0:0|0:0,0:0:0:0:
112,296,90504,1,8,0:0:0:0:
128,208,90666,1,0,0:0:0:0:
200,152,90828,2,0,P|252:152|276:144,1,70
272,236,91152,2,0,P|268:300|248:328,1,70,8|0,0:0|0:0,0:0:0:0:
180,268,91477,1,0,0:0:0:0:
92,280,91639,1,0,0:0:0:0:
76,192,91801,1,8,0:0:0:0:
164,172,91963,1,0,0:0:0:0:
204,92,92125,5,0,0:0:0:0:
384,136,92450,2,0,L|424:68,1,70,8|0,0:0|0:0,0:0:0:0:
419,75,92774,1,0,0:0:0:0:
424,256,93098,1,8,0:0:0:0:
424,256,93261,1,0,0:0:0:0:
348,308,93423,2,0,P|284:316|272:308,1,70
204,268,93747,2,0,P|164:252|120:268,1,70,8|0,0:0|0:0,0:0:0:0:
164,76,94233,6,0,L|84:56,2,70,0|8|0,0:0|0:0|0:0,0:0:0:0:
164,76,94720,1,0,0:0:0:0:
340,112,95044,2,0,L|412:92,1,70,8|0,0:0|0:0,0:0:0:0:
480,148,95369,1,0,0:0:0:0:
312,216,95693,2,0,L|408:184,1,70,8|0,0:0|0:0,0:0:0:0:
460,236,96017,1,0,0:0:0:0:
476,324,96179,1,0,0:0:0:0:
460,236,96342,1,8,0:0:0:0:
480,148,96504,1,0,0:0:0:0:
452,60,96666,2,0,P|396:72|364:64,1,70
300,36,96990,2,0,P|296:80|304:116,1,70,8|0,0:0|0:0,0:0:0:0:
376,160,97315,5,0,0:0:0:0:
312,332,97639,2,0,L|396:320,1,70,8|0,0:0|0:0,0:0:0:0:
381,322,97963,1,0,0:0:0:0:
200,292,98288,1,8,0:0:0:0:
200,292,98450,1,0,0:0:0:0:
224,204,98612,2,0,P|252:168|240:124,1,70
160,144,98936,2,0,P|132:180|144:224,1,70,8|0,0:0|0:0,0:0:0:0:
240,56,99423,6,0,L|171:40,2,70,0|8|0,0:0|0:0|0:0,0:0:0:0:
240,56,99909,1,0,0:0:0:0:
420,80,100234,2,0,L|412:160,1,70,8|0,0:0|0:0,0:0:0:0:
400,240,100558,1,0,0:0:0:0:
228,180,100882,2,0,L|320:204,1,70,8|0,0:0|0:0,0:0:0:0:
316,288,101206,1,0,0:0:0:0:
396,332,101369,1,0,0:0:0:0:
472,280,101531,1,8,0:0:0:0:
468,188,101693,1,0,0:0:0:0:
416,112,101855,2,0,L|416:52,8,35,0|0|0|0|8|0|0|0|0,0:0|0:0|0:0|0:0|0:0|0:0|0:0|0:0|0:0,0:0:0:0:
240,72,102828,5,4,0:0:0:0:
152,56,102990,1,0,0:0:0:0:
68,92,103152,2,0,P|64:144|80:180,1,70
68,252,103477,2,0,P|72:296|96:340,1,70,4|0,0:0|0:0,0:0:0:0:
160,276,103801,5,0,0:0:0:0:
236,224,103963,1,0,0:0:0:0:
320,264,104125,2,0,P|376:280|416:264,1,70,4|0,0:0|0:0,0:0:0:0:
364,188,104450,2,0,L|368:104,1,70
436,60,104774,2,0,P|400:32|364:36,1,70,4|0,0:0|0:0,0:0:0:0:
288,52,105098,5,0,0:0:0:0:
240,128,105261,1,0,0:0:0:0:
152,108,105423,2,0,P|144:164|148:204,1,70,4|0,0:0|0:0,0:0:0:0:
128,268,105747,2,0,L|208:296,1,70
276,332,106071,2,0,L|352:328,1,70,4|0,0:0|0:0,0:0:0:0:
428,288,106396,5,0,0:0:0:0:
356,232,106558,2,0,P|384:196|424:200,1,70,0|4,0:0|0:0,0:0:0:0:
440,108,106882,2,0,L|440:24,1,70
352,56,107206,2,0,L|276:36,2,70,0|4|0,0:0|0:0|0:0,0:0:0:0:
352,56,107693,5,0,0:0:0:0:
320,140,107855,1,0,0:0:0:0:
232,112,108017,2,0,B|232:168|232:168|256:200,1,70,4|0,0:0|0:0,0:0:0:0:
292,256,108342,2,0,L|208:288,1,70
152,332,108666,2,0,B|136:288|136:288|144:248,1,70,4|0,0:0|0:0,0:0:0:0:
200,196,108990,5,0,0:0:0:0:
112,176,109152,1,0,0:0:0:0:
172,108,109315,2,0,B|224:104|224:104|256:120,1,70,4|0,0:0|0:0,0:0:0:0:
316,64,109639,2,0,B|340:112|340:112|336:152,1,70
428,128,109963,2,0,L|408:220,1,70,4|0,0:0|0:0,0:0:0:0:
356,268,110288,5,0,0:0:0:0:
332,180,110450,1,0,0:0:0:0:
248,220,110612,2,0,P|216:232|172:228,1,70,4|0,0:0|0:0,0:0:0:0:
100,272,110936,2,0,P|100:216|112:188,1,70
176,144,111261,2,0,L|204:56,1,70,4|0,0:0|0:0,0:0:0:0:
280,36,111585,5,0,0:0:0:0:
364,76,111747,2,0,L|440:72,2,70,0|4|0,0:0|0:0|0:0,0:0:0:0:
396,160,112234,2,0,L|484:156,1,70
428,240,112558,1,4,0:0:0:0:
428,240,112882,1,8,0:0:0:0:
112,52,123261,6,0,L|96:140,1,70
148,196,123585,2,0,P|100:216|80:252,1,70,8|0,0:0|0:0,0:0:0:0:
160,288,123909,1,0,0:0:0:0:
332,224,124234,1,8,0:0:0:0:
240,232,124396,1,0,0:0:0:0:
160,288,124558,1,0,0:0:0:0:
72,260,124720,2,0,B|96:200|144:208,1,70,0|8,0:0|0:0,0:0:0:0:
108,120,125044,1,0,0:0:0:0:
280,64,125369,6,0,B|328:56|328:56|356:68,1,70,0|8,0:0|0:0,0:0:0:0:
347,64,125693,1,0,0:0:0:0:
416,232,126017,6,0,B|368:240|368:240|340:228,1,70,0|8,0:0|0:0,0:0:0:0:
348,231,126342,1,0,0:0:0:0:
192,140,126666,6,0,B|240:132|240:132|268:144,1,70,0|8,0:0|0:0,0:0:0:0:
259,140,126990,1,0,0:0:0:0:
228,224,127152,2,0,P|220:320|220:320,1,70
140,332,127477,2,0,L|48:316,1,70,8|0,0:0|0:0,0:0:0:0:
124,248,127801,2,0,B|112:196|156:160,1,70
216,140,128125,2,0,L|232:108,4,35,8|0|0|0|0,0:0|0:0|0:0|0:0|0:0,0:0:0:0:
396,104,128774,6,0,B|404:156|404:156|396:192,1,70,8|0,0:0|0:0,0:0:0:0:
344,244,129098,2,0,B|396:264|396:264|436:256,1,70
410,261,129423,1,8,0:0:0:0:
476,200,129585,1,0,0:0:0:0:
424,124,129747,1,0,0:0:0:0:
340,156,129909,2,0,P|292:168|260:156,1,70,0|8,0:0|0:0,0:0:0:0:
216,92,130234,1,0,0:0:0:0:
44,156,130558,6,0,L|64:80,1,70,0|8,0:0|0:0,0:0:0:0:
61,88,130882,1,0,0:0:0:0:
132,256,131207,2,0,L|152:332,1,70,0|8,0:0|0:0,0:0:0:0:
149,323,131531,1,0,0:0:0:0:
208,152,131855,2,0,L|240:64,1,70,0|8,0:0|0:0,0:0:0:0:
231,86,132179,1,0,0:0:0:0:
320,112,132342,6,0,P|364:124|412:104,1,70
468,80,132666,2,0,L|464:164,1,70,8|0,0:0|0:0,0:0:0:0:
480,240,132990,2,0,B|464:288|464:288|420:312,1,70
360,268,133315,2,0,L|300:264,4,35,8|0|0|0|0,0:0|0:0|0:0|0:0|0:0,0:0:0:0:
280,104,133963,6,0,L|204:128,1,70,8|0,0:0|0:0,0:0:0:0:
213,125,134288,1,0,0:0:0:0:
72,240,134612,2,0,P|80:288|124:316,1,70,8|0,0:0|0:0,0:0:0:0:
164,244,134936,1,0,0:0:0:0:
240,296,135098,2,0,L|320:280,1,70,0|8,0:0|0:0,0:0:0:0:
392,316,135423,1,0,0:0:0:0:
432,140,135747,6,0,L|448:48,2,70,0|8|0,0:0|0:0|0:0,0:0:0:0:
256,96,136396,2,0,B|200:88|200:88|192:64,2,70,0|8|0,0:0|0:0|0:0,0:0:0:0:
384,228,137044,2,0,B|392:288|392:288|408:308,2,70,0|8|0,0:0|0:0|0:0,0:0:0:0:
304,184,137531,2,0,L|208:216,1,70
164,260,137855,2,0,P|144:228|156:172,1,70,8|0,0:0|0:0,0:0:0:0:
56,172,138179,2,0,L|84:84,1,70
148,48,138504,2,0,L|208:44,4,35,8|0|0|0|0,0:0|0:0|0:0|0:0|0:0,0:0:0:0:
328,68,139152,6,0,B|364:80|364:80|396:68,1,70,8|0,0:0|0:0,0:0:0:0:
452,140,139477,2,0,B|428:152|428:152|452:200,1,70
424,280,139801,1,8,0:0:0:0:
424,280,139963,1,0,0:0:0:0:
340,244,140125,1,0,0:0:0:0:
252,264,140288,2,0,B|208:284|172:256,1,70,0|8,0:0|0:0,0:0:0:0:
216,180,140612,1,0,0:0:0:0:
352,60,140936,6,0,L|432:40,1,70,0|8,0:0|0:0,0:0:0:0:
468,120,141261,1,0,0:0:0:0:
276,124,141585,2,0,L|184:100,1,70,0|8,0:0|0:0,0:0:0:0:
144,168,141909,1,0,0:0:0:0:
320,220,142234,2,0,L|404:200,1,70,0|8,0:0|0:0,0:0:0:0:
444,276,142558,1,0,0:0:0:0:
360,316,142720,6,0,B|316:328|316:328|284:312,1,70
204,320,143044,2,0,P|208:276|232:244,1,70,8|0,0:0|0:0,0:0:0:0:
308,224,143369,2,0,P|268:180|232:176,1,70
168,176,143693,2,0,L|124:172,4,35,8|0|0|0|0,0:0|0:0|0:0|0:0|0:0,0:0:0:0:
300,48,144342,6,0,B|340:32|340:32|392:48,1,70,8|0,0:0|0:0,0:0:0:0:
456,32,144666,2,0,B|456:68|456:68|440:104,1,70
360,136,144990,2,0,L|384:212,1,70,8|0,0:0|0:0,0:0:0:0:
440,272,145315,1,0,0:0:0:0:
372,332,145477,2,0,P|324:344|288:320,1,70,0|8,0:0|0:0,0:0:0:0:
220,304,145801,1,0,0:0:0:0:
256,128,146125,5,0,0:0:0:0:
344,104,146288,2,0,L|432:80,1,70,8|0,0:0|0:0,0:0:0:0:
240,148,146774,1,0,0:0:0:0:
320,188,146936,2,0,L|400:220,1,70,8|0,0:0|0:0,0:0:0:0:
212,160,147423,1,0,0:0:0:0:
244,244,147585,2,0,L|268:324,1,70,8|0,0:0|0:0,0:0:0:0:
172,304,147909,6,0,P|156:248|168:216,1,70
116,156,148234,2,0,L|136:72,1,70,8|0,0:0|0:0,0:0:0:0:
224,72,148558,2,0,L|308:68,1,70
376,104,148882,2,0,L|424:104,4,35,8|0|0|0|0,0:0|0:0|0:0|0:0|0:0,0:0:0:0:
408,284,149531,6,0,L|308:296,1,70,8|0,0:0|0:0,0:0:0:0:
248,300,149855,2,0,L|148:308,1,70
96,264,150179,1,8,0:0:0:0:
96,264,150342,1,0,0:0:0:0:
172,216,150504,1,0,0:0:0:0:
92,172,150666,2,0,P|84:128|96:96,1,70,0|8,0:0|0:0,0:0:0:0:
168,56,150990,1,0,0:0:0:0:
344,108,151315,5,0,0:0:0:0:
372,196,151477,2,0,L|400:288,1,70,8|0,0:0|0:0,0:0:0:0:
324,96,151963,1,0,0:0:0:0:
288,180,152125,2,0,L|252:252,1,70,8|0,0:0|0:0,0:0:0:0:
304,68,152612,1,0,0:0:0:0:
224,112,152774,2,0,L|136:164,1,70,8|0,0:0|0:0,0:0:0:0:
76,128,153098,6,0,P|80:184|88:200,1,70
100,288,153423,2,0,L|176:304,1,70,8|0,0:0|0:0,0:0:0:0:
252,268,153747,1,0,0:0:0:0:
252,268,153909,1,0,0:0:0:0:
336,304,154071,2,0,L|376:308,4,35,8|0|0|0|0,0:0|0:0|0:0|0:0|0:0,0:0:0:0:
440,216,154720,5,8,0:0:0:0:
312,172,155044,1,0,0:0:0:0:
184,128,155369,1,8,0:0:0:0:
252,244,155693,2,0,L|236:304,3,52.5000020027161,0|0|8|0,0:0|0:0|0:0|0:0,0:0:0:0:
104,324,156504,1,0,0:0:0:0:
104,324,156666,1,8,0:0:0:0:
132,192,156990,5,0,0:0:0:0:
132,192,157152,1,0,0:0:0:0:
88,64,157477,1,0,0:0:0:0:
88,64,157639,1,0,0:0:0:0:
220,104,157963,1,8,0:0:0:0:
220,104,158125,1,0,0:0:0:0:
128,204,158450,1,0,0:0:0:0:
128,204,158612,1,8,0:0:0:0:
200,320,158936,2,0,P|272:332|324:320,1,105.000004005432,0|8,0:0|0:0,0:0:0:0:
404,236,159585,5,0,0:0:0:0:
404,236,159747,1,0,0:0:0:0:
392,100,160071,1,0,0:0:0:0:
392,100,160234,1,0,0:0:0:0:
272,164,160558,1,8,0:0:0:0:
272,164,160720,1,0,0:0:0:0:
256,192,160882,12,0,162179,0:0:0:0:
124,192,162504,6,0,L|112:116,1,70,8|0,0:0|0:0,0:0:0:0:
172,52,162828,1,0,0:0:0:0:
348,96,163152,2,0,L|440:124,1,70,8|0,0:0|0:0,0:0:0:0:
464,192,163477,2,0,B|476:248|468:288,1,70
384,236,163801,1,8,0:0:0:0:
416,320,163963,1,0,0:0:0:0:
236,300,164288,6,0,L|152:304,2,70,0|8|0,0:0|0:0|0:0,0:0:0:0:
300,236,164774,1,0,0:0:0:0:
120,220,165098,2,0,L|220:216,1,70,8|0,0:0|0:0,0:0:0:0:
244,144,165423,1,0,0:0:0:0:
64,132,165747,2,0,L|148:128,1,70,8|0,0:0|0:0,0:0:0:0:
204,68,166071,2,0,P|244:56|280:64,1,70
360,32,166396,2,0,B|380:40|380:40|376:88,1,70,8|0,0:0|0:0,0:0:0:0:
320,160,166721,1,0,0:0:0:0:
408,176,166882,1,0,0:0:0:0:
416,268,167044,1,8,0:0:0:0:
336,308,167206,1,0,0:0:0:0:
276,240,167368,5,0,0:0:0:0:
100,288,167693,2,0,L|196:260,1,70,8|0,0:0|0:0,0:0:0:0:
200,184,168017,1,0,0:0:0:0:
332,60,168342,2,0,L|244:108,1,70,8|0,0:0|0:0,0:0:0:0:
180,92,168666,1,0,0:0:0:0:
116,156,168828,2,0,P|108:212|116:240,1,70,0|8,0:0|0:0,0:0:0:0:
192,184,169152,1,0,0:0:0:0:
372,144,169477,6,0,L|448:168,2,70,0|8|0,0:0|0:0|0:0,0:0:0:0:
304,84,169963,1,0,0:0:0:0:
140,168,170288,2,0,L|116:88,1,70,8|0,0:0|0:0,0:0:0:0:
188,40,170612,1,0,0:0:0:0:
248,212,170936,2,0,L|224:112,1,70,8|0,0:0|0:0,0:0:0:0:
304,84,171261,2,0,B|344:72|344:72|396:80,1,70
348,164,171585,2,0,L|424:156,1,70,8|0,0:0|0:0,0:0:0:0:
388,244,171909,2,0,B|408:256|408:256|464:244,1,70
428,336,172234,1,8,0:0:0:0:
336,324,172396,1,0,0:0:0:0:
248,344,172558,5,0,0:0:0:0:
68,320,172882,2,0,L|96:220,1,70,8|0,0:0|0:0,0:0:0:0:
56,168,173207,1,0,0:0:0:0:
196,52,173531,2,0,B|248:64|248:64|292:40,1,70,8|0,0:0|0:0,0:0:0:0:
352,36,173855,2,0,P|352:72|332:120,1,70
325,191,174180,2,0,P|292:180|268:156,1,70,8|0,0:0|0:0,0:0:0:0:
292,336,174666,6,0,L|392:332,2,70,0|8|0,0:0|0:0|0:0,0:0:0:0:
204,308,175152,1,0,0:0:0:0:
68,188,175477,2,0,P|64:236|72:288,2,70,8|0|0,0:0|0:0|0:0,0:0:0:0:
204,68,176125,6,0,P|168:88|144:128,1,70,8|0,0:0|0:0,0:0:0:0:
236,148,176450,2,0,P|284:128|300:92,1,70
380,88,176774,1,8,0:0:0:0:
380,88,176936,1,0,0:0:0:0:
456,140,177098,2,0,L|452:224,1,70
412,292,177423,1,8,0:0:0:0:
412,292,177585,1,0,0:0:0:0:
328,260,177747,5,0,0:0:0:0:
152,300,178071,2,0,B|200:304|200:304|228:280,1,70,8|0,0:0|0:0,0:0:0:0:
172,212,178396,1,0,0:0:0:0:
100,44,178720,2,0,L|172:56,1,70,8|0,0:0|0:0,0:0:0:0:
256,88,179044,2,0,L|348:76,1,70
408,36,179369,2,0,P|420:88|412:124,1,70,8|0,0:0|0:0,0:0:0:0:
408,284,179855,6,0,L|456:336,2,70,0|8|0,0:0|0:0|0:0,0:0:0:0:
316,296,180342,1,0,0:0:0:0:
148,228,180666,2,0,L|128:308,1,70,8|0,0:0|0:0,0:0:0:0:
48,328,180990,1,0,0:0:0:0:
68,148,181315,2,0,L|88:80,1,70,8|0,0:0|0:0,0:0:0:0:
168,40,181639,1,0,0:0:0:0:
244,92,181801,1,0,0:0:0:0:
328,60,181963,2,0,B|372:72|372:72|404:64,1,70,8|0,0:0|0:0,0:0:0:0:
460,132,182288,2,0,L|456:180,8,35,0|0|0|0|8|0|0|0|0,0:0|0:0|0:0|0:0|0:0|0:0|0:0|0:0|0:0,0:0:0:0:
372,152,183098,5,0,0:0:0:0:
292,192,183261,2,0,L|212:224,1,70,8|0,0:0|0:0,0:0:0:0:
140,196,183585,1,0,0:0:0:0:
140,196,183747,1,0,0:0:0:0:
52,224,183909,1,8,0:0:0:0:
52,224,184071,1,0,0:0:0:0:
72,136,184234,6,0,P|88:76|88:48,1,70
176,52,184558,2,0,L|268:52,1,70,8|0,0:0|0:0,0:0:0:0:
332,80,184882,1,0,0:0:0:0:
332,80,185044,1,0,0:0:0:0:
420,56,185207,1,8,0:0:0:0:
420,56,185369,1,0,0:0:0:0:
400,144,185531,2,0,B|408:188|408:188|400:240,1,70
452,292,185855,2,0,B|412:308|412:308|360:292,1,70,8|0,0:0|0:0,0:0:0:0:
304,260,186180,1,0,0:0:0:0:
304,260,186342,1,0,0:0:0:0:
296,352,186504,1,8,0:0:0:0:
296,352,186666,1,0,0:0:0:0:
224,296,186828,6,0,P|164:300|136:280,1,70
192,212,187152,2,0,L|168:136,1,70,8|0,0:0|0:0,0:0:0:0:
80,128,187477,1,0,0:0:0:0:
148,68,187639,1,0,0:0:0:0:
148,68,187720,1,0,0:0:0:0:
148,68,187801,1,8,0:0:0:0:
236,84,187963,1,0,0:0:0:0:
324,60,188125,6,0,L|400:36,1,70
312,84,188450,2,0,L|392:88,1,70,8|0,0:0|0:0,0:0:0:0:
292,108,188774,2,0,L|372:136,1,70
268,128,189098,2,0,L|320:192,1,70,8|0,0:0|0:0,0:0:0:0:
232,228,189423,6,0,L|244:144,1,70
200,240,189747,2,0,L|176:168,1,70,8|0,0:0|0:0,0:0:0:0:
164,264,190071,2,0,L|116:200,1,70
140,296,190396,2,0,L|72:280,1,70,8|0,0:0|0:0,0:0:0:0:
88,192,190720,6,0,L|156:244,1,70
92,160,191044,2,0,L|164:164,1,70,8|0,0:0|0:0,0:0:0:0:
76,132,191369,2,0,L|136:96,1,70
48,112,191693,2,0,L|60:40,1,70,8|0,0:0|0:0,0:0:0:0:
59,42,192017,1,0,0:0:0:0:
256,192,192180,12,0,193315,0:0:0:0:
256,188,202071,5,0,0:0:0:0:
256,188,202234,1,0,0:0:0:0:
284,100,202396,2,0,L|196:100,1,70
128,72,202720,2,0,L|144:156,1,70
116,228,203044,2,0,P|160:228|188:212,1,70
256,272,203369,2,0,L|264:184,1,70
368,152,203693,5,0,0:0:0:0:
180,84,204017,2,0,L|88:56,2,77.0000023498536,8|0|0,0:0|0:0|0:0,0:0:0:0:
380,68,204666,1,8,0:0:0:0:
360,168,204828,1,0,0:0:0:0:
456,140,204990,1,0,0:0:0:0:
464,240,205153,2,0,P|464:288|452:316,1,77.0000023498536,0|8,0:0|0:0,0:0:0:0:
360,344,205477,1,0,0:0:0:0:
168,292,205801,6,0,L|244:312,1,77.0000023498536,0|8,0:0|0:0,0:0:0:0:
320,248,206125,1,0,0:0:0:0:
320,248,206288,1,0,0:0:0:0:
128,196,206612,2,0,L|152:96,1,77.0000023498536,8|0,0:0|0:0,0:0:0:0:
232,72,206936,1,0,0:0:0:0:
388,196,207261,2,0,L|312:212,1,77.0000023498536,8|0,0:0|0:0,0:0:0:0:
216,184,207585,2,0,P|216:220|232:268,1,77.0000023498536
312,308,207909,1,8,0:0:0:0:
312,308,208071,1,0,0:0:0:0:
316,208,208234,2,0,L|392:212,1,77.0000023498536
480,164,208558,1,8,0:0:0:0:
436,76,208720,1,0,0:0:0:0:
336,56,208882,5,0,0:0:0:0:
140,96,209207,2,0,L|248:76,1,77.0000023498536,8|0,0:0|0:0,0:0:0:0:
292,144,209531,1,0,0:0:0:0:
96,192,209855,2,0,L|196:168,1,77.0000023498536,8|0,0:0|0:0,0:0:0:0:
252,232,210180,1,0,0:0:0:0:
220,328,210342,2,0,P|260:336|320:300,1,77.0000023498536,0|8,0:0|0:0,0:0:0:0:
344,240,210666,1,0,0:0:0:0:
428,60,210990,6,0,L|392:140,1,77.0000023498536,0|8,0:0|0:0,0:0:0:0:
304,88,211315,1,0,0:0:0:0:
240,12,211477,1,0,0:0:0:0:
64,108,211801,2,0,P|56:160|64:200,1,77.0000023498536,8|0,0:0|0:0,0:0:0:0:
152,148,212125,1,0,0:0:0:0:
116,344,212450,2,0,B|176:320|176:320|204:340,1,77.0000023498536,8|0,0:0|0:0,0:0:0:0:
288,324,212774,6,0,P|272:268|260:256,1,77.0000023498536
160,244,213098,2,0,L|176:148,1,77.0000023498536,8|0,0:0|0:0,0:0:0:0:
112,88,213423,2,0,L|224:76,1,77.0000023498536
284,112,213747,1,8,0:0:0:0:
376,76,213909,1,0,0:0:0:0:
472,104,214071,5,0,0:0:0:0:
444,304,214396,2,0,L|456:208,1,77.0000023498536,8|0,0:0|0:0,0:0:0:0:
372,156,214720,1,0,0:0:0:0:
160,184,215044,2,0,P|116:200|76:184,1,77.0000023498536,8|0,0:0|0:0,0:0:0:0:
116,88,215369,1,0,0:0:0:0:
224,96,215531,2,0,L|316:72,1,77.0000023498536,0|8,0:0|0:0,0:0:0:0:
368,160,215855,1,0,0:0:0:0:
232,328,216180,6,0,L|324:304,1,77.0000023498536,0|8,0:0|0:0,0:0:0:0:
412,328,216504,1,0,0:0:0:0:
380,224,216666,1,0,0:0:0:0:
272,36,216990,2,0,L|296:132,1,77.0000023498536,8|0,0:0|0:0,0:0:0:0:
284,220,217315,1,0,0:0:0:0:
132,68,217639,2,0,L|60:40,1,77.0000023498536,8|0,0:0|0:0,0:0:0:0:
36,144,217963,1,0,0:0:0:0:
36,144,218125,1,0,0:0:0:0:
132,192,218288,1,8,0:0:0:0:
132,192,218450,1,0,0:0:0:0:
28,224,218612,1,0,0:0:0:0:
120,280,218774,2,0,P|176:272|200:248,1,77.0000023498536,0|8,0:0|0:0,0:0:0:0:
232,160,219098,1,0,0:0:0:0:
296,248,219261,5,0,0:0:0:0:
468,120,219585,1,8,0:0:0:0:
456,232,219747,1,0,0:0:0:0:
372,164,219909,1,0,0:0:0:0:
172,76,220234,1,8,0:0:0:0:
180,184,220396,1,0,0:0:0:0:
84,136,220558,1,0,0:0:0:0:
92,244,220720,2,0,B|92:316|92:316|112:328,1,77.0000023498536,0|8,0:0|0:0,0:0:0:0:
196,280,221044,1,0,0:0:0:0:
408,320,221369,5,0,0:0:0:0:
408,320,221531,1,8,0:0:0:0:
376,216,221693,1,0,0:0:0:0:
376,216,221855,1,0,0:0:0:0:
196,96,222180,2,0,L|272:132,1,77.0000023498536
364,80,222504,1,0,0:0:0:0:
176,184,222828,2,0,L|256:224,1,77.0000023498536,8|0,0:0|0:0,0:0:0:0:
348,192,223153,1,0,0:0:0:0:
448,228,223315,1,0,0:0:0:0:
412,328,223477,1,8,0:0:0:0:
312,284,223639,1,0,0:0:0:0:
212,328,223801,2,0,L|164:332,8,38.5000011749268,0|0|0|0|8|0|0|0|0,0:0|0:0|0:0|0:0|0:0|0:0|0:0|0:0|0:0,0:0:0:0:
132,168,224774,6,0,L|132:80,1,70,4|0,0:0|0:0,0:0:0:0:
156,184,225098,2,0,L|204:112,1,70
172,216,225423,2,0,L|248:200,1,70,4|0,0:0|0:0,0:0:0:0:
316,148,225747,5,0,0:0:0:0:
404,176,225909,1,0,0:0:0:0:
336,236,226071,2,0,P|340:296|320:328,1,70,4|0,0:0|0:0,0:0:0:0:
252,268,226396,2,0,P|244:224|260:188,1,70
324,144,226720,2,0,L|308:60,1,70,4|0,0:0|0:0,0:0:0:0:
232,32,227044,5,0,0:0:0:0:
232,32,227207,1,0,0:0:0:0:
152,76,227369,2,0,L|76:104,1,70,4|0,0:0|0:0,0:0:0:0:
96,192,227693,2,0,B|96:240|96:240|64:264,1,70
60,344,228017,2,0,P|120:336|144:308,1,70,4|0,0:0|0:0,0:0:0:0:
188,264,228342,5,0,0:0:0:0:
268,304,228504,2,0,L|352:292,1,70,0|4,0:0|0:0,0:0:0:0:
428,312,228828,2,0,L|412:224,1,70
440,156,229153,2,0,L|352:168,2,70,0|4|0,0:0|0:0|0:0,0:0:0:0:
384,84,229639,5,0,0:0:0:0:
300,48,229801,1,0,0:0:0:0:
216,80,229963,2,0,P|156:68|128:84,1,70,4|0,0:0|0:0,0:0:0:0:
160,160,230288,2,0,L|136:232,1,70
64,276,230612,2,0,P|92:304|140:308,1,70,4|0,0:0|0:0,0:0:0:0:
208,284,230936,5,0,0:0:0:0:
288,324,231098,1,0,0:0:0:0:
380,312,231261,2,0,L|416:228,1,70,4|0,0:0|0:0,0:0:0:0:
472,184,231585,2,0,P|432:160|392:160,1,70
328,196,231909,2,0,L|320:104,1,70,4|0,0:0|0:0,0:0:0:0:
372,48,232234,5,0,0:0:0:0:
280,44,232396,1,0,0:0:0:0:
188,32,232558,2,0,P|184:76|204:112,1,70,4|0,0:0|0:0,0:0:0:0:
104,116,232882,2,0,P|132:160|160:184,1,70
64,220,233207,2,0,L|140:272,1,70,4|0,0:0|0:0,0:0:0:0:
164,340,233531,5,0,0:0:0:0:
252,312,233693,2,0,L|348:336,1,70,0|4,0:0|0:0,0:0:0:0:
404,296,234017,1,0,0:0:0:0:
328,244,234180,2,0,P|360:204|408:204,2,70,0|0|4,0:0|0:0|0:0,0:0:0:0:
416,84,234828,6,0,L|336:64,1,70,8|0,0:0|0:0,0:0:0:0:
256,76,235153,2,0,L|160:96,1,70,12|0,0:0|0:0,0:0:0:0:
100,72,235477,2,0,L|112:164,1,70,8|0,0:0|0:0,0:0:0:0:
128,232,235801,2,0,L|104:312,1,70,12|0,0:0|0:0,0:0:0:0:
200,292,236126,2,0,B|248:304|248:304|288:284,1,70,8|0,0:0|0:0,0:0:0:0:
352,328,236450,2,0,B|364:288|364:288|344:236,1,70,12|0,0:0|0:0,0:0:0:0:
276,216,236774,2,0,B|272:176|272:176|292:148,1,70,8|0,0:0|0:0,0:0:0:0:
376,176,237098,2,0,B|416:188|416:188|448:172,1,70,12|0,0:0|0:0,0:0:0:0:
400,96,237423,5,8,0:0:0:0:
400,96,237585,1,0,0:0:0:0:
316,60,237747,1,12,0:0:0:0:
316,60,237909,1,0,0:0:0:0:
236,104,238071,1,8,0:0:0:0:
236,104,238234,1,0,0:0:0:0:
152,68,238396,1,12,0:0:0:0:
152,68,238558,1,0,0:0:0:0:
68,100,238720,5,8,0:0:0:0:
128,168,238882,2,0,P|128:224|112:248,1,70,0|12,0:0|0:0,0:0:0:0:
48,284,239207,1,0,0:0:0:0:
128,324,239369,2,0,P|180:340|208:332,1,70,8|0,0:0|0:0,0:0:0:0:
272,292,239693,2,0,L|352:312,1,70,12|0,0:0|0:0,0:0:0:0:
420,268,240017,5,8,0:0:0:0:
356,204,240180,1,0,0:0:0:0:
356,204,240261,1,0,0:0:0:0:
356,204,240342,2,0,P|364:160|352:128,1,70,12|0,0:0|0:0,0:0:0:0:
268,120,240666,2,0,P|264:76|240:60,1,70,8|0,0:0|0:0,0:0:0:0:
160,96,240990,2,0,L|80:72,1,70,12|0,0:0|0:0,0:0:0:0:
52,160,241315,5,8,0:0:0:0:
136,192,241477,1,0,0:0:0:0:
136,192,241558,1,0,0:0:0:0:
136,192,241639,2,0,P|128:232|132:260,1,70,12|0,0:0|0:0,0:0:0:0:
72,328,241963,2,0,P|132:348|164:340,1,70,8|0,0:0|0:0,0:0:0:0:
216,304,242288,2,0,L|316:316,1,70,12|0,0:0|0:0,0:0:0:0:
368,272,242612,5,8,0:0:0:0:
452,308,242774,1,0,0:0:0:0:
452,308,242855,1,0,0:0:0:0:
452,308,242936,2,0,P|460:244|452:216,1,70,12|0,0:0|0:0,0:0:0:0:
472,148,243261,2,0,L|376:124,1,70,8|0,0:0|0:0,0:0:0:0:
320,164,243585,2,0,P|280:156|260:116,1,70,12|0,0:0|0:0,0:0:0:0:
332,72,243909,5,8,0:0:0:0:
248,40,244071,1,0,0:0:0:0:
230,35,244153,1,0,0:0:0:0:
213,30,244234,1,4,0:0:0:0:
136,78,244396,1,0,0:0:0:0:
50,46,244558,1,0,0:0:0:0:
256,192,244720,12,0,245855,0:0:0:0:
