osu file format v14

[General]
AudioFilename: .mp3
AudioLeadIn: 0
PreviewTime: 78504
Countdown: 0
SampleSet: Normal
StackLeniency: 0.7
Mode: 0
LetterboxInBreaks: 0
WidescreenStoryboard: 0

[Editor]
DistanceSpacing: 1
BeatDivisor: 4
GridSize: 8
TimelineZoom: 1.2

[Metadata]
Title:Quan Yu Tian Xia
TitleUnicode:权御天下
Artist:Wu Gui
ArtistUnicode:乌龟
Creator:justatrip
Version:Normal
Source:
Tags:洛天依 Nardoxyribonucleic
BeatmapID:772678
BeatmapSetID:350481

[Difficulty]
HPDrainRate:5
CircleSize:3
OverallDifficulty:5
ApproachRate:4
SliderMultiplier:1.1
SliderTickRate:1

[Events]
//Background and Video events
0,0,"164007q01nnc91vhe9nhhe.png",0,0
//Break Periods
2,103028,111562
2,225623,233508
//Storyboard Layer 0 (Background)
//Storyboard Layer 1 (Fail)
//Storyboard Layer 2 (Pass)
//Storyboard Layer 3 (Foreground)
//Storyboard Sound Samples

[TimingPoints]
1315,324.324324324324,4,3,1,60,1,0
1639,-100,4,2,1,80,0,0
2612,-100,4,3,1,60,0,0
2936,-100,4,2,1,80,0,0
3747,-100,4,3,1,60,0,0
4233,-100,4,2,1,80,0,0
5206,-100,4,3,1,60,0,0
6828,-100,4,2,1,80,0,0
7801,-100,4,3,1,60,0,0
8125,-100,4,2,1,80,0,0
8774,-100,4,3,1,60,0,0
9423,-100,4,2,1,80,0,0
10071,-100,4,3,1,60,0,0
10720,-100,4,1,0,80,0,0
11693,-100,4,1,0,80,0,1
20774,-100,4,2,1,60,0,1
22071,-100,4,1,0,70,0,0
22396,-100,4,3,1,60,0,0
27260,-100,4,1,0,70,0,0
27585,-100,4,3,1,60,0,0
31477,-100,4,1,0,70,0,0
31801,-100,4,3,1,60,0,0
32450,-100,4,1,0,70,0,0
32774,-100,4,3,1,60,0,0
33423,-100,4,1,0,70,0,0
33747,-100,4,3,1,60,0,0
34071,-100,4,1,0,70,0,0
34396,-100,4,3,1,60,0,0
34720,-100,4,1,0,70,0,0
35044,-100,4,3,1,60,0,0
35369,-100,4,1,0,70,0,0
35693,-100,4,3,1,60,0,0
36017,-100,4,1,0,70,0,0
36342,-100,4,3,1,60,0,0
36666,-100,4,1,0,70,0,0
36990,-100,4,3,1,60,0,0
37314,-100,4,1,0,70,0,0
37963,-100,4,1,0,70,0,0
38287,-100,4,3,1,60,0,0
38612,-100,4,1,0,70,0,0
38936,-100,4,3,1,60,0,0
39260,-100,4,1,0,70,0,0
39585,-100,4,3,1,60,0,0
39909,-100,4,1,0,70,0,0
40233,-100,4,3,1,60,0,0
40558,-100,4,1,0,70,0,0
40882,-100,4,3,1,60,0,0
41206,-100,4,1,0,70,0,0
41531,-100,4,3,1,60,0,0
41855,-100,4,1,0,70,0,0
42179,-100,4,3,1,60,0,0
42504,-100,4,1,0,70,0,0
44125,-100,4,3,1,60,0,0
44450,-100,4,1,0,70,0,0
44774,-100,4,3,1,60,0,0
45098,-100,4,1,0,70,0,0
45423,-100,4,3,1,60,0,0
45747,-100,4,1,0,70,0,0
46071,-100,4,3,1,60,0,0
46396,-100,4,1,0,70,0,0
46720,-100,4,3,1,60,0,0
47044,-100,4,1,0,70,0,0
47369,-100,4,3,1,60,0,0
48017,-100,4,1,0,70,0,0
48666,-100,4,3,1,60,0,0
48990,-100,4,1,0,70,0,0
49314,-100,4,3,1,60,0,0
49639,-100,4,1,0,70,0,0
49963,-100,4,3,1,60,0,0
50287,-100,4,1,0,70,0,0
50612,-100,4,3,1,60,0,0
50936,-100,4,1,0,70,0,0
51260,-100,4,3,1,60,0,0
51585,-100,4,1,0,70,0,0
51909,-100,4,1,0,70,0,0
53531,-100,4,1,0,70,0,0
53855,-100,4,3,1,60,0,0
54179,-100,4,1,0,70,0,0
54504,-100,4,3,1,60,0,0
54828,-100,4,1,0,70,0,0
55152,-100,4,3,1,60,0,0
55477,-100,4,1,0,70,0,0
55801,-100,4,3,1,60,0,0
56125,-100,4,1,0,70,0,0
56450,-100,4,3,1,60,0,0
56774,-100,4,1,0,70,0,0
57098,-100,4,3,1,60,0,0
57423,-100,4,1,0,70,0,0
57747,-100,4,3,1,60,0,0
58071,-100,4,1,0,70,0,0
58396,-100,4,3,1,60,0,0
59369,-100,4,1,0,70,0,0
59693,-100,4,3,1,60,0,0
60017,-100,4,1,0,70,0,0
60342,-100,4,3,1,60,0,0
60666,-100,4,1,0,70,0,0
60990,-100,4,3,1,60,0,0
61314,-100,4,1,0,70,0,0
61639,-100,4,3,1,60,0,0
61963,-100,4,1,0,70,0,0
62287,-100,4,3,1,60,0,0
62612,-100,4,1,0,70,0,0
62936,-100,4,3,1,60,0,0
63260,-100,4,1,0,70,0,0
63585,-100,4,3,1,60,0,0
64558,-100,4,1,0,70,0,0
64882,-100,4,3,1,60,0,0
65206,-100,4,1,0,70,0,0
65531,-100,4,3,1,60,0,0
65855,-100,4,1,0,70,0,0
66179,-100,4,3,1,60,0,0
66504,-100,4,1,0,70,0,0
66828,-100,4,3,1,60,0,0
67152,-100,4,1,0,70,0,0
67477,-100,4,3,1,60,0,0
67801,-100,4,1,0,70,0,0
68125,-100,4,3,1,60,0,0
68450,-100,4,1,0,70,0,0
69423,-100,4,3,1,60,0,0
69747,-100,4,1,0,70,0,0
70071,-100,4,3,1,60,0,0
70396,-100,4,1,0,70,0,0
70720,-100,4,3,1,60,0,0
71044,-100,4,1,0,70,0,0
71369,-100,4,3,1,60,0,0
71693,-100,4,1,0,70,0,0
72017,-100,4,3,1,60,0,0
72342,-100,4,1,0,70,0,0
72666,-100,4,3,1,60,0,0
72990,-100,4,1,0,70,0,0
73314,-100,4,3,1,60,0,0
73963,-100,4,1,0,70,0,0
74287,-100,4,3,1,60,0,0
74936,-100,4,1,0,80,0,0
75260,-100,4,3,1,60,0,0
75585,-100,4,1,0,80,0,0
75909,-100,4,3,1,60,0,0
76233,-100,4,1,0,80,0,0
76558,-100,4,3,1,60,0,0
77531,-100,4,1,0,80,0,0
78504,-100,4,3,1,60,0,0
78828,-100,4,1,0,80,0,0
79152,-100,4,3,1,60,0,0
79477,-100,4,1,0,80,0,0
79801,-100,4,3,1,60,0,0
80125,-100,4,1,0,80,0,0
80450,-100,4,1,0,80,0,1
102828,-100,4,1,0,80,0,0
112882,-100,4,1,0,80,0,0
113044,-100,4,3,1,60,0,0
118071,-100,4,1,0,80,0,0
118396,-100,4,3,1,60,0,0
123260,-100,4,1,0,70,0,0
123909,-100,4,3,1,60,0,0
124233,-100,4,1,0,70,0,0
124558,-100,4,3,1,60,0,0
124882,-100,4,1,0,70,0,0
125206,-100,4,3,1,60,0,0
125531,-100,4,1,0,70,0,0
125855,-100,4,3,1,60,0,0
126179,-100,4,1,0,70,0,0
126504,-100,4,3,1,60,0,0
126828,-100,4,1,0,70,0,0
127801,-100,4,3,1,60,0,0
128125,-100,4,1,0,70,0,0
128450,-100,4,3,1,60,0,0
128774,-100,4,1,0,70,0,0
129098,-100,4,3,1,60,0,0
129423,-100,4,1,0,70,0,0
129747,-100,4,3,1,60,0,0
130071,-100,4,1,0,70,0,0
130396,-100,4,3,1,60,0,0
130720,-100,4,1,0,70,0,0
131044,-100,4,3,1,60,0,0
131369,-100,4,1,0,70,0,0
131693,-100,4,3,1,60,0,0
132017,-100,4,1,0,70,0,0
132342,-100,4,3,1,60,0,0
132666,-100,4,1,0,70,0,0
132990,-100,4,3,1,60,0,0
133314,-100,4,1,0,70,0,0
134287,-100,4,3,1,60,0,0
134612,-100,4,1,0,70,0,0
134936,-100,4,3,1,60,0,0
135260,-100,4,1,0,70,0,0
135585,-100,4,3,1,60,0,0
135909,-100,4,1,0,70,0,0
136233,-100,4,3,1,60,0,0
136558,-100,4,1,0,70,0,0
136882,-100,4,3,1,60,0,0
137206,-100,4,1,0,70,0,0
137531,-100,4,3,1,60,0,0
137855,-100,4,1,0,70,0,0
138179,-100,4,3,1,60,0,0
139152,-100,4,1,0,70,0,0
139477,-100,4,3,1,60,0,0
139801,-100,4,1,0,70,0,0
140125,-100,4,3,1,60,0,0
140450,-100,4,1,0,70,0,0
140774,-100,4,3,1,60,0,0
141098,-100,4,1,0,70,0,0
141423,-100,4,3,1,60,0,0
141747,-100,4,1,0,70,0,0
142071,-100,4,3,1,60,0,0
142396,-100,4,1,0,70,0,0
142720,-100,4,3,1,60,0,0
143044,-100,4,1,0,70,0,0
143369,-100,4,3,1,60,0,0
143693,-100,4,1,0,70,0,0
144017,-100,4,3,1,60,0,0
144342,-100,4,1,0,70,0,0
144666,-100,4,3,1,60,0,0
144990,-100,4,1,0,70,0,0
145314,-100,4,3,1,60,0,0
145639,-100,4,1,0,70,0,0
145963,-100,4,3,1,60,0,0
146287,-100,4,1,0,70,0,0
146612,-100,4,3,1,60,0,0
146936,-100,4,1,0,70,0,0
147260,-100,4,3,1,60,0,0
147585,-100,4,1,0,70,0,0
147909,-100,4,3,1,60,0,0
148233,-100,4,1,0,70,0,0
148558,-100,4,3,1,60,0,0
148882,-100,4,1,0,70,0,0
149206,-100,4,3,1,60,0,0
149531,-100,4,1,0,70,0,0
149855,-100,4,3,1,60,0,0
150179,-100,4,1,0,70,0,0
150504,-100,4,3,1,60,0,0
150828,-100,4,1,0,70,0,0
151152,-100,4,3,1,60,0,0
151477,-100,4,1,0,70,0,0
151801,-100,4,3,1,60,0,0
152125,-100,4,1,0,70,0,0
152450,-100,4,3,1,60,0,0
152774,-100,4,1,0,70,0,0
153098,-100,4,3,1,60,0,0
153423,-100,4,1,0,70,0,0
153747,-100,4,3,1,60,0,0
154071,-100,4,1,0,70,0,0
154720,-100,4,3,1,60,0,0
155369,-100,4,1,0,80,0,0
155693,-100,4,3,1,60,0,0
156017,-100,4,1,0,80,0,0
156342,-100,4,3,1,60,0,0
156666,-100,4,1,0,80,0,0
156990,-100,4,3,1,60,0,0
157963,-100,4,1,0,80,0,0
158287,-100,4,3,1,60,0,0
158612,-100,4,1,0,80,0,0
158936,-100,4,3,1,60,0,0
160882,-100,4,1,0,80,0,1
192666,-100,4,2,1,20,0,0
202396,-100,4,1,0,80,0,1
225423,-100,4,1,0,80,0,0
234828,-100,4,1,0,80,0,1
245206,-100,4,2,0,70,0,0

[Colours]
Combo1 : 128,64,0
Combo2 : 255,128,0
Combo3 : 0,0,255
Combo4 : 242,24,57
Combo5 : 255,192,0
Combo6 : 0,255,255
Combo7 : 128,255,255
Combo8 : 128,64,64

[HitObjects]
58,98,1315,6,0,P|114:74|177:84,1,110,8|0,0:0|0:0,0:0:0:0:
265,115,1963,1,0,0:0:0:0:
264,224,2287,1,0,0:0:0:0:
338,305,2612,6,0,P|386:329|450:337,1,110,8|0,0:0|0:0,0:0:0:0:
445,227,3260,1,0,0:0:0:0:
415,120,3585,6,0,L|345:144,2,55,0|8|8,0:0|0:0|0:0,0:0:0:0:
380,15,4233,2,0,P|329:11|291:57,1,110
244,151,4882,1,0,0:0:0:0:
201,252,5206,6,8,P|224:303|275:333,1,110
378,334,5855,2,8,P|466:310|482:286,1,110
488,189,6504,38,0,P|510:124|480:85,1,110
386,56,7152,1,0,0:0:0:0:
279,84,7477,1,0,0:0:0:0:
192,151,7801,22,0,P|248:199|296:175,1,110,8|0,0:0|0:0,0:0:0:0:
386,203,8450,1,0,0:0:0:0:
466,128,8774,2,8,L|413:21,1,110
306,30,9423,6,0,L|250:136,1,110
206,225,10071,2,8,L|177:272,2,55
274,311,10720,6,0,L|397:293,2,110
270,200,11693,6,0,L|331:100,1,110
395,19,12342,2,0,P|431:50|462:110,1,110
463,214,12990,38,0,P|475:262|457:344,1,110
357,316,13639,2,0,P|309:316|253:340,1,110
143,333,14287,22,0,P|119:277|119:221,1,110
212,171,14936,1,0,0:0:0:0:
308,223,15260,1,0,0:0:0:0:
394,291,15585,6,0,L|451:197,1,110
480,91,16233,1,0,0:0:0:0:
406,8,16558,1,0,0:0:0:0:
339,95,16882,6,0,P|332:152|299:199,1,110
193,187,17531,2,0,L|193:131,2,55
84,204,18179,6,0,P|77:264|108:316,1,110
208,316,18828,2,0,P|216:268|232:244,2,55
318,310,19477,38,0,P|345:256|379:211,1,110
418,115,20125,2,0,P|371:100|301:93,1,110
201,82,20774,2,0,L|89:74,3,110
23,160,22071,69,2,0:0:0:0:
85,250,22396,70,0,P|117:290|181:306,1,110
276,273,23044,2,0,P|276:249|292:153,1,110
334,63,23693,2,0,P|385:43|444:48,1,110
487,145,24342,86,0,P|505:206|491:265,1,110
401,304,24990,2,0,P|345:310|285:327,1,110
184,304,25639,2,0,P|134:319|77:302,2,110
206,196,26612,6,0,P|238:116|358:116,1,220,4|4,0:0|0:0,0:0:0:0:
468,118,27585,6,0,P|484:166|468:230,1,110
362,225,28233,2,0,L|346:305|338:345,1,110
230,330,28882,2,0,P|182:314|118:298,1,110
62,208,29531,5,0,0:0:0:0:
130,122,29855,2,0,P|166:74|225:55,1,110
320,45,30504,1,0,0:0:0:0:
420,90,30828,2,0,P|452:130|452:186,1,110
359,246,31477,1,0,0:0:0:0:
249,250,31801,2,0,L|265:362,2,110
200,151,32774,6,0,P|153:199|107:246,1,110
40,302,33423,1,0,0:0:0:0:
12,195,33747,2,0,P|4:115|16:85,1,110
108,31,34396,6,0,P|148:7|220:31,1,110
304,70,35044,2,0,P|296:118|288:190,1,110
289,289,35693,38,0,P|313:313|393:353,2,110
178,286,36666,2,0,B|130:294|90:262|77:239,1,110
83,135,37314,1,0,0:0:0:0:
164,60,37639,1,0,0:0:0:0:
269,89,37963,6,0,P|254:159|273:193,1,110
348,268,38612,1,0,0:0:0:0:
447,222,38936,2,0,P|470:162|459:108,1,110
378,47,39585,1,0,0:0:0:0:
270,69,39909,38,0,P|222:53|167:75,1,110
68,119,40558,2,0,P|25:147|14:203,1,110
96,274,41206,6,0,L|199:328,1,110
302,312,41855,2,0,P|326:336|406:328,1,110
455,240,42504,2,0,P|395:101|243:138,1,330
137,155,43801,1,0,0:0:0:0:
137,155,44125,102,0,P|105:211|138:264,1,110,8|0,0:0|0:0,0:0:0:0:
219,296,44774,2,0,L|275:332,2,55,8|8|0,0:0|0:0|0:0,0:0:0:0:
311,235,45423,2,0,P|367:179|407:179,1,110,8|0,0:0|0:0,0:0:0:0:
495,135,46071,2,0,L|495:215,2,55,8|8|0,0:0|0:0|0:0,0:0:0:0:
434,42,46720,2,0,P|338:50|314:66,1,110,8|0,0:0|0:0,0:0:0:0:
270,149,47369,2,0,B|214:101|174:181|46:133,1,220,8|4,0:0|0:0,0:0:0:0:
29,243,48342,5,0,0:0:0:0:
98,328,48666,2,0,P|170:312|218:304,1,110,8|0,0:0|0:0,0:0:0:0:
314,292,49314,2,0,P|378:308|426:292,1,110,8|0,0:0|0:0,0:0:0:0:
456,192,49963,1,8,0:0:0:0:
419,88,50287,1,0,0:0:0:0:
311,61,50612,2,0,P|311:117|311:173,1,110,8|0,0:0|0:0,0:0:0:0:
314,280,51260,2,0,L|313:352,2,55,8|8|0,0:0|0:0|0:0,0:0:0:0:
204,290,51909,2,0,P|100:330|68:154,1,330
259,75,53531,38,0,P|259:141|259:197,1,110
340,258,54179,1,0,0:0:0:0:
439,211,54504,2,0,P|461:145|440:97,1,110
367,35,55152,6,0,P|287:19|263:43,1,110
168,74,55801,2,0,P|120:106|118:160,1,110
204,219,56450,2,0,P|198:272|228:317,2,110
214,109,57423,2,0,P|222:45|190:-3,1,110
91,20,58071,2,0,L|73:130,1,110
36,232,58720,5,0,0:0:0:0:
114,308,59044,2,0,P|194:308|234:292,1,110
327,269,59693,2,0,P|415:245|431:221,1,110
433,124,60342,6,0,P|369:92|313:100,1,110
222,90,60990,2,0,P|205:145|200:220,1,110
165,301,61639,2,0,L|55:282,1,110
13,181,62287,2,0,P|24:125|66:91,1,110
160,41,62936,1,0,0:0:0:0:
269,51,63260,2,0,L|269:173|269:173,1,110
284,270,63909,6,0,P|340:270|404:238,1,110
478,184,64558,1,0,0:0:0:0:
482,78,64882,2,0,P|430:45|383:53,1,110
274,54,65531,6,0,P|210:86|194:126,1,110
138,212,66179,2,0,P|138:268|178:308,1,110
283,300,66828,70,0,P|315:284|396:325,2,110
261,191,67801,2,0,P|282:141|335:108,1,110
426,63,68450,2,0,L|501:154,1,110
465,253,69098,86,0,P|453:304|403:347,2,110
358,223,70071,2,0,P|310:239|230:247,2,110
389,117,71044,5,0,0:0:0:0:
327,25,71369,2,0,P|274:29|223:65,1,110
119,77,72017,2,0,P|103:126|127:184,2,110
227,59,72990,2,0,P|240:107|232:174,1,110
260,273,73639,2,0,L|383:282,1,110,0|4,0:0|0:0,0:0:0:0:
479,275,74287,6,8,P|510:206|486:167,1,110
401,125,74936,2,0,L|277:115,1,110,0|8,0:0|0:0,0:0:0:0:
181,127,75585,2,0,L|215:243,2,110,0|8|0,0:0|0:0|0:0,0:0:0:0:
116,37,76558,6,8,P|38:97|61:211,1,220
136,282,77531,2,0,P|192:322|304:242,1,220
382,171,78504,6,0,P|400:122|352:78,1,110,8|0,0:0|0:0,0:0:0:0:
256,70,79152,2,0,L|221:107|166:77,1,110,8|0,0:0|0:0,0:0:0:0:
59,83,79801,2,0,P|54:137|78:185,1,110,8|0,0:0|0:0,0:0:0:0:
189,184,80450,1,0,0:0:0:0:
189,184,80774,1,0,0:0:0:0:
297,166,81098,102,0,P|401:206|393:302,1,220
287,323,82071,2,0,P|239:307|167:315,1,110
75,276,82720,1,0,0:0:0:0:
87,166,83044,2,0,P|92:118|96:48,2,110
195,183,84017,1,0,0:0:0:0:
195,183,84342,102,0,L|283:183|307:183,1,110
414,184,84990,2,0,P|414:128|397:75,1,110
288,65,85639,2,0,P|215:6|122:80,1,220
49,150,86612,1,0,0:0:0:0:
49,150,86936,22,0,P|57:206|81:254,1,110
189,268,87585,2,0,P|244:248|306:263,1,110
399,227,88233,2,0,L|495:163,2,110
310,160,89206,101,0,0:0:0:0:
207,120,89531,2,0,P|119:144|95:136,1,110
15,204,90179,2,0,P|-1:284|111:284,1,220
217,273,91152,2,0,L|340:240,1,110
431,224,91801,1,0,0:0:0:0:
431,224,92125,102,0,P|436:177|449:112,2,110,4|0|0,0:0|0:0|0:0,0:0:0:0:
321,212,93098,1,0,0:0:0:0:
215,180,93423,2,0,P|175:212|119:188,1,110
17,165,94071,2,0,P|8:129|33:61,1,110
141,55,94720,21,0,0:0:0:0:
250,67,95044,2,0,P|250:107|258:179,1,110
309,273,95693,1,0,0:0:0:0:
417,288,96017,2,0,P|481:272|417:176,1,220
318,143,96990,1,0,0:0:0:0:
318,143,97314,6,0,P|262:95|214:87,1,110
118,77,97963,2,0,L|50:172,1,110
54,276,98612,2,0,P|108:311|169:310,1,110
260,294,99260,1,0,0:0:0:0:
366,264,99585,102,0,L|350:147,1,110
333,46,100233,2,0,P|282:37|215:45,1,110
118,71,100882,1,0,0:0:0:0:
73,171,101206,2,0,P|66:204|101:283,1,110
256,192,101855,12,0,102828,0:0:0:0:
415,269,112882,6,0,P|439:237|439:213,1,55,2|8,0:0|0:0,0:0:0:0:
400,93,113693,2,8,L|424:21,2,55
351,118,114179,2,8,P|295:142|287:150,1,55
143,292,114990,86,8,P|79:300|39:252,1,110
42,162,115639,2,8,P|66:106|114:74,1,110
212,97,116287,2,8,P|252:105|324:81,2,110
198,206,117260,2,8,P|230:246|334:214,1,165
425,176,118071,1,4,0:0:0:0:
361,86,118396,22,8,P|279:84|254:123,1,110
154,111,119044,1,8,0:0:0:0:
48,142,119369,2,8,P|16:198|22:251,1,110
116,291,120017,54,8,P|164:331|220:339,1,110
319,342,120666,2,8,P|375:334|423:310,1,110
453,204,121314,2,8,L|506:101,2,110
343,192,122287,1,8,0:0:0:0:
244,142,122612,2,8,P|212:86|169:76,1,110
66,108,123260,5,4,0:0:0:0:
41,215,123585,2,0,L|121:311,1,110
217,327,124233,2,0,L|305:239,1,110
376,175,124882,2,0,L|440:175,2,55
278,122,125531,6,0,P|224:89|194:52,1,110
87,75,126179,2,0,L|87:123|61:182,1,110
23,283,126828,2,0,P|97:323|191:232,1,220
299,229,127801,2,0,L|299:109,2,110
401,270,128774,6,0,P|447:241|505:191,1,110
490,95,129423,2,0,P|434:79|370:87,2,110
489,205,130396,6,0,P|474:262|440:308,1,110
339,333,131044,2,0,P|275:301|227:293,1,110
130,267,131693,1,0,0:0:0:0:
51,189,132017,1,0,0:0:0:0:
87,84,132342,2,0,L|207:68,1,110
305,78,132990,2,0,L|422:50,1,110
504,112,133639,1,0,0:0:0:0:
439,200,133963,102,0,P|463:256|447:320,1,110
347,324,134612,1,0,0:0:0:0:
237,315,134936,2,0,P|189:283|125:267,1,110
36,227,135585,54,0,P|20:179|36:107,1,110
134,91,136233,2,0,P|182:107|254:99,1,110
346,135,136882,2,0,P|386:159|458:167,1,110
464,277,137531,6,0,P|368:301|352:317,1,110
253,292,138179,1,0,0:0:0:0:
142,286,138504,2,0,P|78:254|30:254,1,110
10,146,139152,6,0,P|18:106|50:34,1,110
154,52,139801,2,0,P|210:44|266:65,2,110
154,162,140774,6,0,P|125:210|130:268,1,110
234,288,141423,2,0,P|266:312|338:336,1,110
412,260,142071,2,0,P|428:188|444:148,2,110
311,215,143044,2,0,P|271:183|207:151,1,110
143,75,143693,2,0,P|87:91|41:133,1,110
52,233,144342,6,0,P|78:286|131:310,1,110
230,296,144990,1,0,0:0:0:0:
338,276,145314,2,0,P|386:244|386:180,2,110
256,202,146287,6,0,P|232:154|232:90,1,110
315,28,146936,2,0,P|379:36|419:76,1,110
477,153,147585,2,0,P|461:209|469:265,2,110
366,158,148558,2,0,P|286:158|254:182,1,110
155,193,149206,1,0,0:0:0:0:
44,195,149531,102,0,P|20:259|4:307,2,110
83,92,150504,2,0,P|123:84|203:84,1,110
299,58,151152,2,0,P|347:98|363:146,1,110
379,250,151801,2,0,P|339:306|331:362,2,110
276,208,152774,2,0,P|220:192|164:192,1,110
58,180,153423,2,0,P|26:236|18:292,1,110
122,313,154071,2,0,P|170:305|234:337,1,110
329,291,154720,70,8,P|355:253|415:214,1,110
471,127,155369,1,0,0:0:0:0:
471,127,155693,2,0,L|407:30,1,110,8|0,0:0|0:0,0:0:0:0:
300,35,156342,2,0,P|279:112|296:143,1,110,8|0,0:0|0:0,0:0:0:0:
355,223,156990,6,8,P|351:322|245:344,1,220
153,288,157963,2,0,L|38:252,2,110,0|8|0,0:0|0:0|0:0,0:0:0:0:
221,202,158936,6,8,P|205:170|229:98,1,110
324,55,159585,2,8,P|388:15|420:39,1,110
480,111,160233,1,8,0:0:0:0:
452,217,160558,1,8,0:0:0:0:
413,319,160882,2,0,B|317:295|253:375|189:295,1,220
94,279,161855,1,0,0:0:0:0:
94,279,162179,6,0,P|54:223|30:175,1,110,4|0,0:0|0:0,0:0:0:0:
50,77,162828,2,0,P|122:61|162:77,1,110
264,80,163477,1,0,0:0:0:0:
373,77,163801,2,0,L|344:184,1,110
283,275,164450,1,0,0:0:0:0:
173,272,164774,86,0,P|122:302|64:299,1,110
29,199,165423,2,0,P|5:143|5:79,1,110
104,53,166071,2,0,P|158:48|214:73,2,110
107,163,167044,1,0,0:0:0:0:
107,163,167369,6,0,P|160:184|214:150,1,110,4|0,0:0|0:0,0:0:0:0:
314,161,168017,2,0,P|378:185|433:206,1,110
510,258,168666,2,0,L|420:333,1,110
315,321,169314,6,0,P|239:304|207:336,1,110
110,294,169963,2,0,L|39:193,1,110
114,117,170612,2,0,L|223:77,1,110
324,80,171260,1,0,0:0:0:0:
425,121,171585,2,0,L|459:232,1,110
385,309,172233,1,0,0:0:0:0:
385,309,172558,70,0,P|333:283|273:301,1,110,4|0,0:0|0:0,0:0:0:0:
175,305,173206,2,0,P|156:261|169:197,1,110
239,118,173855,1,0,0:0:0:0:
348,113,174179,2,0,P|375:158|391:222,1,110
376,322,174828,1,0,0:0:0:0:
266,334,175152,6,0,P|238:300|175:263,1,110
108,184,175801,2,0,L|136:72,1,110
244,67,176450,2,0,P|308:83|340:51,2,110
264,175,177423,1,0,0:0:0:0:
264,175,177747,6,0,P|251:232|263:300,1,110,4|0,0:0|0:0,0:0:0:0:
359,323,178396,2,0,L|471:281,1,110
471,174,179044,2,0,B|503:94|463:54|480:53,1,110
375,23,179693,1,0,0:0:0:0:
274,67,180017,6,0,P|306:115|266:155,1,110
169,142,180666,2,0,L|49:142,1,110
3,236,181314,1,0,0:0:0:0:
56,332,181639,2,0,L|176:332,1,110
256,192,182287,12,0,183260,0:0:0:0:
56,64,184233,6,0,L|168:120,1,110
263,101,184882,2,0,P|325:111|357:148,1,110
446,206,185531,2,0,L|438:318,1,110
329,331,186179,2,0,P|265:339|217:323,1,110
120,282,186828,2,0,L|8:226,1,110
22,122,187477,2,0,P|14:42|38:-6,1,110
133,16,188125,102,0,L|237:64,1,110,4|0,0:0|0:0,0:0:0:0:
136,115,188774,2,0,L|240:163,1,110
145,224,189423,2,0,L|249:272,1,110
148,323,190071,2,0,L|253:367,1,110
356,340,190720,102,0,L|379:290,1,55
484,258,191206,2,0,L|460:194,1,55
357,179,191693,2,0,L|389:123,1,55
480,78,192179,2,0,L|448:22,1,55
124,65,193314,38,0,P|77:58|6:63,2,110,4|0|0,0:0|0:0|0:0,0:0:0:0:
213,129,194287,1,0,0:0:0:0:
242,235,194612,2,0,P|330:243|344:260,1,110
446,280,195260,1,0,0:0:0:0:
493,180,195585,6,0,P|506:121|477:79,1,110
371,78,196233,2,0,P|310:60|253:92,1,110
169,123,196882,1,0,0:0:0:0:
86,195,197206,2,0,P|86:243|102:307,2,110
71,85,198179,102,0,P|135:61|184:74,1,110
284,72,198828,1,0,0:0:0:0:
390,100,199152,2,0,P|394:148|361:202,1,110
270,258,199801,2,0,P|238:314|185:330,1,110
89,308,200450,1,0,0:0:0:0:
57,202,200774,6,0,P|77:167|135:114,1,110
221,63,201423,2,0,P|259:92|312:154,1,110
388,203,202071,1,0,0:0:0:0:
388,203,202396,37,4,0:0:0:0:
343,303,202720,2,4,P|291:323|234:302,1,110
143,257,203369,1,4,0:0:0:0:
64,180,203693,2,0,P|104:148|168:164,1,110
268,142,204342,2,0,P|332:118|388:118,1,110
472,163,204990,2,0,P|488:235|464:259,1,110
363,292,205639,1,0,0:0:0:0:
253,288,205963,6,0,P|205:256|157:280,1,110
51,265,206612,1,0,0:0:0:0:
23,158,206936,2,0,L|69:52,1,110
176,63,207585,2,0,L|272:135,2,110
146,169,208558,6,0,P|125:219|130:279,1,110
236,290,209206,1,0,0:0:0:0:
345,279,209531,2,0,P|409:295|461:267,1,110
464,170,210179,2,0,P|466:102|422:69,1,110
330,95,210828,1,0,0:0:0:0:
229,138,211152,1,0,0:0:0:0:
124,173,211477,54,0,P|132:237|172:253,1,110
277,237,212125,2,0,L|386:213,1,110
416,107,212774,2,0,L|302:129,2,110
470,202,213747,6,0,P|500:242|478:301,1,110
373,299,214396,1,0,0:0:0:0:
265,288,214720,2,0,L|154:271,1,110
74,197,215369,1,0,0:0:0:0:
149,116,215693,2,0,L|264:142,1,110
363,164,216342,6,0,L|404:282,1,110
297,309,216990,1,0,0:0:0:0:
187,309,217314,2,0,P|99:317|83:341,1,110
24,239,217963,2,0,L|0:124,2,110
123,190,218936,1,0,0:0:0:0:
216,132,219260,22,0,P|268:142|336:112,1,110
428,102,219909,1,0,0:0:0:0:
482,197,220233,1,0,0:0:0:0:
414,284,220558,2,0,L|302:276,1,110
197,252,221206,1,0,0:0:0:0:
93,209,221531,6,0,P|149:137|189:129,1,110
270,108,222179,1,0,0:0:0:0:
379,91,222504,2,0,P|427:67|467:107,1,110
461,209,223152,2,0,L|344:234,1,110
256,192,223801,12,0,225423,0:0:0:0:
64,120,234828,37,4,0:0:0:0:
129,208,235152,1,0,0:0:0:0:
170,105,235477,1,0,0:0:0:0:
236,192,235801,1,0,0:0:0:0:
277,90,236125,5,4,0:0:0:0:
341,179,236450,1,0,0:0:0:0:
376,74,236774,1,0,0:0:0:0:
440,163,237098,1,0,0:0:0:0:
432,272,237423,5,4,0:0:0:0:
350,346,237747,1,0,0:0:0:0:
308,244,238071,1,0,0:0:0:0:
243,333,238396,1,0,0:0:0:0:
193,234,238720,5,4,0:0:0:0:
120,316,239044,1,0,0:0:0:0:
56,225,239369,1,0,0:0:0:0:
60,115,239693,2,0,L|60:83,4,27.5
165,83,240342,5,0,0:0:0:0:
223,175,240666,1,0,0:0:0:0:
266,73,240990,1,0,0:0:0:0:
322,167,241314,1,4,0:0:0:0:
381,74,241639,5,0,0:0:0:0:
432,171,241963,1,0,0:0:0:0:
408,278,242287,1,0,0:0:0:0:
320,344,242612,1,4,0:0:0:0:
215,310,242936,37,0,0:0:0:0:
158,215,243260,1,0,0:0:0:0:
107,313,243585,1,0,0:0:0:0:
39,226,243909,2,0,L|36:112,2,110
252,172,245206,86,0,L|260:234,3,55,2|2|2|2,0:0|0:0|0:0|0:0,0:0:0:0:
