osu file format v14

[General]
AudioFilename: .mp3
AudioLeadIn: 0
PreviewTime: 78504
Countdown: 0
SampleSet: Soft
StackLeniency: 0.7
Mode: 0
LetterboxInBreaks: 0
WidescreenStoryboard: 0

[Editor]
DistanceSpacing: 1
BeatDivisor: 4
GridSize: 8
TimelineZoom: 1.7

[Metadata]
Title:Quan Yu Tian Xia
TitleUnicode:权御天下
Artist:Wu Gui
ArtistUnicode:乌龟
Creator:justatrip
Version:Insane
Source:
Tags:洛天依 Nardoxyribonucleic
BeatmapID:772676
BeatmapSetID:350481

[Difficulty]
HPDrainRate:7
CircleSize:4
OverallDifficulty:7
ApproachRate:8
SliderMultiplier:1.8
SliderTickRate:2

[Events]
//Background and Video events
0,0,"164007q01nnc91vhe9nhhe.png",0,0
//Break Periods
2,22271,32024
2,103028,112132
2,225623,234078
//Storyboard Layer 0 (Background)
//Storyboard Layer 1 (Fail)
//Storyboard Layer 2 (Pass)
//Storyboard Layer 3 (Foreground)
//Storyboard Sound Samples

[TimingPoints]
1315,324.324324324324,4,3,1,80,1,0
1639,-100,4,2,1,80,0,0
2287,-100,4,3,1,80,0,0
2936,-100,4,2,1,80,0,0
3585,-100,4,3,1,80,0,0
4233,-100,4,2,1,80,0,0
4882,-100,4,3,1,80,0,0
5369,-100,4,2,1,80,0,0
5531,-100,4,3,1,80,0,0
5693,-100,4,2,1,80,0,0
5855,-100,4,3,1,80,0,0
6017,-100,4,2,1,80,0,0
6179,-100,4,3,1,80,0,0
6342,-100,4,2,1,80,0,0
6504,-100,4,3,1,80,0,0
6666,-100,4,2,1,80,0,0
7801,-100,4,3,1,80,0,0
8044,-100,4,2,1,80,0,0
8612,-100,4,3,1,80,0,0
8774,-100,4,3,1,80,0,0
9423,-100,4,2,1,80,0,0
10071,-100,4,3,1,80,0,0
10720,-100,4,1,0,80,0,0
11693,-100,4,1,0,80,0,1
21423,-100,4,2,0,70,0,0
21909,-100,4,1,0,70,0,0
32774,-100,4,3,1,60,0,0
33423,-100,4,1,0,70,0,0
33585,-100,4,3,1,60,0,0
33990,-100,4,1,0,70,0,0
34233,-100,4,3,1,60,0,0
34720,-100,4,1,0,70,0,0
34882,-100,4,3,1,60,0,0
35369,-100,4,1,0,70,0,0
35531,-100,4,3,1,60,0,0
36017,-100,4,1,0,70,0,0
36179,-100,4,3,1,60,0,0
36666,-100,4,1,0,70,0,0
36828,-100,4,3,1,60,0,0
37963,-100,4,1,0,70,0,0
38125,-100,4,3,1,60,0,0
38612,-100,4,1,0,70,0,0
38774,-100,4,3,1,60,0,0
39260,-100,4,1,0,70,0,0
39423,-100,4,3,1,60,0,0
39909,-100,4,1,0,70,0,0
40071,-100,4,3,1,60,0,0
41206,-100,4,1,0,70,0,0
41369,-100,4,3,1,60,0,0
41855,-100,4,1,0,70,0,0
42017,-100,4,3,1,60,0,0
42504,-100,4,1,0,70,0,0
43477,-100,4,3,1,60,0,0
43801,-100,4,1,0,70,0,0
43963,-100,4,2,1,70,0,0
44125,-100,4,3,1,50,0,0
44450,-100,4,1,0,70,0,0
44612,-100,4,3,1,50,0,0
45098,-100,4,1,0,70,0,0
45260,-100,4,3,1,50,0,0
45747,-100,4,1,0,70,0,0
45909,-100,4,3,1,50,0,0
46396,-100,4,1,0,70,0,0
46558,-100,4,2,1,70,0,0
46720,-100,4,3,1,50,0,0
47044,-100,4,1,0,70,0,0
47206,-100,4,3,1,50,0,0
47531,-100,4,1,0,70,0,0
47693,-100,4,3,1,50,0,0
48017,-100,4,1,0,70,0,0
48179,-100,4,3,1,50,0,0
48990,-100,4,1,0,70,0,0
49152,-100,4,3,1,50,0,0
49639,-100,4,1,0,70,0,0
49801,-100,4,3,1,50,0,0
50287,-100,4,1,0,70,0,0
50450,-100,4,3,1,50,0,0
50936,-100,4,1,0,70,0,0
51098,-100,4,3,1,50,0,0
51585,-100,4,1,0,70,0,0
51747,-100,4,3,1,50,0,0
52071,-100,4,1,0,70,0,0
52396,-100,4,3,1,50,0,0
52558,-100,4,2,0,80,0,0
53206,-100,4,3,1,50,0,0
53531,-100,4,1,0,70,0,0
53855,-100,4,3,1,60,0,0
54179,-100,4,1,0,70,0,0
54504,-100,4,3,1,60,0,0
54828,-100,4,1,0,70,0,0
55152,-100,4,3,1,60,0,0
55477,-100,4,1,0,70,0,0
55801,-100,4,3,1,60,0,0
56125,-100,4,1,0,70,0,0
56450,-100,4,3,1,60,0,0
56774,-100,4,1,0,70,0,0
57098,-100,4,3,1,60,0,0
57423,-100,4,1,0,70,0,0
57747,-100,4,3,1,60,0,0
58071,-100,4,1,0,70,0,0
58396,-100,4,3,1,60,0,0
58720,-100,4,1,0,70,0,0
59044,-100,4,3,1,60,0,0
59369,-100,4,1,0,70,0,0
59693,-100,4,3,1,60,0,0
60017,-100,4,1,0,70,0,0
60342,-100,4,3,1,60,0,0
60666,-100,4,1,0,70,0,0
60990,-100,4,3,1,60,0,0
61314,-100,4,1,0,70,0,0
61639,-100,4,3,1,60,0,0
61963,-100,4,1,0,70,0,0
62287,-100,4,3,1,60,0,0
62612,-100,4,1,0,70,0,0
62936,-100,4,3,1,60,0,0
63260,-100,4,1,0,70,0,0
63909,-100,4,3,1,60,0,0
64558,-100,4,1,0,70,0,0
64720,-100,4,3,1,60,0,0
65855,-100,4,1,0,70,0,0
66017,-100,4,3,1,60,0,0
66504,-100,4,1,0,70,0,0
66666,-100,4,3,1,60,0,0
67152,-100,4,1,0,70,0,0
67314,-100,4,3,1,60,0,0
67801,-100,4,1,0,70,0,0
67963,-100,4,3,1,60,0,0
68450,-100,4,1,0,70,0,0
69260,-100,4,3,1,60,0,0
69747,-100,4,1,0,70,0,0
69909,-100,4,3,1,60,0,0
70396,-100,4,1,0,70,0,0
70558,-100,4,3,1,60,0,0
71044,-100,4,1,0,70,0,0
71206,-100,4,3,1,60,0,0
71693,-100,4,1,0,70,0,0
71855,-100,4,3,1,60,0,0
72342,-100,4,1,0,70,0,0
72504,-100,4,3,1,60,0,0
72990,-100,4,1,0,70,0,0
73152,-100,4,3,1,60,0,0
73639,-100,4,1,0,70,0,0
74287,-100,4,3,1,50,0,0
74936,-100,4,1,0,80,0,0
75098,-100,4,3,1,50,0,0
75585,-100,4,1,0,80,0,0
75747,-100,4,3,1,50,0,0
76233,-100,4,1,0,80,0,0
76558,-100,4,3,1,50,0,0
76882,-100,4,1,0,80,0,0
77044,-100,4,3,1,50,0,0
77531,-100,4,1,0,80,0,0
77693,-100,4,3,1,50,0,0
78179,-100,4,1,0,80,0,0
78342,-100,4,3,1,50,0,0
78828,-100,4,1,0,80,0,0
79152,-100,4,3,1,50,0,0
79477,-100,4,1,0,80,0,0
79639,-100,4,3,1,50,0,0
80125,-100,4,1,0,80,0,0
80287,-100,4,3,1,50,0,0
80450,-100,4,1,0,80,0,1
102828,-100,4,1,0,70,0,0
113044,-100,4,3,1,60,0,0
118071,-100,4,1,0,70,0,0
118396,-100,4,3,1,60,0,0
120179,-100,4,2,1,20,0,0
120342,-100,4,3,1,60,0,0
120585,-100,4,2,1,20,0,0
120666,-100,4,3,1,60,0,0
120828,-100,4,2,1,20,0,0
121477,-100,4,3,1,60,0,0
123260,-100,4,1,0,70,0,0
123909,-100,4,3,1,60,0,0
124233,-100,4,1,0,70,0,0
124396,-100,4,3,1,60,0,0
124882,-100,4,1,0,70,0,0
125044,-100,4,3,1,60,0,0
125531,-100,4,1,0,70,0,0
125693,-100,4,3,1,60,0,0
126179,-100,4,1,0,70,0,0
126342,-100,4,3,1,60,0,0
126828,-100,4,1,0,70,0,0
126990,-100,4,3,1,60,0,0
127477,-100,4,1,0,70,0,0
127639,-100,4,3,1,60,0,0
128125,-100,4,1,0,70,0,0
128936,-100,4,3,1,60,0,0
129423,-100,4,1,0,70,0,0
129585,-100,4,3,1,60,0,0
130071,-100,4,1,0,70,0,0
130233,-100,4,3,1,60,0,0
130720,-100,4,1,0,70,0,0
130882,-100,4,3,1,60,0,0
131369,-100,4,1,0,70,0,0
131531,-100,4,3,1,60,0,0
132017,-100,4,1,0,70,0,0
132179,-100,4,3,1,60,0,0
132666,-100,4,1,0,70,0,0
132828,-100,4,3,1,60,0,0
134612,-100,4,1,0,70,0,0
134774,-100,4,3,1,60,0,0
135260,-100,4,1,0,70,0,0
135423,-100,4,3,1,60,0,0
135909,-100,4,1,0,70,0,0
136071,-100,4,3,1,60,0,0
136558,-100,4,1,0,70,0,0
136720,-100,4,3,1,60,0,0
137206,-100,4,1,0,70,0,0
137369,-100,4,3,1,60,0,0
137855,-100,4,1,0,70,0,0
138017,-100,4,3,1,60,0,0
138828,-100,4,1,0,70,0,0
139152,-100,4,3,1,60,0,0
139801,-100,4,1,0,70,0,0
139882,-100,4,3,1,60,0,0
140450,-100,4,1,0,70,0,0
140612,-100,4,3,1,60,0,0
141098,-100,4,1,0,70,0,0
141423,-100,4,3,1,60,0,0
141747,-100,4,1,0,70,0,0
142071,-100,4,3,1,60,0,0
142396,-100,4,1,0,70,0,0
142558,-100,4,3,1,60,0,0
143044,-100,4,1,0,70,0,0
143206,-100,4,3,1,60,0,0
144342,-100,4,1,0,70,0,0
144666,-100,4,3,1,60,0,0
144990,-100,4,1,0,70,0,0
145152,-100,4,3,1,60,0,0
145639,-100,4,1,0,70,0,0
145801,-100,4,3,1,60,0,0
146287,-100,4,1,0,70,0,0
146450,-100,4,3,1,60,0,0
146936,-100,4,1,0,70,0,0
147098,-100,4,3,1,60,0,0
147585,-100,4,1,0,70,0,0
147747,-100,4,3,1,60,0,0
148233,-100,4,1,0,70,0,0
148396,-100,4,3,1,60,0,0
148882,-100,4,1,0,70,0,0
149206,-100,4,3,1,60,0,0
150179,-100,4,1,0,70,0,0
150342,-100,4,3,1,60,0,0
150828,-100,4,1,0,70,0,0
150990,-100,4,3,1,60,0,0
151477,-100,4,1,0,70,0,0
151639,-100,4,3,1,60,0,0
152125,-100,4,1,0,70,0,0
152287,-100,4,3,1,60,0,0
152774,-100,4,1,0,70,0,0
152936,-100,4,3,1,60,0,0
153423,-100,4,1,0,70,0,0
153585,-100,4,3,1,60,0,0
154071,-100,4,1,0,70,0,0
154720,-100,4,3,1,50,0,0
155369,-100,4,1,0,80,0,0
155693,-100,4,3,1,50,0,0
156017,-100,4,1,0,80,0,0
156179,-100,4,3,1,50,0,0
156666,-100,4,1,0,80,0,0
156990,-100,4,3,1,50,0,0
157314,-100,4,1,0,80,0,0
157477,-100,4,3,1,50,0,0
157963,-100,4,1,0,80,0,0
158125,-100,4,3,1,50,0,0
158612,-100,4,1,0,80,0,0
158774,-100,4,3,1,50,0,0
159260,-100,4,1,0,80,0,0
159585,-100,4,3,1,50,0,0
159909,-100,4,1,0,80,0,0
160071,-100,4,3,1,50,0,0
160882,-100,4,1,0,80,0,1
183585,-100,4,3,1,60,0,1
183909,-100,4,1,0,80,0,1
184071,-100,4,3,1,60,0,1
184558,-100,4,1,0,80,0,1
184720,-100,4,3,1,60,0,1
185206,-100,4,1,0,80,0,1
185369,-100,4,3,1,60,0,1
185855,-100,4,1,0,80,0,1
186017,-100,4,3,1,60,0,1
186504,-100,4,1,0,80,0,1
186666,-100,4,3,1,60,0,1
187152,-100,4,1,0,80,0,1
187314,-100,4,3,1,60,0,1
187639,-100,4,1,0,80,0,1
187801,-100,4,3,1,60,0,1
188125,-100,4,1,0,80,0,1
188206,-100,4,3,1,60,0,1
188450,-100,4,1,0,80,0,1
188531,-100,4,3,1,60,0,1
189098,-100,4,1,0,80,0,1
189179,-100,4,3,1,60,0,1
189747,-100,4,1,0,80,0,1
189828,-100,4,3,1,60,0,1
190396,-100,4,1,0,80,0,1
190477,-100,4,3,1,60,0,1
191044,-100,4,1,0,80,0,1
191206,-100,4,3,1,60,0,1
191693,-100,4,1,0,80,0,1
191855,-100,4,3,1,60,0,1
192179,-100,4,1,0,80,0,1
192504,-100,4,3,1,60,0,1
192666,-100,4,1,0,70,0,0
193477,-100,4,2,1,20,0,0
202396,-100,4,1,0,80,0,1
225423,-100,4,1,0,70,0,0
234828,-100,4,1,0,80,0,1
245206,-100,4,2,0,70,0,0

[Colours]
Combo1 : 255,128,64
Combo2 : 128,64,0
Combo3 : 0,0,255
Combo4 : 242,24,57
Combo5 : 255,192,0
Combo6 : 128,64,64
Combo7 : 0,255,255
Combo8 : 128,255,255

[HitObjects]
123,128,1315,6,0,P|123:176|235:224,1,180,8|0,0:0|0:0,0:0:0:0:
303,141,1801,2,0,P|303:85|199:53,1,180
70,165,2287,1,8,0:0:0:0:
153,302,2450,1,8,0:0:0:0:
303,293,2612,6,0,P|344:216|303:141,1,180,8|0,0:0|0:0,0:0:0:0:
192,88,3098,2,0,L|230:-3,2,90
110,250,3585,1,0,0:0:0:0:
247,343,3747,1,0,0:0:0:0:
323,194,3909,6,0,P|373:263|323:337,1,180,8|0,0:0|0:0,0:0:0:0:
463,274,4396,2,0,P|503:242|511:194,2,90
240,324,4882,2,0,P|163:274|162:261,1,90
120,152,5206,5,8,0:0:0:0:
240,72,5369,1,0,0:0:0:0:
272,48,5450,1,0,0:0:0:0:
312,56,5531,1,8,0:0:0:0:
386,121,5693,1,0,0:0:0:0:
449,237,5855,2,0,L|378:292,1,90,8|0,0:0|0:0,0:0:0:0:
238,256,6179,2,0,L|238:160,1,90,8|0,0:0|0:0,0:0:0:0:
225,51,6504,6,0,L|173:38|111:65,1,90,8|0,0:0|0:0,0:0:0:0:
75,87,6747,2,0,L|86:131,1,45
114,244,6990,2,0,L|162:324,1,90
309,333,7314,1,0,0:0:0:0:
428,272,7477,2,0,P|474:217|430:125,1,180,0|8,0:0|0:0,0:0:0:0:
272,224,8044,70,0,L|227:250,1,45
132,287,8287,2,0,P|100:223|148:119,1,180,0|2,0:0|0:0,0:0:0:0:
272,224,8774,1,8,0:0:0:0:
396,302,8936,1,8,0:0:0:0:
512,216,9098,6,0,P|520:160|424:72,1,180,8|0,0:0|0:0,0:0:0:0:
306,71,9585,1,0,0:0:0:0:
183,139,9747,1,0,0:0:0:0:
235,262,9909,1,0,0:0:0:0:
367,273,10071,2,8,L|405:178,1,90
429,57,10396,6,8,L|332:29,1,90
184,35,10720,2,0,L|120:105,1,90
43,209,11044,1,0,0:0:0:0:
184,302,11206,1,0,0:0:0:0:
246,120,11369,1,0,0:0:0:0:
246,120,11693,6,0,P|304:61|366:123,1,180
417,232,12179,1,0,0:0:0:0:
356,328,12342,2,0,P|324:344|252:328,1,90
139,283,12666,2,0,P|133:236|134:187,1,90
134,64,12990,2,0,P|204:17|279:72,1,180
310,199,13477,1,0,0:0:0:0:
343,322,13639,2,0,P|391:322|423:298,1,90
503,194,13963,2,0,P|505:149|490:102,1,90
428,18,14287,38,0,P|362:-8|288:71,1,180
268,189,14774,2,0,L|214:264,1,90
95,312,15098,2,0,L|38:233,1,90
17,138,15423,1,0,0:0:0:0:
91,31,15585,5,0,0:0:0:0:
214,82,15747,2,0,L|255:163,1,90
318,282,16071,2,0,P|374:274|422:250,1,90
499,192,16396,2,0,P|507:147|513:103,2,90
473,331,16882,6,0,P|387:332|349:256,1,180,4|0,0:0|0:0,0:0:0:0:
379,132,17369,1,0,0:0:0:0:
305,34,17531,2,0,L|214:42,1,90
87,65,17855,2,0,P|77:113|94:152,1,90
180,247,18179,6,0,P|220:263|268:255,1,90
340,276,18423,2,0,L|388:276,1,45
461,153,18666,1,0,0:0:0:0:
347,36,18828,1,0,0:0:0:0:
228,128,18990,1,0,0:0:0:0:
257,242,19152,2,0,P|262:289|298:337,1,90
436,327,19477,2,0,P|494:249|483:165,1,180
414,98,19963,22,0,P|382:74|326:66,1,90
199,50,20287,1,0,0:0:0:0:
102,128,20450,2,0,L|125:235,1,90
188,314,20774,1,0,0:0:0:0:
320,324,20936,2,0,P|345:282|337:242,1,90
383,132,21260,1,0,0:0:0:0:
259,17,21423,1,4,0:0:0:0:
121,105,21585,1,4,0:0:0:0:
201,245,21747,1,4,0:0:0:0:
203,244,22071,101,0,0:0:0:0:
224,88,32774,6,0,P|264:56|304:56,2,90
152,192,33260,1,0,0:0:0:0:
232,288,33423,2,0,P|256:288|328:264,1,90
394,163,33747,2,0,L|492:186,2,90
264,128,34233,2,0,P|208:128|160:136,1,90
49,111,34558,38,0,P|41:79|25:15,2,90
84,235,35044,1,0,0:0:0:0:
131,351,35206,2,0,P|171:359|235:343,2,90
177,227,35693,2,0,P|225:211|267:201,1,90
390,189,36017,2,0,P|406:125|398:93,1,90
312,9,36342,1,0,0:0:0:0:
205,72,36504,2,0,P|173:96|133:136,1,90
34,211,36828,2,0,P|26:275|-6:331,2,90
32,74,37314,2,0,P|48:26|160:34,1,180
178,229,37963,6,0,P|146:285|138:333,2,90
296,186,38450,1,0,0:0:0:0:
421,199,38612,1,0,0:0:0:0:
421,199,38774,1,0,0:0:0:0:
357,95,38936,2,0,P|372:48|392:13,2,90
287,216,39423,2,0,P|263:256|255:304,1,90
368,353,39747,5,0,0:0:0:0:
368,353,39909,2,0,P|431:344|465:311,1,90
477,216,40233,1,0,0:0:0:0:
402,84,40396,2,0,P|323:62|238:121,1,180
164,220,40882,1,0,0:0:0:0:
245,319,41044,2,0,L|345:304,1,90
459,285,41369,1,0,0:0:0:0:
507,158,41531,2,0,P|515:118|491:70,2,90
373,166,42017,2,0,L|284:212,2,90
256,192,42504,12,4,43477,0:0:0:0:
85,126,43801,6,0,L|98:217,1,90
184,304,44125,2,0,B|248:328|248:240|344:224,1,180,8|0,0:0|0:0,0:0:0:0:
498,234,44612,2,8,P|498:274|458:306,1,90
336,225,44936,2,0,P|280:201|256:161,1,90,8|0,0:0|0:0,0:0:0:0:
153,73,45260,1,0,0:0:0:0:
36,169,45423,6,8,P|52:217|36:265,1,90
95,314,45666,2,0,L|149:291,1,45,8|0,0:0|0:0,0:0:0:0:
283,242,45909,2,8,P|299:194|331:170,1,90
490,113,46233,2,0,L|508:213,1,90,8|0,0:0|0:0,0:0:0:0:
407,318,46558,1,0,0:0:0:0:
329,219,46720,5,8,0:0:0:0:
261,108,46882,2,0,L|215:125,2,45,8|8|0,0:0|0:0|0:0,0:0:0:0:
77,181,47206,1,0,0:0:0:0:
136,323,47369,2,0,P|176:299|200:259,1,90,8|0,0:0|0:0,0:0:0:0:
246,208,47612,1,0,0:0:0:0:
286,200,47693,1,8,0:0:0:0:
326,208,47774,1,8,0:0:0:0:
350,240,47855,1,8,0:0:0:0:
460,159,48017,38,0,P|476:127|476:71,2,90,4|8|8,0:0|0:0|0:0,0:0:0:0:
458,313,48504,1,8,0:0:0:0:
301,272,48666,1,8,0:0:0:0:
161,192,48828,1,8,0:0:0:0:
172,334,48990,1,0,0:0:0:0:
287,137,49152,1,8,0:0:0:0:
184,52,49314,6,8,L|90:83,1,90
80,148,49558,2,0,L|111:188,1,45,8|0,0:0|0:0,0:0:0:0:
256,237,49801,2,8,P|280:189|280:149,1,90
437,90,50125,2,0,P|461:130|469:186,1,90,8|0,0:0|0:0,0:0:0:0:
336,270,50450,1,8,0:0:0:0:
251,159,50612,6,8,P|195:191|187:223,1,90
56,302,50936,1,0,0:0:0:0:
54,136,51098,2,8,L|118:52,1,90
251,159,51423,2,0,P|302:139|348:122,1,90,8|0,0:0|0:0,0:0:0:0:
456,188,51747,5,8,0:0:0:0:
357,311,51909,2,8,L|297:310,1,45
243,316,52071,1,0,0:0:0:0:
199,304,52152,1,0,0:0:0:0:
177,264,52233,1,0,0:0:0:0:
195,222,52314,1,0,0:0:0:0:
235,202,52396,1,8,0:0:0:0:
233,48,52558,2,4,P|188:42|137:72,2,90
439,59,53531,6,0,P|472:138|404:203,1,180
339,248,54017,1,0,0:0:0:0:
266,287,54179,2,0,P|218:327|114:287,1,180
32,184,54666,2,0,P|0:136|16:80,1,90
112,24,54990,2,0,P|168:32|208:56,1,90
288,80,55314,5,0,0:0:0:0:
408,112,55477,2,0,P|496:72|512:72,2,90
288,192,55963,1,0,0:0:0:0:
176,272,56125,2,0,B|152:336|184:400|288:352,1,180
384,312,56612,2,0,P|400:272|408:224,1,90
346,103,56936,1,0,0:0:0:0:
346,103,57098,2,0,P|410:79|466:103,2,90
230,175,57585,2,0,P|198:95|94:103,1,180
50,161,58071,1,0,0:0:0:0:
10,201,58152,1,0,0:0:0:0:
2,257,58233,1,0,0:0:0:0:
18,305,58314,1,0,0:0:0:0:
66,337,58396,1,0,0:0:0:0:
250,310,58720,86,0,P|298:230|226:190,1,180
127,111,59206,2,0,L|103:199,1,90
124,338,59531,1,0,0:0:0:0:
2,300,59693,2,0,B|42:244|-46:212|2:124,1,180
132,95,60179,1,0,0:0:0:0:
258,77,60342,2,0,L|362:37,2,90
174,188,60828,1,0,0:0:0:0:
297,195,60990,2,0,P|385:157|428:221,1,180
398,342,61477,1,0,0:0:0:0:
272,314,61639,2,0,L|160:322,2,90
398,342,62125,1,0,0:0:0:0:
494,271,62287,2,0,P|534:199|502:95,1,180
401,51,62774,2,0,P|289:35|257:99,1,180
203,192,63260,1,0,0:0:0:0:
163,213,63342,1,0,0:0:0:0:
147,255,63423,1,0,0:0:0:0:
153,299,63504,1,0,0:0:0:0:
190,323,63585,1,0,0:0:0:0:
322,287,63909,102,0,P|360:317|408:341,2,90
397,178,64396,1,0,0:0:0:0:
304,93,64558,2,0,P|267:77|207:102,2,90
232,205,65044,1,0,0:0:0:0:
147,317,65206,2,0,P|243:304|303:368,1,180
419,324,65693,21,0,0:0:0:0:
462,199,65855,2,0,P|486:159|478:111,1,90
369,41,66179,1,0,0:0:0:0:
256,102,66342,1,0,0:0:0:0:
249,234,66504,2,0,P|258:279|291:319,1,90
429,288,66828,1,0,0:0:0:0:
477,165,66990,6,0,P|487:129|512:79,2,90
348,97,67477,2,0,P|300:121|276:153,1,90
175,231,67801,1,0,0:0:0:0:
63,161,67963,2,0,P|39:209|31:257,1,90
131,329,68287,1,0,0:0:0:0:
234,253,68450,1,0,0:0:0:0:
266,229,68531,1,0,0:0:0:0:
306,221,68612,1,0,0:0:0:0:
346,229,68693,1,0,0:0:0:0:
386,245,68774,1,0,0:0:0:0:
420,90,69098,38,0,P|364:66|316:77,2,90
265,221,69585,1,0,0:0:0:0:
460,207,69747,1,0,0:0:0:0:
378,354,69909,1,0,0:0:0:0:
269,225,70071,2,0,P|285:289|189:305,1,180
102,199,70558,2,0,P|72:233|82:289,1,90
256,224,70882,6,0,P|312:184|328:144,1,90
443,274,71206,2,0,L|361:331,1,90
211,350,71531,2,0,P|168:326|111:303,1,90
133,141,71855,2,0,P|157:101|189:61,1,90
331,152,72179,1,0,0:0:0:0:
331,152,72342,2,0,P|355:176|419:176,1,90
331,323,72666,2,0,L|235:338,2,90
255,226,73152,102,0,P|231:178|247:130,1,90
363,52,73477,1,0,0:0:0:0:
198,45,73639,1,0,0:0:0:0:
154,56,73720,1,0,0:0:0:0:
122,88,73801,1,0,0:0:0:0:
109,131,73882,1,0,0:0:0:0:
129,171,73963,1,4,0:0:0:0:
143,321,74287,70,0,P|227:293|307:335,2,180,8|8|0,0:0|0:0|0:0,0:0:0:0:
160,152,75098,1,8,0:0:0:0:
8,200,75260,2,8,L|8:248,2,45
143,321,75585,1,0,0:0:0:0:
160,152,75747,2,8,P|176:80|280:72,1,180
384,192,76233,1,0,0:0:0:0:
250,270,76558,70,8,P|266:302|306:342,1,90
392,200,76882,1,0,0:0:0:0:
472,331,77044,2,8,P|496:283|496:235,1,90
392,200,77369,1,8,0:0:0:0:
471,77,77531,2,8,P|431:40|383:45,1,90,0|8,0:0|0:0,0:0:0:0:
392,200,77855,1,8,0:0:0:0:
260,59,78017,2,0,P|228:123|236:155,1,90,8|0,0:0|0:0,0:0:0:0:
392,200,78342,1,8,0:0:0:0:
300,296,78504,6,0,P|236:344|150:301,2,180,8|0|8,0:0|0:0|0:0,0:0:0:0:
226,161,79314,2,0,L|140:195,1,90,8|0,0:0|0:0,0:0:0:0:
1,137,79639,1,8,0:0:0:0:
1,137,79801,2,8,P|-10:80|6:41,1,90
163,55,80125,2,0,L|259:32,1,90,0|8,0:0|0:0,0:0:0:0:
408,79,80450,2,0,P|440:111|448:239,2,180,0|4|4,0:0|0:0|0:0,0:0:0:0:
287,179,81260,5,4,0:0:0:0:
101,181,81423,1,4,0:0:0:0:
194,33,81585,1,4,0:0:0:0:
287,179,81747,2,0,L|289:279,2,90
435,254,82233,2,0,P|459:302|451:358,1,90
294,358,82558,1,0,0:0:0:0:
147,310,82720,2,0,P|115:310|59:350,2,90
288,236,83206,1,0,0:0:0:0:
230,81,83369,2,0,P|166:97|134:145,2,90
335,131,83855,5,0,0:0:0:0:
467,30,84017,1,0,0:0:0:0:
493,188,84179,1,0,0:0:0:0:
351,268,84342,2,0,L|295:349|295:349,1,90
165,267,84666,2,0,L|228:193,1,90
224,35,84990,2,0,L|126:34,1,90
0,121,85314,2,0,P|0:193|8:217,1,90
138,279,85639,70,0,P|162:247|114:111,2,180
280,213,86450,2,0,P|298:169|323:118,2,90
441,264,86936,2,0,P|441:296|417:376,1,90,4|0,0:0|0:0,0:0:0:0:
263,328,87260,1,0,0:0:0:0:
95,332,87423,1,0,0:0:0:0:
23,189,87585,2,0,P|31:149|55:93,2,90
173,163,88071,1,0,0:0:0:0:
327,134,88233,1,0,0:0:0:0:
485,106,88396,1,0,0:0:0:0:
456,240,88558,2,0,P|464:312|488:336,1,90
216,264,89044,6,0,P|223:327|231:367,2,90
73,261,89531,2,0,P|17:229|9:189,1,90
74,65,89855,2,0,P|138:41|162:1,1,90
317,36,90179,2,0,P|341:92|317:148,1,90
477,218,90504,2,0,L|464:316,1,90
299,328,90828,2,0,P|259:328|227:264,1,90
81,244,91152,1,0,0:0:0:0:
97,204,91233,1,0,0:0:0:0:
89,164,91314,1,0,0:0:0:0:
89,124,91396,1,0,0:0:0:0:
97,84,91477,1,0,0:0:0:0:
252,75,91639,6,4,P|324:35|388:123,1,180
359,249,92125,2,0,P|343:313|303:337,1,90,4|0,0:0|0:0,0:0:0:0:
167,299,92450,1,0,0:0:0:0:
31,221,92612,1,0,0:0:0:0:
157,123,92774,2,0,P|216:103|251:92,1,90
243,261,93098,2,0,P|195:261|131:229,2,90
173,119,93585,1,0,0:0:0:0:
312,29,93747,1,0,0:0:0:0:
433,148,93909,1,0,0:0:0:0:
352,346,94233,6,0,P|392:354|472:322,2,90
208,263,94720,2,0,P|184:319|208:383,1,90
18,323,95044,2,0,P|20:266|21:224,1,90
87,86,95369,2,0,P|151:54|199:62,1,90
335,74,95693,2,0,L|351:146,2,45
407,248,96017,2,0,L|327:300,1,90
165,304,96342,2,0,L|93:237,1,90
33,87,96666,1,0,0:0:0:0:
166,77,96828,54,0,P|256:38|327:84,1,180
266,225,97314,2,0,P|234:289|250:321,1,90,4|0,0:0|0:0,0:0:0:0:
405,334,97639,1,0,0:0:0:0:
405,334,97801,1,0,0:0:0:0:
408,168,97963,2,0,P|344:120|312:120,1,90
184,68,98287,2,0,P|136:100|96:156,1,90
64,275,98612,2,0,P|144:299|216:203,2,180
58,142,99423,5,0,0:0:0:0:
224,136,99585,1,0,0:0:0:0:
390,135,99747,1,0,0:0:0:0:
454,234,99909,6,0,P|446:290|390:322,1,90
252,271,100233,2,0,P|250:317|244:383,1,90
112,278,100558,2,0,P|56:286|24:318,1,90
0,150,100882,1,0,0:0:0:0:
101,30,101044,1,0,0:0:0:0:
253,83,101206,2,0,P|301:115|293:235,1,180
155,285,101693,1,0,0:0:0:0:
256,192,101855,12,0,102828,0:0:0:0:
416,32,112882,6,0,P|392:96|392:152,1,90,2|8,0:0|0:0,0:0:0:0:
236,76,113206,2,8,P|164:124|84:68,1,180
0,220,113693,1,8,0:0:0:0:
98,343,113855,1,8,0:0:0:0:
210,216,114017,1,8,0:0:0:0:
336,341,114179,2,8,P|376:293|368:237,1,90
304,40,114666,1,8,0:0:0:0:
132,87,114990,6,8,P|76:119|52:239,1,180
224,307,115639,2,8,P|289:255|303:160,1,180
427,27,116287,2,8,P|475:35|515:75,2,90
436,198,116774,2,8,P|428:246|356:278,1,90
204,212,117260,2,8,P|164:276|260:308,2,180
329,162,118071,1,4,0:0:0:0:
163,32,118396,38,8,P|187:96|179:144,2,90
0,182,119044,2,8,B|40:230|72:222|112:246,1,90
237,282,119369,1,8,0:0:0:0:
237,282,119531,2,8,P|197:314|189:386,2,90
191,75,120179,2,0,L|247:43,2,45,0|0|8,0:0|0:0|0:0,0:0:0:0:
352,102,120504,2,0,L|392:78,2,45,0|0|8,0:0|0:0|0:0,0:0:0:0:
488,145,120828,2,0,P|472:185|336:225,1,180
172,136,121477,6,8,P|204:176|212:248,1,90
351,144,121801,1,8,0:0:0:0:
398,300,121963,2,8,P|453:292|501:240,2,90
272,272,122450,2,8,P|240:336|136:304,1,180
248,168,122936,2,0,P|224:208|96:248,1,180,8|4,0:0|0:0,0:0:0:0:
112,72,123585,6,0,P|128:152|168:192,1,135
160,184,123909,2,0,P|176:224|104:336,1,180
256,312,124396,1,0,0:0:0:0:
360,248,124558,2,0,P|416:256|456:296,2,90
392,132,125044,2,0,P|379:89|352:53,1,90
220,77,125369,6,0,L|255:159,1,90
110,83,125693,2,0,L|71:168,1,90
177,229,126017,2,0,L|134:325,1,90
339,229,126342,2,0,L|374:315,1,90
469,190,126666,2,0,P|437:134|445:78,2,90
339,229,127152,1,0,0:0:0:0:
235,138,127314,2,0,P|179:186|163:234,1,90
46,95,127639,2,0,P|6:159|38:255,1,180
168,340,128125,1,0,0:0:0:0:
192,316,128206,1,0,0:0:0:0:
232,300,128287,1,0,0:0:0:0:
272,300,128369,1,0,0:0:0:0:
304,316,128450,1,0,0:0:0:0:
288,176,128774,6,0,P|336:144|384:144,1,90
384,304,129098,2,0,P|416:264|416:208,1,90
288,176,129423,1,0,0:0:0:0:
160,104,129585,2,0,P|136:168|152:216,1,90
73,318,129909,2,0,L|22:237,1,90
26,119,130233,2,0,L|82:37,1,90
207,56,130558,6,0,L|159:152,1,90
380,97,130882,2,0,L|335:175,1,90
183,244,131206,2,0,L|128:340,1,90
330,351,131531,2,0,L|373:272,1,90
424,155,131855,53,0,0:0:0:0:
424,155,132017,2,0,P|360:107|320:107,1,90
252,192,132342,2,0,P|188:176|148:152,1,90
35,128,132666,1,0,0:0:0:0:
72,248,132828,2,0,P|88:304|128:320,2,90
191,163,133314,2,0,P|199:99|287:155,1,180
368,272,133963,6,0,P|384:216|376:152,1,90
288,296,134287,2,0,P|240:312|208:352,1,90
216,184,134612,1,0,0:0:0:0:
104,264,134774,1,0,0:0:0:0:
96,104,134936,2,0,P|40:112|-8:104,2,90
232,56,135423,2,0,L|344:40,1,90
304,232,135747,6,0,L|304:336,1,90
408,144,136071,2,0,L|408:48,1,90
296,144,136396,2,0,L|200:144,1,90
408,232,136720,2,0,L|504:232,1,90
320,336,137044,6,0,P|264:280|264:248,1,90
216,176,137369,1,0,0:0:0:0:
216,80,137531,2,0,P|280:72|320:104,2,90
56,80,138017,2,0,P|112:128|56:208,1,180
240,80,138504,2,0,P|184:136|240:208,1,180,0|4,0:0|0:0,0:0:0:0:
371,87,139152,6,0,L|315:191,1,90
512,118,139477,2,0,L|475:200,1,90
400,296,139801,2,0,P|368:328|360:344,2,45
240,264,140125,1,0,0:0:0:0:
136,216,140287,2,0,P|72:264|56:296,2,90
182,111,140774,2,0,L|241:38,1,90
376,62,141098,2,0,P|421:116|365:205,1,180
266,291,141585,1,0,0:0:0:0:
128,334,141747,2,0,P|52:278|82:201,1,180
161,155,142233,38,0,P|165:100|175:54,2,90
305,180,142720,2,0,P|297:244|313:292,2,90
178,254,143206,2,0,P|154:310|178:366,1,90
324,340,143531,1,0,0:0:0:0:
462,258,143693,2,0,P|494:194|438:106,1,180
295,219,144342,6,0,P|223:211|183:115,1,180
68,45,144828,1,0,0:0:0:0:
16,166,144990,2,0,B|0:222|32:246|16:262,1,90
102,347,145314,2,0,P|166:331|198:331,1,90
328,338,145639,2,0,P|368:290|352:226,1,90
480,184,145963,1,0,0:0:0:0:
480,184,146125,5,0,0:0:0:0:
376,88,146287,2,0,P|360:152|368:192,1,90
231,172,146612,2,0,L|145:206,1,90
27,172,146936,2,0,P|27:116|11:68,1,90
136,57,147260,1,0,0:0:0:0:
259,81,147423,6,0,P|339:97|351:98,2,90
191,188,147909,2,0,P|223:236|223:284,1,90
344,343,148233,1,0,0:0:0:0:
469,297,148396,2,0,P|485:241|477:193,2,90
352,257,148882,1,0,0:0:0:0:
312,273,148963,1,0,0:0:0:0:
264,265,149044,1,0,0:0:0:0:
232,233,149125,1,0,0:0:0:0:
232,185,149206,1,0,0:0:0:0:
227,62,149531,6,0,P|139:62|83:134,1,180
38,260,150017,1,0,0:0:0:0:
169,246,150179,2,0,P|225:214|265:222,1,90
364,163,150504,2,0,P|409:134|454:125,1,90
496,249,150828,1,0,0:0:0:0:
395,319,150990,2,0,P|304:353|231:308,1,180
355,208,151477,6,0,P|283:224|259:248,1,90
213,148,151801,2,0,L|306:107,1,90
225,49,152125,2,0,P|137:34|107:113,1,180
90,223,152612,54,0,P|10:215|-14:207,2,90
190,306,153098,2,0,L|231:220,1,90
143,142,153423,1,0,0:0:0:0:
58,48,153585,2,0,P|116:18|225:58,1,180
360,78,154071,1,0,0:0:0:0:
392,110,154152,1,0,0:0:0:0:
392,158,154233,1,0,0:0:0:0:
360,190,154314,1,0,0:0:0:0:
312,198,154396,1,0,0:0:0:0:
144,176,154720,6,8,L|112:272,1,90
262,353,155044,2,8,L|256:264,1,90
263,121,155369,1,0,0:0:0:0:
481,277,155693,2,0,L|467:179,2,90,8|8|0,0:0|0:0|0:0,0:0:0:0:
344,192,156179,2,0,P|293:227|249:183,2,135,8|8|0,0:0|0:0|0:0,0:0:0:0:
256,192,156990,5,8,0:0:0:0:
184,272,157152,2,0,P|144:304|120:336,1,90,8|0,0:0|0:0,0:0:0:0:
256,192,157477,1,8,0:0:0:0:
192,104,157639,2,8,P|144:72|120:32,1,90
256,192,157963,1,0,0:0:0:0:
346,119,158125,2,8,P|370:90|422:88,1,90
256,192,158450,1,8,0:0:0:0:
331,252,158612,2,0,P|343:273|381:330,1,90,0|8,0:0|0:0,0:0:0:0:
505,256,158936,6,0,P|540:173|502:86,2,180,8|0|8,0:0|0:0|0:0,0:0:0:0:
349,273,159747,2,0,P|328:306|278:329,1,90,8|0,0:0|0:0,0:0:0:0:
147,303,160071,1,8,0:0:0:0:
27,229,160233,2,8,P|35:173|22:137,1,90
138,47,160558,1,8,0:0:0:0:
138,47,160720,1,8,0:0:0:0:
276,155,160882,2,0,L|266:103,2,45
301,298,161206,2,4,P|239:301|195:283,2,90
431,218,161693,5,4,0:0:0:0:
347,47,161855,1,4,0:0:0:0:
236,177,162017,1,4,0:0:0:0:
112,112,162179,2,0,P|96:192|104:232,1,90,4|0,0:0|0:0,0:0:0:0:
72,296,162504,1,0,0:0:0:0:
72,296,162666,1,0,0:0:0:0:
200,328,162828,2,0,P|272:336|320:328,1,90
376,248,163152,2,0,P|408:328|408:360,1,90
488,200,163477,2,0,P|512:136|480:96,1,90
344,56,163801,2,0,P|288:88|264:128,1,90
87,127,164287,102,0,P|23:167|63:255,1,180
218,217,164774,2,0,L|258:321,1,90
392,314,165098,2,0,L|457:224,1,90
461,111,165423,2,0,L|389:50,1,90
265,72,165747,2,0,P|201:96|185:120,2,90
295,196,166233,1,0,0:0:0:0:
420,300,166396,1,0,0:0:0:0:
438,143,166558,1,0,0:0:0:0:
273,330,166720,1,0,0:0:0:0:
295,196,166882,102,0,P|263:140|183:204,1,180
70,250,167369,2,0,P|62:298|22:338,1,90,4|0,0:0|0:0,0:0:0:0:
13,193,167693,2,0,L|17:102,1,90
145,46,168017,2,0,P|169:94|161:150,1,90
313,50,168342,2,0,P|308:94|280:128,1,90
230,223,168666,1,0,0:0:0:0:
402,314,168828,1,0,0:0:0:0:
408,176,168990,1,0,0:0:0:0:
235,349,169152,1,0,0:0:0:0:
117,189,169477,6,0,P|69:221|29:229,2,90
201,77,169963,2,0,P|233:133|249:181,1,90
359,207,170287,1,0,0:0:0:0:
469,112,170450,1,0,0:0:0:0:
502,239,170612,2,0,P|494:295|510:343,1,90
353,256,170936,2,0,P|353:312|321:352,1,90
199,318,171260,2,0,L|98:298,2,90
228,184,171747,1,0,0:0:0:0:
320,79,171909,1,0,0:0:0:0:
431,40,172071,6,0,P|508:84|488:162,1,180
382,231,172558,2,0,P|327:248|278:263,1,90,4|0,0:0|0:0,0:0:0:0:
192,328,172882,1,0,0:0:0:0:
77,317,173044,1,0,0:0:0:0:
77,317,173206,2,0,P|61:253|67:220,1,90
30,103,173531,1,0,0:0:0:0:
136,41,173693,1,0,0:0:0:0:
256,81,173855,2,0,P|328:44|420:91,1,180
498,172,174342,2,0,P|514:236|508:259,1,90
395,339,174666,37,0,0:0:0:0:
313,194,174828,1,0,0:0:0:0:
207,322,174990,1,0,0:0:0:0:
207,322,175152,2,0,P|168:331|121:357,1,90
15,282,175477,2,0,L|15:189,1,90
67,84,175801,2,0,P|83:44|147:20,1,90
231,56,176125,2,0,P|279:64|327:63,1,90
453,33,176450,2,0,P|469:78|455:124,1,90
479,196,176774,2,0,P|375:220|343:164,1,180
297,284,177260,6,0,P|249:324|161:268,1,180
202,74,177747,2,0,P|154:178|98:202,1,180,4|0,0:0|0:0,0:0:0:0:
3,298,178233,1,0,0:0:0:0:
139,336,178396,2,0,L|238:348,1,90
360,339,178720,1,0,0:0:0:0:
421,222,178882,1,0,0:0:0:0:
365,102,179044,2,0,L|296:42,1,90
173,90,179369,2,0,P|117:130|173:202,1,180
240,184,179855,21,0,0:0:0:0:
296,320,180017,1,0,0:0:0:0:
352,176,180179,1,0,0:0:0:0:
440,304,180342,2,0,P|480:248|472:200,1,90
432,96,180666,2,0,L|328:80,1,90
221,32,180990,2,0,L|123:71,1,90
27,146,181314,2,0,P|11:194|27:250,1,90
121,326,181639,1,0,0:0:0:0:
223,185,181801,1,0,0:0:0:0:
312,352,181963,1,0,0:0:0:0:
400,192,182125,1,0,0:0:0:0:
256,192,182287,12,0,183260,0:0:0:0:
27,87,183585,6,8,P|43:167|35:199,1,90
174,177,183909,2,0,P|174:121|190:73,1,90,0|8,0:0|0:0,0:0:0:0:
310,92,184233,2,8,P|310:140|302:188,1,90
440,184,184558,2,0,P|440:136|464:88,1,90,0|8,0:0|0:0,0:0:0:0:
456,256,184882,2,8,P|440:304|440:352,1,90
310,332,185206,2,0,P|310:292|326:244,1,90,0|8,0:0|0:0,0:0:0:0:
224,64,185531,6,8,P|232:120|232:168,1,90
208,332,185855,2,0,P|224:276|224:228,1,90,0|8,0:0|0:0,0:0:0:0:
112,64,186179,2,8,P|120:136|112:168,1,90
96,336,186504,2,0,P|104:288|128:232,1,90,0|8,0:0|0:0,0:0:0:0:
0,272,186828,2,8,P|16:240|64:192,1,90
240,224,187152,2,0,P|184:200|152:184,1,90,0|8,0:0|0:0,0:0:0:0:
288,96,187477,37,8,0:0:0:0:
352,272,187639,1,0,0:0:0:0:
496,224,187801,1,8,0:0:0:0:
440,48,187963,1,8,0:0:0:0:
168,112,188125,6,4,L|120:144,2,45,4|8|8,0:0|0:0|0:0,0:0:0:0:
160,272,188450,2,0,L|208:320,2,45,0|8|8,0:0|0:0|0:0,0:0:0:0:
368,328,188774,2,8,L|400:280,2,45
303,169,189098,2,0,L|247:121,2,45,0|8|8,0:0|0:0|0:0,0:0:0:0:
468,193,189423,2,8,P|492:113|500:89,1,90
344,40,189747,2,0,L|360:104,2,45,0|8|8,0:0|0:0|0:0,0:0:0:0:
256,248,190071,2,8,L|272:152,1,90
192,48,190396,2,0,L|184:104,2,45,0|8|8,0:0|0:0|0:0,0:0:0:0:
80,136,190720,37,8,0:0:0:0:
128,280,190882,2,0,L|192:240,2,45,8|8|0,0:0|0:0|0:0,0:0:0:0:
282,166,191206,2,8,P|314:134|378:150,1,90
426,280,191531,2,0,L|434:344,2,45,8|8|0,0:0|0:0|0:0,0:0:0:0:
267,302,191855,2,8,P|211:350|171:358,1,90
104,232,192179,1,0,0:0:0:0:
64,80,192342,1,0,0:0:0:0:
200,48,192504,1,8,0:0:0:0:
240,200,192666,1,2,0:0:0:0:
360,267,192828,2,0,P|416:219|392:123,1,180
240,128,193314,22,0,P|296:88|344:88,1,90,4|4,0:0|0:0,0:0:0:0:
467,158,193639,1,0,0:0:0:0:
398,302,193801,1,0,0:0:0:0:
240,312,193963,2,0,P|248:264|272:200,1,90
111,194,194287,2,0,P|81:156|68:106,1,90
210,33,194612,1,0,0:0:0:0:
305,167,194774,1,0,0:0:0:0:
414,43,194936,1,0,0:0:0:0:
477,193,195098,2,0,P|477:257|437:305,1,90
313,285,195423,6,0,P|361:309|401:309,2,90
167,232,195909,2,0,P|127:192|135:152,1,90
259,60,196233,1,0,0:0:0:0:
428,81,196396,1,0,0:0:0:0:
486,235,196558,2,0,P|494:291|486:331,1,90
325,292,196882,2,0,L|229:260,1,90
85,288,197206,2,0,L|-11:320,1,90
0,159,197531,2,0,L|72:87,1,90
224,74,197855,1,0,0:0:0:0:
326,149,198017,102,0,P|390:149|366:245,1,180
222,254,198504,2,0,L|262:366,1,90
102,246,198828,2,0,L|62:350,1,90
0,188,199152,2,0,P|64:108|144:76,1,180
193,222,199639,1,0,0:0:0:0:
318,111,199801,2,0,P|326:167|318:215,2,90
474,113,200287,2,0,L|466:217,1,90
384,328,200612,5,0,0:0:0:0:
273,211,200774,1,0,0:0:0:0:
184,343,200936,1,0,0:0:0:0:
64,240,201098,2,0,P|88:176|120:144,1,90
213,47,201423,1,0,0:0:0:0:
297,188,201585,1,0,0:0:0:0:
440,118,201747,2,0,P|472:158|480:198,1,90
380,277,202071,2,0,P|412:325|412:365,1,90
249,260,202396,6,4,L|161:332,1,90
102,255,202720,2,4,L|14:319,1,90
0,178,203044,1,4,0:0:0:0:
120,128,203206,2,4,P|152:48|232:72,1,180
344,72,203693,6,0,P|368:144|368:184,1,90
384,256,204017,1,0,0:0:0:0:
288,336,204179,1,0,0:0:0:0:
213,249,204342,2,0,P|172:267|128:272,1,90
139,135,204666,1,0,0:0:0:0:
272,64,204828,1,0,0:0:0:0:
434,93,204990,2,0,P|458:141|458:189,1,90
330,238,205314,1,0,0:0:0:0:
206,222,205477,2,0,P|198:158|222:118,1,90
275,60,205801,5,0,0:0:0:0:
434,93,205963,1,0,0:0:0:0:
466,258,206125,1,0,0:0:0:0:
314,326,206287,2,0,P|258:358|202:358,1,90
127,227,206612,2,0,P|175:179|215:171,1,90
363,159,206936,2,0,L|347:263,1,90
233,361,207260,1,0,0:0:0:0:
94,284,207423,1,0,0:0:0:0:
137,133,207585,2,0,P|201:141|257:157,1,90
376,89,207909,2,0,P|422:97|472:114,1,90
499,236,208233,1,0,0:0:0:0:
386,282,208396,6,0,P|339:343|242:294,1,180
150,219,208882,2,0,L|181:135,1,90,4|0,0:0|0:0,0:0:0:0:
272,69,209206,1,0,0:0:0:0:
387,90,209369,1,0,0:0:0:0:
436,188,209531,2,0,P|406:237|367:257,1,90
264,224,209855,1,0,0:0:0:0:
168,148,210017,1,0,0:0:0:0:
101,53,210179,2,0,P|61:85|29:125,1,90
30,241,210504,2,0,P|14:297|110:337,1,180
230,295,210990,6,0,P|246:231|342:247,1,180
408,120,211477,2,0,L|304:80,1,90
224,104,211801,1,0,0:0:0:0:
120,152,211963,1,0,0:0:0:0:
120,264,212125,2,0,L|176:360,1,90
312,264,212450,2,0,L|264:368,1,90
421,313,212774,1,0,0:0:0:0:
502,191,212936,1,0,0:0:0:0:
431,74,213098,1,0,0:0:0:0:
303,84,213260,1,0,0:0:0:0:
218,175,213423,1,0,0:0:0:0:
93,116,213585,6,0,L|53:220,2,90,4|0|4,0:0|0:0|0:0,0:0:0:0:
201,247,214071,2,0,L|170:347,1,90
313,319,214396,2,0,P|337:287|345:231,1,90
450,160,214720,2,0,P|474:104|474:56,1,90
359,45,215044,1,0,0:0:0:0:
229,100,215206,1,0,0:0:0:0:
166,212,215369,2,0,P|214:260|254:268,1,90
368,296,215693,2,0,L|464:320,1,90
502,220,216017,1,0,0:0:0:0:
460,102,216179,38,0,L|380:158,1,90
277,115,216504,1,0,0:0:0:0:
171,54,216666,2,0,P|94:92|91:181,1,180
138,270,217152,1,0,0:0:0:0:
241,336,217314,2,0,P|297:280|329:280,1,90
401,254,217639,1,0,0:0:0:0:
476,150,217801,1,0,0:0:0:0:
379,40,217963,2,0,L|323:144,1,90
187,145,218287,2,0,L|227:49,1,90
85,63,218612,1,0,0:0:0:0:
27,182,218774,6,0,P|3:254|83:262,1,180
235,281,219260,2,4,L|323:265,1,90
416,216,219585,1,0,0:0:0:0:
440,120,219747,1,0,0:0:0:0:
343,75,219909,2,0,L|259:113,1,90
163,123,220233,2,0,L|51:91,1,90
44,190,220558,1,0,0:0:0:0:
116,300,220720,1,0,0:0:0:0:
250,324,220882,1,0,0:0:0:0:
384,307,221044,2,0,P|408:267|408:211,1,90
395,108,221369,5,0,0:0:0:0:
252,39,221531,1,0,0:0:0:0:
208,168,221693,1,0,0:0:0:0:
80,120,221855,2,0,P|96:192|120:216,1,90
192,272,222179,2,0,L|272:336,1,90
296,232,222504,2,0,L|376:296,1,90
456,240,222828,1,0,0:0:0:0:
456,144,222990,1,0,0:0:0:0:
336,24,223152,2,0,L|312:120,1,90
192,160,223477,2,0,L|112:104,1,90
256,192,223801,12,0,225423,0:0:0:0:
229,292,234828,6,0,L|166:217,1,90,4|0,0:0|0:0,0:0:0:0:
141,129,235152,2,0,L|207:66,1,90
301,78,235477,2,0,L|373:144,1,90
374,231,235801,2,0,L|314:307,1,90
229,292,236125,6,0,P|156:347|96:287,1,180,4|0,0:0|0:0,0:0:0:0:
54,183,236612,1,0,0:0:0:0:
148,78,236774,2,0,L|230:41,1,90
358,65,237098,2,0,L|425:125,1,90
439,242,237423,6,0,L|379:314,1,90,4|0,0:0|0:0,0:0:0:0:
254,331,237747,2,0,L|144:290,1,90
76,220,238071,2,0,L|86:129,1,90
193,60,238396,2,0,L|297:28,1,90
396,77,238720,69,0,0:0:0:0:
453,172,238882,2,0,L|449:219,1,45
402,278,239044,2,0,L|319:327,1,90
161,322,239369,2,0,L|66:274,1,90
36,192,239693,1,0,0:0:0:0:
20,152,239774,1,0,0:0:0:0:
28,112,239855,1,0,0:0:0:0:
60,88,239936,1,0,0:0:0:0:
96,75,240017,6,0,L|191:65,1,90
342,50,240342,2,0,L|436:111,1,90
388,261,240666,2,0,L|339:343,1,90
158,330,240990,2,0,L|91:268,1,90
116,80,241314,6,0,L|185:22,1,90,4|0,0:0|0:0,0:0:0:0:
377,60,241639,2,0,L|443:121,1,90
375,289,241963,2,0,L|301:354,1,90
129,304,242287,2,0,L|87:219,1,90
195,74,242612,6,0,L|279:40,1,90,4|0,0:0|0:0,0:0:0:0:
452,165,242936,2,0,L|430:266,1,90
249,326,243260,2,0,L|154:293,1,90
49,185,243585,2,0,L|74:90,1,90
232,30,243909,69,0,0:0:0:0:
380,91,244071,1,0,0:0:0:0:
380,91,244152,1,0,0:0:0:0:
380,91,244233,2,0,L|408:181,1,90
309,306,244558,2,0,L|216:338,1,90
77,241,244882,2,0,L|68:145,1,90
197,38,245206,54,2,L|291:61,1,90
397,97,245531,1,2,0:0:0:0:
512,131,245693,1,4,0:0:0:0:
