osu file format v14

[General]
AudioFilename: .mp3
AudioLeadIn: 0
PreviewTime: 78504
Countdown: 0
SampleSet: Normal
StackLeniency: 0.7
Mode: 0
LetterboxInBreaks: 0
WidescreenStoryboard: 0

[Editor]
Bookmarks: 2125
DistanceSpacing: 1.5
BeatDivisor: 4
GridSize: 8
TimelineZoom: 3.599999

[Metadata]
Title:Quan Yu Tian Xia
TitleUnicode:权御天下
Artist:Wu Gui
ArtistUnicode:乌龟
Creator:justatrip
Version:Expert
Source:
Tags:洛天依 Nardoxyribonucleic
BeatmapID:863930
BeatmapSetID:350481

[Difficulty]
HPDrainRate:8
CircleSize:4
OverallDifficulty:8
ApproachRate:9
SliderMultiplier:2
SliderTickRate:2

[Events]
//Background and Video events
0,0,"164007q01nnc91vhe9nhhe.png",0,0
//Break Periods
2,22271,32174
2,102704,112606
2,225623,234228
//Storyboard Layer 0 (Background)
//Storyboard Layer 1 (Fail)
//Storyboard Layer 2 (Pass)
//Storyboard Layer 3 (Foreground)
//Storyboard Sound Samples

[TimingPoints]
1315,324.324324324324,4,3,1,90,1,0
1639,-100,3,2,1,75,0,0
2287,-66.6666666666667,3,3,1,75,0,0
2855,-100,3,2,1,75,0,0
3585,-100,3,3,1,75,0,0
3909,-66.6666666666667,3,3,1,75,0,0
4152,-100,3,2,1,75,0,0
4882,-66.6666666666667,3,3,1,75,0,0
5369,-100,3,2,1,75,0,0
5531,-100,3,3,1,75,0,0
5693,-100,3,2,1,75,0,0
5855,-66.6666666666667,3,3,1,75,0,0
6017,-66.6666666666667,3,2,1,75,0,0
6179,-66.6666666666667,3,3,1,75,0,0
6342,-66.6666666666667,3,2,1,75,0,0
6504,-100,3,3,1,75,0,0
6666,-100,3,3,1,35,0,0
6747,-100,3,2,1,75,0,0
7477,-66.6666666666667,3,3,1,75,0,0
8044,-100,3,2,1,75,0,0
8612,-100,3,3,1,75,0,0
8774,-66.6666666666667,3,3,1,75,0,0
9098,-100,3,3,1,75,0,0
9342,-100,3,2,1,75,0,0
10071,-66.6666666666667,3,1,0,75,0,0
10396,-100,3,2,1,75,0,0
10558,-100,3,3,1,75,0,0
10639,-100,3,2,1,75,0,0
10720,-100,3,1,0,75,0,0
11044,-100,3,2,1,75,0,0
11693,-100,3,1,0,80,0,1
21909,-100,3,1,0,70,0,0
32936,-100,3,3,1,60,0,0
33423,-100,3,1,0,70,0,0
33585,-100,3,3,1,60,0,0
34071,-100,3,1,0,70,0,0
34233,-100,3,3,1,60,0,0
34720,-100,3,1,0,70,0,0
34882,-100,3,3,1,60,0,0
35369,-100,3,1,0,70,0,0
35531,-100,3,3,1,60,0,0
36017,-100,3,1,0,70,0,0
36179,-100,3,3,1,60,0,0
36666,-100,3,1,0,70,0,0
36828,-100,3,3,1,60,0,0
37314,-100,3,1,0,70,0,0
38125,-100,3,3,1,60,0,0
38612,-100,3,1,0,70,0,0
38774,-100,3,3,1,60,0,0
39260,-100,3,1,0,70,0,0
39423,-100,3,3,1,60,0,0
39909,-100,3,1,0,70,0,0
40071,-100,3,3,1,60,0,0
40558,-100,3,1,0,70,0,0
40720,-100,3,3,1,60,0,0
41206,-100,3,1,0,70,0,0
41369,-100,3,3,1,60,0,0
41855,-100,3,1,0,70,0,0
42017,-100,3,3,1,60,0,0
42504,-100,3,1,0,70,0,0
43963,-100,3,3,1,60,0,0
44450,-100,3,1,0,70,0,0
44612,-100,3,3,1,60,0,0
45098,-100,3,1,0,70,0,0
45260,-100,3,3,1,60,0,0
45747,-100,3,1,0,70,0,0
45909,-100,3,3,1,60,0,0
46396,-100,3,1,0,70,0,0
46558,-100,3,3,1,60,0,0
47044,-100,3,1,0,70,0,0
47206,-100,3,3,1,60,0,0
47531,-100,3,1,0,70,0,0
47693,-100,3,3,1,60,0,0
48017,-100,3,1,0,70,0,0
48179,-100,3,3,1,60,0,0
48990,-100,3,1,0,70,0,0
49152,-100,3,3,1,60,0,0
49639,-100,3,1,0,70,0,0
49801,-100,3,3,1,60,0,0
50287,-100,3,1,0,70,0,0
50450,-100,3,3,1,60,0,0
50936,-100,3,1,0,70,0,0
51098,-100,3,3,1,60,0,0
51585,-100,3,1,0,70,0,0
51747,-100,3,3,1,60,0,0
52071,-100,3,1,0,70,0,0
52882,-100,3,2,0,75,0,0
53531,-100,3,1,0,70,0,0
53693,-100,3,3,1,60,0,0
54179,-100,3,1,0,70,0,0
54342,-100,3,3,1,60,0,0
54828,-100,3,1,0,70,0,0
54990,-100,3,3,1,60,0,0
55477,-100,3,1,0,70,0,0
55639,-100,3,3,1,60,0,0
56125,-100,3,1,0,70,0,0
56287,-100,3,3,1,60,0,0
56774,-100,3,1,0,70,0,0
56936,-100,3,3,1,60,0,0
57423,-100,3,1,0,70,0,0
57585,-100,3,3,1,60,0,0
58071,-100,3,1,0,70,0,0
58882,-100,3,3,1,60,0,0
59369,-100,3,1,0,70,0,0
59531,-100,3,3,1,60,0,0
60017,-100,3,1,0,70,0,0
60179,-100,3,3,1,60,0,0
60666,-100,3,1,0,70,0,0
60828,-100,3,3,1,60,0,0
61314,-100,3,1,0,70,0,0
61477,-100,3,3,1,60,0,0
61963,-100,3,1,0,70,0,0
62125,-100,3,3,1,60,0,0
62612,-100,3,1,0,70,0,0
62774,-100,3,3,1,60,0,0
63260,-100,3,1,0,70,0,0
64071,-100,3,3,1,60,0,0
64558,-100,3,1,0,70,0,0
64720,-100,3,3,1,60,0,0
65206,-100,3,1,0,70,0,0
65369,-100,3,3,1,60,0,0
65855,-100,3,1,0,70,0,0
66017,-100,3,3,1,60,0,0
66504,-100,3,1,0,70,0,0
66666,-100,3,3,1,60,0,0
67152,-100,3,1,0,70,0,0
67314,-100,3,3,1,60,0,0
67801,-100,3,1,0,70,0,0
67963,-100,3,3,1,60,0,0
68450,-100,3,1,0,70,0,0
69260,-100,3,3,1,60,0,0
69747,-100,3,1,0,70,0,0
69909,-100,3,3,1,60,0,0
70396,-100,3,1,0,70,0,0
70558,-100,3,3,1,60,0,0
71044,-100,3,1,0,70,0,0
71206,-100,3,3,1,60,0,0
71693,-100,3,1,0,70,0,0
71855,-100,3,3,1,60,0,0
72342,-100,3,1,0,70,0,0
72504,-100,3,3,1,60,0,0
72990,-100,3,1,0,70,0,0
73152,-100,3,3,1,60,0,0
73639,-100,3,1,0,70,0,0
74287,-100,3,1,0,80,0,0
74612,-100,3,3,1,80,0,0
74936,-100,3,1,0,80,0,0
75260,-100,3,3,1,80,0,0
75585,-100,3,1,0,80,0,0
75747,-100,3,3,1,80,0,0
76882,-100,3,1,0,80,0,0
77044,-100,3,3,1,80,0,0
77531,-100,3,1,0,80,0,0
77693,-100,3,3,1,80,0,0
78179,-100,3,1,0,80,0,0
78342,-100,3,3,1,80,0,0
79477,-100,3,1,0,80,0,0
79639,-100,3,3,1,80,0,0
80125,-100,3,1,0,80,0,0
80287,-100,3,3,1,80,0,0
80450,-100,3,1,0,80,0,1
102828,-100,3,1,0,70,0,0
113206,-100,3,3,1,60,0,0
118071,-100,3,1,0,70,0,0
118396,-100,3,3,1,60,0,0
123260,-100,3,1,0,70,0,0
123423,-100,3,3,1,60,0,0
123585,-100,3,1,0,70,0,0
123747,-100,3,3,1,60,0,0
124233,-100,3,1,0,70,0,0
124396,-100,3,3,1,60,0,0
124882,-100,3,1,0,70,0,0
125044,-100,3,3,1,60,0,0
125531,-100,3,1,0,70,0,0
125693,-100,3,3,1,60,0,0
126179,-100,3,1,0,70,0,0
126342,-100,3,3,1,60,0,0
126828,-100,3,1,0,70,0,0
126990,-100,3,3,1,60,0,0
127477,-100,3,1,0,70,0,0
127639,-100,3,3,1,60,0,0
128125,-100,3,1,0,70,0,0
128936,-100,3,3,1,60,0,0
129423,-100,3,1,0,70,0,0
129585,-100,3,3,1,60,0,0
130071,-100,3,1,0,70,0,0
130233,-100,3,3,1,60,0,0
130720,-100,3,1,0,70,0,0
130882,-100,3,3,1,60,0,0
131369,-100,3,1,0,70,0,0
131531,-100,3,3,1,60,0,0
132017,-100,3,1,0,70,0,0
132179,-100,3,3,1,60,0,0
132666,-100,3,1,0,70,0,0
132828,-100,3,3,1,60,0,0
133314,-100,3,1,0,70,0,0
134125,-100,3,3,1,60,0,0
134612,-100,3,1,0,70,0,0
134774,-100,3,3,1,60,0,0
135260,-100,3,1,0,70,0,0
135423,-100,3,3,1,60,0,0
135909,-100,3,1,0,70,0,0
136071,-100,3,3,1,60,0,0
136558,-100,3,1,0,70,0,0
136720,-100,3,3,1,60,0,0
137206,-100,3,1,0,70,0,0
137369,-100,3,3,1,60,0,0
137855,-100,3,1,0,70,0,0
138017,-100,3,3,1,60,0,0
138504,-100,3,1,0,70,0,0
139314,-100,3,3,1,60,0,0
139801,-100,3,1,0,70,0,0
139963,-100,3,3,1,60,0,0
140450,-100,3,1,0,70,0,0
140612,-100,3,3,1,60,0,0
141098,-100,3,1,0,70,0,0
141260,-100,3,3,1,60,0,0
141747,-100,3,1,0,70,0,0
141909,-100,3,3,1,60,0,0
142396,-100,3,1,0,70,0,0
142558,-100,3,3,1,60,0,0
143044,-100,3,1,0,70,0,0
143206,-100,3,3,1,60,0,0
143693,-100,3,1,0,70,0,0
144666,-100,3,3,1,60,0,0
144990,-100,3,1,0,70,0,0
145152,-100,3,3,1,60,0,0
145639,-100,3,1,0,70,0,0
145801,-100,3,3,1,60,0,0
146287,-100,3,1,0,70,0,0
146612,-100,3,3,1,60,0,0
146936,-100,3,1,0,70,0,0
147098,-100,3,3,1,60,0,0
147585,-100,3,1,0,70,0,0
147747,-100,3,3,1,60,0,0
148233,-100,3,1,0,70,0,0
148396,-100,3,3,1,60,0,0
148882,-100,3,1,0,70,0,0
149855,-100,3,3,1,60,0,0
150179,-100,3,1,0,70,0,0
150342,-100,3,3,1,60,0,0
150828,-100,3,1,0,70,0,0
150990,-100,3,3,1,60,0,0
151477,-100,3,1,0,70,0,0
151639,-100,3,3,1,60,0,0
152125,-100,3,1,0,70,0,0
152287,-100,3,3,1,60,0,0
152774,-100,3,1,0,70,0,0
152936,-100,3,3,1,60,0,0
153423,-100,3,1,0,70,0,0
153585,-100,3,3,1,60,0,0
154071,-100,3,1,0,70,0,0
154720,-100,3,3,1,80,0,0
155369,-100,3,1,0,80,0,0
155531,-100,3,3,1,80,0,0
156017,-100,3,1,0,80,0,0
156179,-100,3,3,1,80,0,0
156666,-100,3,1,0,80,0,0
156828,-100,3,3,1,80,0,0
157314,-100,3,1,0,80,0,0
157477,-100,3,3,1,80,0,0
157963,-100,3,1,0,80,0,0
158125,-100,3,3,1,80,0,0
158612,-100,3,1,0,80,0,0
158774,-100,3,3,1,80,0,0
159260,-100,3,1,0,80,0,0
159423,-100,3,3,1,80,0,0
159909,-100,3,1,0,80,0,0
160071,-100,3,3,1,80,0,0
160882,-100,3,1,0,90,0,1
192666,-100,3,1,0,85,0,0
193314,-100,3,2,1,25,0,0
202396,-83.3333333333333,3,1,0,90,0,1
225423,-83.3333333333333,3,1,0,90,0,0
234828,-83.3333333333333,3,1,0,80,0,1
235801,-83.3333333333333,3,2,0,70,0,1
236125,-83.3333333333333,3,1,0,80,0,1
237098,-83.3333333333333,3,2,0,70,0,1
237423,-83.3333333333333,3,1,0,80,0,1
238396,-83.3333333333333,3,2,0,70,0,1
238720,-83.3333333333333,3,1,0,80,0,1
240990,-83.3333333333333,3,2,0,70,0,1
241314,-83.3333333333333,3,1,0,80,0,1
243747,-83.3333333333333,3,2,0,70,0,1
243909,-83.3333333333333,3,1,0,80,0,1
244558,-83.3333333333333,3,1,0,80,0,1
245206,-100,4,2,1,70,0,0

[Colours]
Combo1 : 255,128,64
Combo2 : 128,64,0
Combo3 : 0,0,128
Combo4 : 242,24,57
Combo5 : 255,192,0
Combo6 : 128,64,64
Combo7 : 0,255,255
Combo8 : 128,255,255

[HitObjects]
228,136,1315,6,0,P|204:198|306:262,1,200,8|0,0:0|0:0,0:0:0:0:
69,198,1801,1,0,0:0:0:0:
126,49,1963,1,0,0:0:0:0:
291,84,2125,1,0,0:0:0:0:
340,240,2287,2,0,P|243:242|189:273,1,150.000005722046
470,191,2612,1,0,0:0:0:0:
470,179,2855,2,0,L|420:134,1,50
276,88,3098,2,0,B|212:63|185:83|185:83|179:139|224:179,1,200
388,287,3585,6,8,L|357:237,1,50
328,265,3747,2,8,L|299:216,1,50
184,84,3909,2,0,P|236:65|289:190,1,225.000008583069,8|0,0:0|0:0,0:0:0:0:
114,315,4233,1,0,0:0:0:0:
41,186,4396,1,0,0:0:0:0:
184,84,4558,1,0,0:0:0:0:
301,209,4720,1,0,0:0:0:0:
166,324,4882,2,0,B|135:347|135:347|107:300|115:236,1,150.000005722046
171,42,5206,1,8,0:0:0:0:
324,68,5369,6,0,L|354:124,2,50
434,156,5693,1,0,0:0:0:0:
274,64,5855,2,0,P|238:133|259:206,1,150.000005722046
217,347,6179,2,0,P|238:258|204:211,1,150.000005722046
84,126,6504,6,0,P|120:65|160:37,1,100
268,35,6828,1,0,0:0:0:0:
362,124,6990,2,0,P|383:179|377:232,1,100
315,320,7314,1,0,0:0:0:0:
184,350,7477,2,0,P|144:310|156:200,1,150.000005722046
204,27,7801,1,8,0:0:0:0:
226,43,8044,2,0,L|270:87,1,50
389,178,8287,2,0,P|392:246|389:292,2,100,0|0|4,0:0|0:0|0:0,0:0:0:0:
259,246,8774,70,8,L|255:321,1,75.0000028610231
169,205,8936,2,8,L|179:119,1,75.0000028610231
63,65,9098,2,8,L|39:218,1,150
65,281,9423,1,0,0:0:0:0:
233,329,9585,2,0,P|304:323|344:340,1,100
459,315,9909,1,0,0:0:0:0:
493,207,10071,2,0,L|471:129,1,75.0000028610231
383,64,10233,2,0,L|369:137,1,75.0000028610231
326,208,10396,101,0,0:0:0:0:
178,223,10558,2,0,L|164:273,2,50
193,86,10882,1,0,0:0:0:0:
354,28,11044,1,0,0:0:0:0:
450,175,11206,1,0,0:0:0:0:
262,327,11369,1,0,0:0:0:0:
262,327,11693,6,0,P|323:287|309:217,1,150,4|0,0:0|0:0,0:0:0:0:
291,152,12017,1,0,0:0:0:0:
169,65,12179,2,0,P|145:121|153:161,1,100
193,308,12504,2,0,P|163:315|103:285,1,100
26,179,12828,1,0,0:0:0:0:
119,67,12990,2,0,P|163:59|217:81,1,100
273,136,13233,1,0,0:0:0:0:
273,136,13314,1,0,0:0:0:0:
344,270,13477,2,0,P|299:312|248:319,1,100
148,316,13801,1,0,0:0:0:0:
69,224,13963,2,0,P|57:176|77:131,1,100
216,59,14287,38,0,P|276:22|334:63,1,150
376,123,14612,1,0,0:0:0:0:
394,269,14774,2,0,P|361:312|314:316,1,100
200,298,15098,1,0,0:0:0:0:
89,222,15260,2,0,B|71:210|71:210|94:174|147:158,1,100
372,83,15585,1,0,0:0:0:0:
256,170,15747,2,0,L|282:216,2,50
379,319,16071,6,0,P|452:290|466:259,1,100
433,218,16396,1,0,0:0:0:0:
416,180,16477,1,0,0:0:0:0:
454,150,16558,1,0,0:0:0:0:
493,180,16639,1,0,0:0:0:0:
479,217,16720,1,0,0:0:0:0:
257,319,16882,38,0,L|142:347,1,100,4|0,0:0|0:0,0:0:0:0:
88,302,17125,1,0,0:0:0:0:
88,302,17206,1,0,0:0:0:0:
27,197,17369,2,0,P|33:154|69:109,1,100
171,50,17693,2,0,L|271:79,1,100
396,161,18017,1,0,0:0:0:0:
322,262,18179,6,0,P|245:314|177:304,1,150
132,271,18504,1,0,0:0:0:0:
57,165,18666,2,0,P|38:101|43:63,1,100
134,1,18990,1,0,0:0:0:0:
261,63,19152,2,0,P|301:117|296:154,1,100
170,251,19477,2,0,P|248:235|323:260,1,150
75,193,19801,2,0,P|80:126|99:100,1,100
245,87,20125,1,0,0:0:0:0:
287,235,20287,2,0,B|291:283|273:318|273:318|247:288,1,100
245,87,20612,1,0,0:0:0:0:
288,344,20774,1,0,0:0:0:0:
288,344,20936,22,0,L|320:296,1,50
321,183,21098,2,0,L|289:127,1,50
148,142,21260,2,0,L|111:196,1,50
90,308,21423,1,2,0:0:0:0:
395,244,21585,1,2,0:0:0:0:
5,213,21747,1,2,0:0:0:0:
0,216,22071,5,2,0:0:0:0:
309,153,32774,6,0,P|269:209|277:265,1,100
385,329,33098,2,0,L|449:233,1,100
492,123,33423,1,0,0:0:0:0:
355,31,33585,1,0,0:0:0:0:
267,152,33747,2,0,P|222:218|218:245,1,100
98,320,34071,1,0,0:0:0:0:
15,188,34233,2,0,L|-1:83,1,100
148,50,34558,54,0,P|208:31|244:42,1,100
379,197,34882,2,0,P|323:218|281:213,1,100
147,78,35206,2,0,P|214:49|249:55,1,100
395,223,35531,2,0,P|337:244|292:243,1,100
136,326,35855,2,0,L|119:277,1,50
141,289,36017,2,0,L|161:234,1,50
244,140,36179,2,0,P|255:92|243:44,1,100
137,92,36504,2,0,L|34:86,1,100
18,235,36828,6,0,P|10:291|42:347,2,100
177,213,37314,1,0,0:0:0:0:
161,173,37396,1,0,0:0:0:0:
153,125,37477,1,0,0:0:0:0:
177,77,37558,1,0,0:0:0:0:
209,45,37639,1,0,0:0:0:0:
375,63,37963,6,0,P|439:111|439:151,1,100
415,285,38287,2,0,L|327:354,1,100
182,332,38612,1,0,0:0:0:0:
31,297,38774,2,0,P|31:241|47:185,1,100
132,73,39098,2,0,B|172:113|172:113|188:177,1,100
350,214,39423,2,0,B|350:142|350:150|350:150|390:110,1,100
508,54,39747,6,0,B|502:102|502:102|496:165,1,100
429,302,40071,2,0,L|342:232,1,100
245,121,40396,2,0,B|181:185|181:185|173:217,1,100
59,286,40720,2,0,L|59:182,1,100
69,28,41044,2,0,B|119:13|119:13|182:11,1,100
327,53,41369,2,0,L|327:117,1,50
405,172,41531,2,0,L|405:244,1,50
351,301,41693,2,0,L|250:341,1,100
134,253,42017,6,0,P|102:189|118:157,1,100
264,91,42342,2,0,L|318:75,1,50
377,98,42504,1,0,0:0:0:0:
403,142,42585,1,0,0:0:0:0:
407,185,42666,1,0,0:0:0:0:
381,226,42747,1,0,0:0:0:0:
341,263,42828,2,0,P|236:281|141:256,1,200
36,183,43314,2,0,L|79:85,1,100
109,47,43558,1,0,0:0:0:0:
109,47,43639,1,0,0:0:0:0:
266,85,43801,38,0,B|260:149|247:182|247:182|232:209,1,100,0|8,0:0|0:0,0:0:0:0:
142,237,44125,2,8,P|238:213|278:237,1,150
345,265,44450,1,0,0:0:0:0:
497,274,44612,2,8,L|467:158,1,100
376,48,44936,1,8,0:0:0:0:
247,114,45098,2,8,L|215:212,1,100,0|8,0:0|0:0,0:0:0:0:
74,334,45423,54,8,L|177:308,1,100
237,280,45666,1,8,0:0:0:0:
237,280,45747,1,0,0:0:0:0:
400,344,45909,2,8,L|443:254,1,100
499,104,46233,2,0,P|434:76|402:101,1,100,8|0,0:0|0:0,0:0:0:0:
269,145,46558,2,8,L|189:81,1,100
70,183,46882,5,8,0:0:0:0:
70,183,46963,1,8,0:0:0:0:
70,183,47044,1,0,0:0:0:0:
193,313,47206,2,8,P|225:241|217:201,1,100
184,111,47531,1,0,0:0:0:0:
222,71,47612,1,0,0:0:0:0:
286,69,47693,1,0,0:0:0:0:
347,111,47774,1,0,0:0:0:0:
354,185,47855,1,0,0:0:0:0:
321,252,47936,1,0,0:0:0:0:
256,290,48017,1,0,0:0:0:0:
239,303,48260,38,0,L|197:258,1,50
58,113,48504,2,8,P|114:81|162:89,1,100
320,203,48828,2,0,P|334:262|298:301,1,100,8|0,0:0|0:0,0:0:0:0:
73,205,49152,1,8,0:0:0:0:
131,308,49314,22,8,L|226:268,1,100
296,190,49558,1,8,0:0:0:0:
296,190,49639,1,0,0:0:0:0:
461,131,49801,2,8,P|453:179|435:237,1,100
319,344,50125,1,8,0:0:0:0:
246,199,50287,1,0,0:0:0:0:
130,317,50450,1,8,0:0:0:0:
34,185,50612,6,8,B|66:121|26:81|50:65,1,100
199,22,50936,2,0,P|295:38|319:54,1,100,0|8,0:0|0:0,0:0:0:0:
445,113,51260,2,8,P|413:161|405:209,1,100
315,332,51585,2,0,P|259:308|219:316,1,100,0|8,0:0|0:0,0:0:0:0:
75,297,51909,6,0,P|59:273|59:185,1,100,8|0,0:0|0:0,0:0:0:0:
106,117,52152,2,0,L|166:124,1,50
267,234,52396,2,0,P|333:180|373:172,1,100
485,83,52720,1,0,0:0:0:0:
459,252,52882,2,4,L|498:343,2,100,4|0|4,0:0|0:0|0:0,0:0:0:0:
303,91,53531,6,0,L|415:43,1,100
451,197,53855,2,0,P|499:245|507:293,1,100
353,335,54179,1,0,0:0:0:0:
255,197,54342,1,0,0:0:0:0:
92,253,54504,2,0,P|88:197|110:151,1,100
206,30,54828,1,0,0:0:0:0:
345,120,54990,2,0,P|433:120|449:128,1,100
431,252,55314,101,0,0:0:0:0:
274,326,55477,2,0,L|162:326,1,100
50,201,55801,1,0,0:0:0:0:
163,77,55963,1,0,0:0:0:0:
319,127,56125,2,0,L|431:127,1,100
357,288,56450,2,0,L|237:288,1,100
97,218,56774,2,0,P|81:186|97:122,1,100
246,46,57098,2,0,P|286:94|310:134,1,100
433,215,57423,1,0,0:0:0:0:
297,296,57585,2,0,P|225:264|169:360,1,200
66,311,58071,1,0,0:0:0:0:
32,256,58152,1,0,0:0:0:0:
48,192,58233,1,0,0:0:0:0:
96,152,58314,1,0,0:0:0:0:
160,144,58396,1,0,0:0:0:0:
341,88,58720,6,0,P|381:120|389:168,2,100
175,78,59206,1,0,0:0:0:0:
63,200,59369,2,0,P|119:256|151:280,1,100
293,323,59693,1,0,0:0:0:0:
426,237,59855,2,0,P|466:165|458:133,1,100
319,87,60179,2,0,B|255:63|255:63|199:87,1,100
100,171,60504,38,0,L|7:124,2,100
248,216,60990,1,0,0:0:0:0:
405,260,61152,2,0,L|375:362,2,100
385,97,61639,1,0,0:0:0:0:
237,158,61801,2,0,L|135:199,1,100
8,119,62125,1,0,0:0:0:0:
153,48,62287,2,0,L|262:43,1,100
354,167,62612,1,0,0:0:0:0:
354,167,62774,2,0,P|362:231|266:311,1,200
164,291,63260,1,0,0:0:0:0:
116,259,63342,1,0,0:0:0:0:
84,219,63423,1,0,0:0:0:0:
68,163,63504,1,0,0:0:0:0:
76,107,63585,1,0,0:0:0:0:
325,43,63909,6,0,P|285:83|301:139,1,100
399,231,64233,2,0,L|399:335,1,100
236,333,64558,2,0,L|148:261,2,100
399,331,65044,2,0,L|488:283,1,100
424,142,65369,1,0,0:0:0:0:
256,43,65693,38,0,P|216:83|184:131,1,100
118,258,66017,2,0,L|214:306,1,100
356,346,66342,2,0,L|405:251,1,100
364,109,66666,2,0,P|300:85|252:101,1,100
98,119,66990,6,0,P|130:199|154:215,1,100
225,338,67314,1,0,0:0:0:0:
323,214,67477,2,0,L|363:150,2,50
423,339,67801,1,0,0:0:0:0:
494,185,67963,2,0,P|518:129|486:89,1,100
357,16,68287,1,0,0:0:0:0:
205,107,68450,2,0,P|188:173|207:213,2,100
96,40,68936,69,0,0:0:0:0:
22,186,69098,2,0,P|6:242|22:298,1,100
163,359,69423,2,0,L|267:343,1,100
283,168,69747,2,0,L|289:102,1,50
353,166,69909,2,0,L|353:230,1,50
483,308,70071,2,0,L|459:252|467:196,1,100
478,47,70396,1,0,0:0:0:0:
308,64,70558,2,0,P|261:59|226:103,1,100
178,234,70882,6,0,L|242:330,1,100
398,340,71206,1,0,0:0:0:0:
474,203,71369,1,0,0:0:0:0:
410,63,71531,2,0,L|311:55,1,100
145,66,71855,2,0,L|145:170,1,100
221,273,72179,86,0,P|285:329|317:337,1,100
450,269,72504,2,0,P|482:197|474:173,1,100
421,43,72828,2,0,P|349:27|315:30,1,100
193,136,73152,2,0,P|177:232|177:248,1,100
56,350,73477,1,4,0:0:0:0:
42,183,73639,2,4,P|27:129|3:81,2,100
239,51,74287,101,0,0:0:0:0:
448,176,74612,2,0,P|456:288|368:320,2,200,8|0|8,0:0|0:0|0:0,0:0:0:0:
276,60,75423,2,0,P|233:85|184:88,1,100,8|0,0:0|0:0,0:0:0:0:
80,224,75747,2,8,P|80:296|104:344,1,100
296,304,76071,2,8,P|304:232|328:192,1,100
447,59,76558,5,8,0:0:0:0:
316,208,76720,2,0,L|215:220,1,100,8|0,0:0|0:0,0:0:0:0:
22,272,77044,1,8,0:0:0:0:
59,82,77206,2,8,L|163:34,1,100
338,115,77531,1,0,0:0:0:0:
281,301,77693,2,8,L|169:293,1,100
5,195,78017,1,8,0:0:0:0:
152,72,78179,2,0,L|256:64,1,100,0|8,0:0|0:0,0:0:0:0:
152,72,78504,6,8,P|144:144|160:208,1,100
256,360,78828,2,8,P|280:264|280:240,1,100
304,96,79152,2,8,L|416:80,1,100
504,176,79477,1,0,0:0:0:0:
440,288,79639,2,8,L|320:304,1,100
342,156,79963,1,8,0:0:0:0:
192,72,80125,2,0,P|216:128|224:192,1,100,0|8,0:0|0:0,0:0:0:0:
199,290,80450,1,0,0:0:0:0:
152,255,80531,1,0,0:0:0:0:
109,294,80612,1,0,0:0:0:0:
23,201,80774,1,0,0:0:0:0:
41,143,80855,1,0,0:0:0:0:
96,114,80936,1,0,0:0:0:0:
157,133,81017,1,0,0:0:0:0:
196,180,81098,1,0,0:0:0:0:
246,290,81260,6,4,P|310:258|358:138,1,200
196,180,81747,2,4,L|236:60|236:60,1,100
376,48,82071,1,0,0:0:0:0:
504,136,82233,2,0,P|512:232|504:264,1,100
392,320,82558,1,0,0:0:0:0:
256,240,82720,2,0,L|168:296,1,100
60,164,83044,2,0,P|24:198|7:245,2,100
193,53,83531,2,0,P|209:141|193:181,1,100
367,183,83855,70,0,L|415:191|471:231,2,100
264,298,84342,2,0,P|200:346|184:362,1,100
54,248,84666,1,0,0:0:0:0:
22,192,84747,1,0,0:0:0:0:
54,136,84828,1,0,0:0:0:0:
202,58,84990,2,0,L|237:155,1,100
322,287,85314,2,0,P|362:271|394:207,2,100
241,148,85801,2,0,P|205:202|165:226,1,100
15,191,86125,2,0,P|38:148|82:112,1,100
184,128,86450,5,0,0:0:0:0:
227,84,86531,1,0,0:0:0:0:
280,59,86612,1,0,0:0:0:0:
334,66,86693,1,0,0:0:0:0:
382,96,86774,1,0,0:0:0:0:
415,137,86855,1,0,0:0:0:0:
480,160,86936,2,0,P|472:264|376:304,1,200,4|0,0:0|0:0,0:0:0:0:
232,316,87423,1,0,0:0:0:0:
108,206,87585,2,0,P|68:118|108:30,1,200
266,77,88071,2,0,P|322:149|322:173,1,100
188,238,88396,1,0,0:0:0:0:
19,248,88558,2,0,P|-5:304|11:360,2,100
92,120,89044,5,0,0:0:0:0:
249,54,89206,1,0,0:0:0:0:
377,156,89369,1,0,0:0:0:0:
283,298,89531,2,0,P|224:317|188:301,1,100
30,277,89855,2,0,L|-2:213,1,50
66,153,90017,2,0,L|34:105,1,50
186,28,90179,2,0,P|210:156|162:180,1,200
163,330,90666,2,0,L|259:267,1,100
367,161,90990,1,0,0:0:0:0:
403,199,91071,1,0,0:0:0:0:
381,244,91152,1,0,0:0:0:0:
246,275,91314,2,0,P|246:219|214:187,1,100
76,105,91639,6,4,L|-11:202,2,100
236,61,92125,2,0,P|324:31|433:56,1,200,4|0,0:0|0:0,0:0:0:0:
284,165,92612,1,0,0:0:0:0:
149,252,92774,2,0,P|125:332|125:364,1,100
299,351,93098,2,0,P|323:311|339:239,1,100
396,100,93423,1,0,0:0:0:0:
236,41,93585,1,0,0:0:0:0:
81,118,93747,2,0,P|63:165|85:217,1,100
325,293,94233,6,0,P|381:253|501:285,1,200
451,137,94720,2,0,L|404:40|404:40,1,100
243,51,95044,1,0,0:0:0:0:
131,172,95206,2,0,L|62:259,2,100
303,147,95693,1,0,0:0:0:0:
417,259,95855,2,0,P|363:290|329:267,1,100
163,262,96179,2,0,P|187:326|155:358,1,100
12,298,96504,2,0,P|2:247|12:194,1,100
105,133,96828,85,0,0:0:0:0:
137,85,96909,1,0,0:0:0:0:
193,61,96990,1,0,0:0:0:0:
249,61,97071,1,0,0:0:0:0:
297,101,97152,1,0,0:0:0:0:
426,146,97314,38,0,P|490:234|458:322,1,200,4|0,0:0|0:0,0:0:0:0:
302,322,97801,1,0,0:0:0:0:
152,273,97963,2,0,P|136:241|136:177,1,100
272,96,98287,2,0,P|312:80|328:24,1,100
160,33,98612,2,0,P|80:17|40:25,2,100
135,177,99098,2,0,L|236:188,1,100
350,84,99423,37,0,0:0:0:0:
512,69,99585,1,0,0:0:0:0:
443,220,99747,1,0,0:0:0:0:
292,269,99909,2,0,P|308:325|300:389,1,100
155,313,100233,2,0,L|131:209,1,100
268,128,100558,2,0,P|244:64|196:56,1,100
64,50,100882,1,0,0:0:0:0:
42,211,101044,1,0,0:0:0:0:
192,240,101206,2,0,P|184:304|216:352,2,100
301,110,101693,1,0,0:0:0:0:
386,232,101855,5,0,0:0:0:0:
346,263,101936,1,0,0:0:0:0:
291,264,102017,1,0,0:0:0:0:
237,237,102098,1,0,0:0:0:0:
216,185,102179,1,0,0:0:0:0:
221,129,102260,1,0,0:0:0:0:
258,82,102342,1,0,0:0:0:0:
316,57,102423,1,0,0:0:0:0:
371,72,102504,1,0,0:0:0:0:
320,40,113206,6,8,P|280:128|312:224,1,200
488,224,113693,2,8,L|480:296,1,50
440,328,113855,2,8,P|384:304|336:312,1,100
272,304,114098,2,8,L|224:344,1,50
89,261,114342,2,8,L|185:189,1,100
269,74,114666,2,8,P|325:42|369:60,1,100
449,179,114990,6,8,L|489:227,2,50
253,144,115314,2,8,L|219:181,2,50
321,306,115639,2,8,L|201:306,2,100
455,258,116125,5,8,0:0:0:0:
450,98,116287,2,8,L|498:58,2,50
290,105,116612,2,8,L|280:156,1,50
244,232,116774,2,8,L|172:304|172:304,1,100
7,310,117098,1,8,0:0:0:0:
40,145,117260,2,8,P|32:89|16:49,1,100
171,53,117585,2,8,L|235:21,2,50
241,210,117909,2,8,L|297:178,2,50,8|8|0,0:0|0:0|0:0,0:0:0:0:
455,183,118396,6,8,P|479:101|487:69,2,100
326,297,118882,2,8,L|276:322,2,50
215,183,119206,2,8,L|271:148,2,50
114,64,119531,2,8,L|170:24,2,50
56,207,119855,2,8,P|64:271|48:303,1,100
209,257,120179,70,8,L|261:276,2,50
281,119,120504,2,8,L|332:151,2,50
137,61,120828,1,8,0:0:0:0:
36,193,120990,1,8,0:0:0:0:
190,274,121152,2,8,P|198:237|182:169,1,100
320,84,121477,2,8,L|328:20,2,50
450,204,121801,2,8,L|498:156,2,50
319,317,122125,2,8,L|183:293,1,100
74,222,122450,6,8,P|58:302|66:334,1,100
198,229,122774,1,8,0:0:0:0:
298,109,122936,2,8,P|312:161|306:213,1,100
372,43,123260,6,8,L|428:139,1,100,4|8,0:0|0:0,0:0:0:0:
385,326,123585,2,0,L|457:246,1,100
306,206,123909,2,0,P|255:163|226:138,1,100
84,67,124233,1,0,0:0:0:0:
25,212,124396,1,0,0:0:0:0:
182,277,124558,2,0,P|174:373|182:405,2,100
229,141,125044,2,0,L|329:107,1,100
453,229,125369,6,0,P|461:285|461:341,2,100
312,313,125855,1,0,0:0:0:0:
158,231,126017,2,0,P|134:151|142:119,2,100
297,124,126504,1,0,0:0:0:0:
416,37,126666,2,0,P|461:100|461:121,1,100
421,231,126990,1,0,0:0:0:0:
294,245,127152,2,0,P|278:309|278:357,1,100
150,323,127477,1,0,0:0:0:0:
56,275,127639,2,0,P|34:206|50:169,1,100
90,87,127963,1,0,0:0:0:0:
200,54,128125,2,4,P|272:102|384:110,1,200
202,193,128774,54,0,P|186:305|186:345,1,150
288,345,129098,2,0,P|282:272|296:185,1,150
319,39,129423,1,0,0:0:0:0:
147,63,129585,1,0,0:0:0:0:
65,207,129747,2,0,P|49:255|41:311,2,100
234,228,130233,2,0,P|237:178|252:130,1,100
383,50,130558,101,0,0:0:0:0:
496,160,130720,1,0,0:0:0:0:
426,302,130882,2,0,L|330:246,1,100
253,97,131206,1,0,0:0:0:0:
128,204,131369,1,0,0:0:0:0:
234,325,131531,2,0,L|114:373,1,100
79,224,131855,2,0,P|119:152|151:144,1,100
258,49,132179,1,0,0:0:0:0:
398,125,132342,2,0,P|438:85|502:61,2,100
257,187,132828,2,0,P|207:261|266:350,1,200
391,238,133314,2,0,P|385:309|359:358,2,100
315,183,133963,70,0,P|339:127|403:47,1,150
392,56,134287,2,0,P|296:40|223:50,1,150
69,70,134612,2,0,L|-19:162,2,100
128,210,135098,2,0,L|160:306,1,100
322,323,135423,1,0,0:0:0:0:
382,212,135585,1,0,0:0:0:0:
261,103,135747,85,0,0:0:0:0:
128,210,135909,2,0,L|125:276,2,50
285,310,136233,1,0,0:0:0:0:
426,215,136396,1,0,0:0:0:0:
282,105,136558,2,0,L|282:161,2,50
156,27,136882,1,0,0:0:0:0:
75,125,137044,6,0,P|35:165|3:197,1,100
139,273,137369,2,0,L|187:233,1,50
263,276,137531,2,0,L|191:348,2,100
240,120,138017,2,0,P|304:64|328:32,1,100
472,39,138342,1,0,0:0:0:0:
472,208,138504,2,0,P|345:179|275:186,1,200
104,48,139152,6,0,P|72:152|80:192,1,150
152,192,139477,2,0,P|172:314|201:331,1,150
276,310,139801,2,0,P|356:270|388:246,2,100
262,214,140287,2,0,P|294:134|310:110,2,100
132,115,140774,1,0,0:0:0:0:
28,238,140936,37,0,0:0:0:0:
146,333,141098,2,0,P|202:365|255:334,1,100
357,256,141423,1,0,0:0:0:0:
476,154,141585,2,0,P|486:107|474:57,1,100
300,49,141909,2,0,P|324:105|324:153,1,100
191,220,142233,6,0,P|183:140|199:116,2,100
348,255,142720,1,0,0:0:0:0:
348,255,142882,2,0,P|332:327|332:359,1,100
171,330,143206,2,0,P|115:346|51:346,1,100
24,184,143531,1,0,0:0:0:0:
148,86,143693,1,0,0:0:0:0:
186,57,143774,1,0,0:0:0:0:
238,49,143855,1,0,0:0:0:0:
283,72,143936,1,0,0:0:0:0:
314,114,144017,1,0,0:0:0:0:
249,259,144342,6,0,P|150:294|69:225,1,200
102,84,144828,1,0,0:0:0:0:
273,77,144990,2,0,B|313:45|329:93|385:69,1,100
486,179,145314,2,0,L|438:275,1,100
274,283,145639,1,0,0:0:0:0:
107,290,145801,2,0,P|91:210|51:186,1,100
109,72,146125,6,0,P|173:56|213:56,2,100
80,200,146612,1,0,0:0:0:0:
236,229,146774,2,0,P|308:197|356:197,2,100
338,345,147260,1,0,0:0:0:0:
483,293,147423,1,0,0:0:0:0:
450,135,147585,2,0,P|466:79|434:23,1,100
285,31,147909,2,0,P|222:45|190:69,1,100
66,153,148233,1,0,0:0:0:0:
185,241,148396,2,0,B|204:275|204:275|148:307|148:307|196:291|212:347|196:371,1,200
361,346,148882,1,0,0:0:0:0:
401,314,148963,1,0,0:0:0:0:
409,266,149044,1,0,0:0:0:0:
385,218,149125,1,0,0:0:0:0:
353,178,149206,1,0,0:0:0:0:
184,48,149531,6,0,P|112:96|128:200,1,200
246,293,150017,1,0,0:0:0:0:
329,162,150179,2,0,L|409:66,1,100
484,210,150504,2,0,B|504:247|504:247|455:288,1,100
294,237,150828,1,0,0:0:0:0:
138,190,150990,2,0,B|106:150|162:126|138:86,1,100
275,54,151314,6,0,L|410:32,1,100
492,149,151639,1,0,0:0:0:0:
404,283,151801,1,0,0:0:0:0:
237,268,151963,2,0,P|173:292|149:324,1,100
6,229,152287,2,0,P|-10:165|16:120,1,100
152,74,152612,2,0,P|232:50|256:58,2,100
192,229,153098,2,0,B|164:269|164:269|204:301,1,100
369,259,153423,1,0,0:0:0:0:
332,90,153585,2,0,P|292:122|236:106,1,100
106,201,153909,1,0,0:0:0:0:
243,275,154071,1,0,0:0:0:0:
275,323,154152,1,0,0:0:0:0:
331,347,154233,1,0,0:0:0:0:
387,331,154314,1,0,0:0:0:0:
435,291,154396,1,0,0:0:0:0:
241,61,154720,86,8,P|289:45|353:69,1,100
222,156,155044,2,8,P|222:204|271:242,1,100
399,140,155369,2,0,P|405:182|360:231,1,100,0|8,0:0|0:0,0:0:0:0:
254,326,155693,2,8,P|254:366|238:406,2,50
86,288,156017,1,0,0:0:0:0:
150,143,156179,2,8,P|223:131|297:161,2,150,8|8|0,0:0|0:0|0:0,0:0:0:0:
53,294,156990,5,8,0:0:0:0:
239,273,157152,2,0,L|330:316,1,100,8|0,0:0|0:0,0:0:0:0:
474,183,157477,1,8,0:0:0:0:
310,81,157639,2,8,L|210:103,1,100
59,227,157963,1,0,0:0:0:0:
218,341,158125,2,8,L|346:333,1,100
445,200,158450,1,8,0:0:0:0:
279,115,158612,2,0,L|191:66,1,100,0|8,0:0|0:0,0:0:0:0:
69,87,158936,70,8,P|33:149|78:213,1,150
71,210,159260,2,8,P|141:213|199:205,1,100,0|8,0:0|0:0,0:0:0:0:
334,246,159585,2,8,P|390:238|446:262,2,100,8|8|0,0:0|0:0|0:0,0:0:0:0:
352,68,160071,2,8,L|231:114,1,100
227,263,160396,1,8,0:0:0:0:
72,322,160558,2,8,P|48:269|47:227,1,100
92,81,160882,2,0,L|146:46,2,50
288,100,161206,1,0,0:0:0:0:
346,118,161287,1,0,0:0:0:0:
375,173,161368,1,0,0:0:0:0:
356,234,161449,1,0,0:0:0:0:
309,273,161530,1,0,0:0:0:0:
166,316,161693,6,0,P|115:264|149:140,1,200
288,100,162179,2,0,P|280:188|264:220,1,100,4|0,0:0|0:0,0:0:0:0:
223,347,162504,2,0,P|247:347|284:364,2,50
97,262,162828,2,0,P|65:334|33:358,1,100
0,194,163152,1,0,0:0:0:0:
108,74,163314,1,0,0:0:0:0:
237,174,163477,1,0,0:0:0:0:
366,261,163639,1,0,0:0:0:0:
417,95,163801,2,0,P|465:71|521:71,2,100
267,164,164287,6,0,P|250:212|237:270,2,100
136,54,164774,2,0,P|144:102|144:166,1,100
131,301,165098,1,0,0:0:0:0:
294,347,165260,1,0,0:0:0:0:
436,332,165423,2,0,B|433:338|436:313|449:234,1,100
348,105,165747,2,0,P|380:73|396:1,2,100
227,218,166233,1,0,0:0:0:0:
62,108,166396,1,0,0:0:0:0:
73,263,166558,1,0,0:0:0:0:
226,60,166720,1,0,0:0:0:0:
376,45,166882,6,0,P|408:109|408:157,1,100
328,256,167206,1,0,0:0:0:0:
487,207,167369,2,0,P|503:271|487:311,1,100,4|0,0:0|0:0,0:0:0:0:
328,256,167693,2,0,P|344:304|384:336,2,100
286,87,168179,1,0,0:0:0:0:
132,156,168342,2,0,P|140:220|124:260,2,100
17,45,168828,1,0,0:0:0:0:
0,203,168990,1,0,0:0:0:0:
114,315,169152,2,0,P|157:322|214:338,1,100
321,244,169477,6,0,L|282:202,1,50
144,224,169639,2,0,L|200:192,1,50
248,96,169801,2,0,L|240:160,1,50
94,34,169963,2,0,L|76:86|86:138,1,100
144,268,170287,2,0,P|193:290|247:273,2,100
280,154,170774,1,0,0:0:0:0:
329,285,170936,102,0,P|385:301|449:301,2,100
280,154,171423,1,0,0:0:0:0:
248,98,171504,1,0,0:0:0:0:
192,82,171585,1,0,0:0:0:0:
128,74,171666,1,0,0:0:0:0:
72,106,171747,1,0,0:0:0:0:
48,170,171828,1,0,0:0:0:0:
64,234,171909,2,0,L|112:274,1,50
224,280,172071,86,0,B|304:280|304:280|304:280|408:344,1,200
482,209,172558,2,0,P|482:113|402:49,1,200,4|0,0:0|0:0,0:0:0:0:
239,40,173044,1,0,0:0:0:0:
83,79,173206,2,0,B|11:135|11:135|11:119|27:143|35:231,1,200
173,301,173693,1,0,0:0:0:0:
335,346,173855,2,0,B|311:258|311:258|295:250|303:274|399:218,1,200
385,58,174342,2,0,P|346:76|287:96,1,100
158,92,174666,5,0,0:0:0:0:
100,240,174828,1,0,0:0:0:0:
262,222,174990,1,0,0:0:0:0:
184,336,175152,2,0,B|168:232|168:232|269:222,1,200
393,313,175639,1,0,0:0:0:0:
482,180,175801,2,0,P|437:83|351:77,1,200
209,122,176287,1,0,0:0:0:0:
94,243,176450,2,0,P|190:273|294:251,1,200
410,149,176936,2,0,L|454:245,1,100
287,337,177260,5,0,0:0:0:0:
127,328,177423,1,0,0:0:0:0:
213,194,177585,1,0,0:0:0:0:
63,156,177747,2,0,P|83:82|201:40,1,200,4|0,0:0|0:0,0:0:0:0:
274,178,178233,2,0,P|306:210|330:274,1,100
174,335,178558,1,0,0:0:0:0:
31,242,178720,6,0,P|39:290|23:362,2,100
144,127,179206,1,0,0:0:0:0:
266,24,179369,1,0,0:0:0:0:
398,121,179531,1,0,0:0:0:0:
235,228,179855,38,0,P|203:212|179:212,1,50
179,356,180017,2,0,P|195:348|227:308,1,50
99,260,180179,2,0,P|83:292|91:340,1,50
17,250,180342,6,0,P|-17:177|45:74,1,200
207,80,180828,1,0,0:0:0:0:
368,122,180990,2,0,B|406:176|406:176|380:213,1,100
232,272,181314,2,0,P|232:312|272:360,2,100
112,208,181801,1,0,0:0:0:0:
136,160,181882,1,0,0:0:0:0:
176,128,181963,1,0,0:0:0:0:
224,120,182044,1,0,0:0:0:0:
272,144,182125,1,0,0:0:0:0:
312,176,182206,1,0,0:0:0:0:
384,208,182287,6,0,L|368:264,1,50
320,320,182450,2,0,L|256:296,1,50
192,272,182612,2,0,P|184:216|184:208,1,50
224,144,182774,2,0,L|264:104,1,50
216,40,182936,2,0,B|152:32|152:32|104:24,1,100
80,112,183260,102,0,B|32:152|32:152|64:192,1,100
213,239,183585,2,0,P|245:295|261:359,1,100
413,337,183909,1,0,0:0:0:0:
489,199,184071,2,0,P|488:133|457:87,1,100
320,92,184396,1,0,0:0:0:0:
155,63,184558,2,0,P|115:47|43:63,1,100
34,191,184882,6,0,P|68:203|91:212,1,50
176,223,185044,2,0,L|219:182|269:153,1,100
420,195,185369,2,0,P|420:243|372:275,1,100
228,345,185693,1,0,0:0:0:0:
74,289,185855,2,0,L|27:190,1,100
92,63,186179,5,0,0:0:0:0:
241,116,186342,1,0,0:0:0:0:
268,261,186504,2,0,P|292:317|332:357,1,100
441,248,186828,1,0,0:0:0:0:
462,75,186990,1,0,0:0:0:0:
308,82,187152,2,0,P|260:114|196:114,1,100
351,258,187477,6,0,P|351:298|335:338,1,50
299,339,187639,1,0,0:0:0:0:
251,315,187720,1,0,0:0:0:0:
219,275,187801,1,0,0:0:0:0:
203,227,187882,1,0,0:0:0:0:
219,179,187963,1,0,0:0:0:0:
252,143,188044,1,0,0:0:0:0:
282,50,188125,6,0,L|342:64,2,50
356,215,188450,2,0,L|401:235,2,50
245,338,188774,2,0,L|189:305,2,50
58,206,189098,2,0,L|26:258,2,50
178,91,189423,2,0,L|286:102,1,100
421,175,189747,38,0,L|425:297,1,100
275,321,190071,1,0,0:0:0:0:
275,321,190152,1,0,0:0:0:0:
275,321,190233,1,0,0:0:0:0:
117,206,190396,1,0,0:0:0:0:
120,211,190477,1,0,0:0:0:0:
120,211,190558,1,0,0:0:0:0:
237,88,190720,2,0,L|281:62,1,50
355,71,190882,2,0,L|383:114,1,50
418,178,191044,1,0,0:0:0:0:
273,252,191206,70,0,L|273:324,1,50
180,309,191369,2,0,L|132:349,1,50
52,318,191531,1,0,0:0:0:0:
120,158,191693,2,0,P|56:166|16:198,2,100
253,142,192179,85,0,0:0:0:0:
259,94,192260,1,0,0:0:0:0:
290,51,192342,1,0,0:0:0:0:
332,25,192423,1,0,0:0:0:0:
383,29,192504,1,0,0:0:0:0:
422,58,192585,1,0,0:0:0:0:
487,133,192666,2,2,B|479:181|479:181|487:189|487:189|471:205|471:205|479:229,1,100
371,312,192990,1,0,0:0:0:0:
319,302,193071,1,0,0:0:0:0:
273,307,193152,1,0,0:0:0:0:
228,335,193233,1,0,0:0:0:0:
173,316,193314,38,4,P|171:264|197:220,1,100
308,106,193639,2,0,P|292:50|300:2,2,100
124,91,194125,1,0,0:0:0:0:
48,209,194287,2,0,P|32:281|56:321,2,100
66,31,194774,1,0,0:0:0:0:
225,111,194936,2,0,B|241:167|241:167|217:175|217:223,2,100
105,161,195423,5,0,0:0:0:0:
175,330,195585,1,0,0:0:0:0:
313,242,195747,1,0,0:0:0:0:
442,150,195909,2,0,P|490:198|490:238,1,100
345,344,196233,1,0,0:0:0:0:
197,281,196396,1,0,0:0:0:0:
44,215,196558,2,0,P|25:150|48:102,1,100
154,52,196882,102,0,P|210:31|265:55,2,100
254,179,197369,1,0,0:0:0:0:
406,78,197531,1,0,0:0:0:0:
483,216,197693,1,0,0:0:0:0:
393,345,197855,1,0,0:0:0:0:
256,287,198017,6,0,P|192:255|160:255,3,100
85,114,198666,1,0,0:0:0:0:
0,242,198828,2,0,P|8:314|40:346,2,100
113,130,199314,1,0,0:0:0:0:
275,112,199477,1,0,0:0:0:0:
409,195,199639,2,0,P|409:275|393:323,1,100
250,330,199963,1,0,0:0:0:0:
107,293,200125,2,0,P|87:320|17:310,2,100
220,210,200612,101,0,0:0:0:0:
152,64,200774,1,0,0:0:0:0:
299,6,200936,1,0,0:0:0:0:
427,102,201098,2,0,P|419:190|419:222,1,100
266,267,201423,2,0,P|298:315|298:363,2,100
145,166,201909,1,0,0:0:0:0:
221,30,202071,2,0,P|261:22|301:38,2,50
86,105,202396,21,4,0:0:0:0:
60,266,202558,1,4,0:0:0:0:
209,344,202720,1,4,0:0:0:0:
284,201,202882,1,4,0:0:0:0:
425,168,203044,22,4,L|412:110,1,59.9999981689454
310,146,203206,2,4,L|284:201,1,59.9999981689454
190,130,203369,2,4,L|171:63,1,59.9999981689454
82,153,203531,2,4,L|94:215,1,59.9999981689454
100,334,203693,6,0,P|155:344|227:322,1,119.999996337891,4|0,0:0|0:0,0:0:0:0:
368,271,204017,1,0,0:0:0:0:
430,116,204179,1,0,0:0:0:0:
272,68,204342,2,0,P|288:108|240:180,1,119.999996337891
90,216,204666,2,0,P|98:296|146:336,2,119.999996337891
144,62,205152,1,0,0:0:0:0:
308,93,205314,2,0,P|340:109|412:165,2,119.999996337891
134,75,205801,5,0,0:0:0:0:
175,224,205963,1,0,0:0:0:0:
308,311,206125,1,0,0:0:0:0:
444,181,206287,2,0,P|460:253|428:301,1,119.999996337891
298,190,206612,1,0,0:0:0:0:
152,240,206774,1,0,0:0:0:0:
152,240,206936,2,0,P|160:184|184:112,1,119.999996337891
336,32,207260,2,0,P|320:96|352:160,2,119.999996337891
473,86,207747,69,0,0:0:0:0:
477,244,207909,1,0,0:0:0:0:
338,144,208071,1,0,0:0:0:0:
316,306,208233,1,0,0:0:0:0:
168,272,208396,6,0,L|104:320,1,59.9999981689454
32,256,208558,2,0,L|48:168,1,59.9999981689454
88,96,208720,2,0,L|160:80,1,59.9999981689454
248,152,208882,2,0,L|352:88,1,119.999996337891,4|0,0:0|0:0,0:0:0:0:
461,183,209206,86,0,P|485:247|477:311,2,119.999996337891
352,208,209693,1,0,0:0:0:0:
256,296,209855,2,0,P|312:328|376:336,2,119.999996337891
111,235,210342,2,0,P|47:203|-9:219,1,119.999996337891
96,87,210666,2,0,P|136:71|224:79,1,119.999996337891
280,128,210990,37,0,0:0:0:0:
384,32,211152,1,0,0:0:0:0:
456,192,211314,1,0,0:0:0:0:
456,192,211477,6,0,P|512:248|416:336,1,239.999992675781
264,288,211963,1,0,0:0:0:0:
97,266,212125,2,0,P|81:202|113:138,1,119.999996337891
256,120,212450,2,0,L|272:80|304:64,2,59.9999981689454
432,80,212774,1,0,0:0:0:0:
432,80,212936,85,0,0:0:0:0:
456,120,213017,1,0,0:0:0:0:
464,168,213098,1,0,0:0:0:0:
448,208,213179,1,0,0:0:0:0:
424,240,213260,1,0,0:0:0:0:
384,256,213342,1,0,0:0:0:0:
336,264,213423,1,0,0:0:0:0:
240,112,213585,5,4,0:0:0:0:
272,304,213747,1,4,0:0:0:0:
99,238,213909,1,4,0:0:0:0:
104,72,214071,86,0,P|32:176|112:240,1,239.999992675781,4|0,0:0|0:0,0:0:0:0:
252,166,214558,1,0,0:0:0:0:
252,166,214639,1,0,0:0:0:0:
252,166,214720,2,0,P|268:126|340:86,2,119.999996337891
99,238,215206,1,0,0:0:0:0:
263,323,215369,2,0,P|315:319|384:299,3,119.999996337891
264,188,216017,1,0,0:0:0:0:
130,88,216179,6,0,P|115:130|120:161,1,59.9999981689454
207,193,216342,2,0,P|249:195|273:179,1,59.9999981689454
316,96,216504,2,0,P|332:56|319:26,1,59.9999981689454
462,75,216666,2,0,P|477:136|462:195,1,119.999996337891
452,336,216990,1,0,0:0:0:0:
309,240,217152,1,0,0:0:0:0:
200,328,217314,2,0,P|168:256|176:208,1,119.999996337891
155,69,217639,6,0,P|131:109|67:141,1,119.999996337891
61,316,217963,1,0,0:0:0:0:
172,217,218125,1,0,0:0:0:0:
261,350,218287,1,0,0:0:0:0:
321,207,218450,1,0,0:0:0:0:
398,60,218612,1,0,0:0:0:0:
490,151,218774,70,0,L|506:223,1,59.9999981689454
422,293,218936,2,0,L|398:229,1,59.9999981689454
281,178,219098,2,0,L|305:250,1,59.9999981689454
200,320,219260,2,0,P|168:248|168:192,1,119.999996337891,4|0,0:0|0:0,0:0:0:0:
152,128,219585,1,0,0:0:0:0:
152,120,219666,1,0,0:0:0:0:
152,112,219747,1,0,0:0:0:0:
0,256,219909,2,0,L|64:200,2,59.9999981689454
48,64,220233,2,0,P|112:40|168:40,2,119.999996337891
112,184,220720,2,0,P|128:248|128:312,1,119.999996337891
304,288,221044,2,0,P|376:320|424:312,1,119.999996337891
472,144,221369,5,0,0:0:0:0:
304,288,221531,1,0,0:0:0:0:
256,80,221693,1,0,0:0:0:0:
256,80,221855,2,0,P|176:48|136:40,1,119.999996337891
80,192,222179,2,0,P|144:224|192:256,1,119.999996337891
320,288,222504,2,0,P|304:248|336:168,2,119.999996337891
448,304,222990,1,0,0:0:0:0:
432,176,223152,6,0,B|368:128|352:208|280:144,1,119.999996337891
185,81,223477,2,0,B|137:121|185:193|105:209,1,119.999996337891
256,192,223801,12,4,225423,0:0:0:0:
217,72,234828,6,0,P|145:80|92:131,1,119.999996337891,4|0,0:0|0:0,0:0:0:0:
61,193,235071,1,0,0:0:0:0:
119,265,235152,2,0,P|183:225|215:185,1,119.999996337891
275,135,235396,1,0,0:0:0:0:
336,208,235477,2,0,P|388:280|432:304,1,119.999996337891
488,152,235801,6,4,P|400:104|352:120,1,119.999996337891
216,168,236125,6,0,P|256:248|256:296,1,119.999996337891,4|0,0:0|0:0,0:0:0:0:
175,313,236369,1,0,0:0:0:0:
88,288,236450,2,0,P|56:248|64:168,1,119.999996337891
95,100,236693,1,0,0:0:0:0:
176,64,236774,2,0,L|312:64,1,119.999996337891
442,171,237098,38,4,L|461:295,1,119.999996337891
312,304,237423,6,0,P|232:328|200:360,1,119.999996337891,4|0,0:0|0:0,0:0:0:0:
116,321,237666,1,0,0:0:0:0:
80,240,237747,2,0,L|144:120,1,119.999996337891
221,92,237990,1,0,0:0:0:0:
304,88,238071,2,0,P|384:120|424:96,1,119.999996337891
408,264,238396,6,4,L|256:264,1,119.999996337891,4|6,0:0|0:0,0:0:0:0:
112,248,238720,6,0,P|152:176|152:112,1,119.999996337891,4|0,0:0|0:0,0:0:0:0:
219,68,238963,1,0,0:0:0:0:
313,81,239044,2,0,P|353:153|401:177,1,119.999996337891
404,258,239287,1,0,0:0:0:0:
336,304,239369,2,0,P|256:280|208:288,1,119.999996337891
224,144,239693,1,0,0:0:0:0:
280,112,239774,1,0,0:0:0:0:
336,80,239855,1,0,0:0:0:0:
392,56,239936,1,0,0:0:0:0:
464,96,240017,6,0,P|472:192|488:216,1,119.999996337891,4|0,0:0|0:0,0:0:0:0:
422,291,240260,1,0,0:0:0:0:
328,304,240342,2,0,P|272:280|208:288,1,119.999996337891
127,295,240585,1,0,0:0:0:0:
48,256,240666,2,0,L|120:152,1,119.999996337891
264,96,240990,2,4,P|328:96|376:144,1,119.999996337891
456,280,241314,6,0,L|320:328,1,119.999996337891
242,335,241558,1,0,0:0:0:0:
160,288,241639,2,0,P|200:216|184:160,1,119.999996337891
232,108,241882,1,0,0:0:0:0:
304,72,241963,2,0,L|440:40,1,119.999996337891
440,200,242287,102,4,P|384:264|384:312,1,119.999996337891,0|0,0:0|0:0,0:0:0:0:
216,224,242612,86,0,P|144:304|136:336,1,119.999996337891
49,283,242855,1,0,0:0:0:0:
40,192,242936,2,0,L|120:80,1,119.999996337891
186,54,243179,1,0,0:0:0:0:
264,40,243260,2,0,P|304:128|320:176,1,119.999996337891
312,296,243585,6,0,L|184:256,1,119.999996337891
48,160,243909,6,0,P|72:112|136:64,1,119.999996337891,4|0,0:0|0:0,0:0:0:0:
215,57,244152,1,0,0:0:0:0:
308,70,244233,2,0,P|324:134|292:182,1,119.999996337891
172,176,244558,5,4,0:0:0:0:
108,160,244639,1,4,0:0:0:0:
52,192,244720,1,4,0:0:0:0:
28,256,244801,1,4,0:0:0:0:
44,320,244882,1,4,0:0:0:0:
100,360,244963,1,4,0:0:0:0:
164,360,245044,1,4,0:0:0:0:
212,312,245125,1,4,0:0:0:0:
353,248,245206,6,0,P|347:303|318:340,1,100
159,136,245531,2,0,P|165:81|194:44,1,100
