osu file format v14

[General]
AudioFilename: src.mp3
AudioLeadIn: 0
PreviewTime: 80901
Countdown: 0
SampleSet: Soft
StackLeniency: 0.7
Mode: 0
LetterboxInBreaks: 0
WidescreenStoryboard: 0

[Editor]
Bookmarks: 13847,27307,32172,91442,165874,169523,203357,221519
DistanceSpacing: 1.6
BeatDivisor: 8
GridSize: 4
TimelineZoom: 1.1

[Metadata]
Title:Quan Yu Tian Xia
TitleUnicode:权御天下
Artist:Wu Gui
ArtistUnicode:乌龟
Creator:MagicNAT
Version:Insane
Source:
Tags:
BeatmapID:896056
BeatmapSetID:402193

[Difficulty]
HPDrainRate:8
CircleSize:4
OverallDifficulty:6
ApproachRate:8.5
SliderMultiplier:2.2
SliderTickRate:1

[Events]
//Background and Video events
0,0,"maxresdefault.jpg",0,0
//Break Periods
2,42823,52651
2,182606,191948
//Storyboard Layer 0 (Background)
//Storyboard Layer 1 (Fail)
//Storyboard Layer 2 (Pass)
//Storyboard Layer 3 (Foreground)
//Storyboard Sound Samples

[TimingPoints]
2010,648.648648648649,4,2,0,90,1,0
11488,-100,4,2,0,100,0,0
21866,-100,4,2,0,90,0,0
81064,-66.6666666666667,4,2,0,100,0,1
102299,-100,4,2,0,100,0,0
161488,-66.6666666666667,4,2,0,100,0,1
182731,-100,4,2,0,100,0,0
192623,-100,4,2,0,85,0,0
201704,-100,4,2,0,90,0,0
203488,-100,4,2,0,100,0,0

[HitObjects]
112,100,1110,6,0,P|140:144|208:156,1,110
388,56,1758,2,0,P|448:52|464:56,2,55
420,132,2245,1,0,0:0:0:0:
416,216,2407,2,0,P|360:276|324:276,1,110
116,264,3055,2,0,P|60:232|44:204,2,55
132,184,3542,5,0,0:0:0:0:
208,152,3704,2,0,P|268:132|324:140,1,110
436,320,4353,1,0,0:0:0:0:
376,328,4515,1,0,0:0:0:0:
324,304,4677,1,0,0:0:0:0:
304,248,4839,1,0,0:0:0:0:
384,232,5001,2,0,P|408:176|440:152,1,55
324,160,5326,2,0,P|316:116|292:92,1,55
388,76,5650,1,0,0:0:0:0:
436,144,5812,2,0,L|456:172,2,27.5
328,128,6137,1,0,0:0:0:0:
244,124,6299,6,0,P|168:136|136:188,1,110
112,232,6785,1,0,0:0:0:0:
220,248,6947,2,0,L|272:284,1,55
320,184,7272,2,0,L|384:232,1,55
460,268,7596,6,0,P|416:312|364:328,1,110
260,328,8082,1,0,0:0:0:0:
280,220,8245,2,0,L|240:172,1,55
328,104,8569,2,0,L|288:52,1,55
212,52,8893,6,0,P|132:68|104:88,1,110
144,156,9380,2,0,L|208:160,1,55
188,240,9704,2,0,L|228:284,1,55
148,312,10028,1,0,0:0:0:0:
72,280,10191,2,0,P|40:216|48:152,1,110
64,128,10677,1,0,0:0:0:0:
140,80,10839,1,0,0:0:0:0:
208,136,11001,1,0,0:0:0:0:
284,88,11164,1,0,0:0:0:0:
392,224,11488,5,0,0:0:0:0:
308,244,11650,2,0,L|276:252,2,27.5
336,164,11974,1,0,0:0:0:0:
248,144,12137,2,0,P|208:124|180:120,1,55
196,208,12461,2,0,P|168:232|140:240,1,55
296,304,12785,5,0,0:0:0:0:
364,252,12955,2,0,L|404:264,2,27.5
456,156,13272,1,0,0:0:0:0:
372,136,13442,2,0,P|312:120|300:124,2,55
324,200,13920,1,0,0:0:0:0:
240,280,14091,5,0,0:0:0:0:
156,304,14253,2,0,L|124:316,2,27.5
180,220,14577,1,0,0:0:0:0:
128,148,14739,2,0,P|160:140|184:140,1,55
248,192,15055,1,0,0:0:0:0:
324,148,15218,1,0,0:0:0:0:
284,300,15380,6,0,P|320:324|344:328,1,55
184,296,15704,2,0,P|160:324|120:340,1,55
64,256,16028,1,0,0:0:0:0:
136,172,16191,1,0,0:0:0:0:
224,236,16353,1,0,0:0:0:0:
288,144,16515,1,0,0:0:0:0:
396,124,16677,5,0,0:0:0:0:
372,232,16839,2,0,L|400:256,2,27.5
292,156,17164,1,0,0:0:0:0:
188,196,17326,2,0,P|136:192|112:184,1,55
248,260,17650,2,0,P|272:288|304:304,1,55
392,172,17974,5,0,0:0:0:0:
308,132,18135,2,0,L|272:112,2,27.5
388,84,18459,1,0,0:0:0:0:
352,196,18623,2,0,P|380:232|388:256,1,55
284,268,18947,2,0,P|252:292|240:320,1,55
136,280,19272,6,0,P|144:232|196:192,1,110
292,160,19758,1,0,0:0:0:0:
392,208,19920,1,0,0:0:0:0:
288,248,20082,1,0,0:0:0:0:
392,284,20245,1,0,0:0:0:0:
472,208,20407,1,0,0:0:0:0:
452,100,20569,2,0,P|432:56|436:36,1,55
324,64,20893,2,0,P|300:32|268:16,1,55
208,100,21218,1,0,0:0:0:0:
152,196,21380,1,0,0:0:0:0:
240,260,21542,1,0,0:0:0:0:
160,116,21866,6,0,B|224:120|256:164,1,110
112,244,22515,2,0,P|164:272|192:280,2,55
200,176,23001,1,0,0:0:0:0:
132,124,23172,1,0,0:0:0:0:
204,84,23334,2,0,L|180:40,2,27.5
276,56,23650,1,0,0:0:0:0:
336,120,23820,1,0,0:0:0:0:
392,232,24064,5,0,0:0:0:0:
312,256,24226,2,0,P|280:252|252:236,1,55
312,180,24550,2,0,P|288:148|268:144,1,55
208,196,24874,2,0,P|180:200|144:192,1,55
180,116,25199,1,0,0:0:0:0:
180,116,25272,2,0,P|232:148|252:168,1,55
304,176,25596,1,0,0:0:0:0:
364,232,25758,1,0,0:0:0:0:
340,312,25920,2,0,P|272:292|252:276,1,55
316,216,26245,2,0,P|256:196|220:200,1,55
204,196,26569,2,0,B|140:208|136:276|64:292,1,165
128,172,27307,5,0,0:0:0:0:
128,172,27469,2,0,P|148:152|200:128,1,82.5
276,148,27874,1,0,0:0:0:0:
276,148,27955,2,0,L|308:172,2,27.5
368,124,28280,2,0,P|396:100|428:88,1,55
400,256,28766,6,0,L|380:284,1,27.5
308,248,29010,1,0,0:0:0:0:
228,228,29172,2,0,P|208:200|200:176,2,55
324,148,29739,2,0,P|352:120|360:92,2,55
232,64,30307,2,0,P|200:52|160:48,1,55
188,132,30631,2,0,P|224:148|264:148,1,55
300,96,30955,2,0,P|348:88|364:92,1,55
392,104,31199,1,0,0:0:0:0:
424,180,31361,1,0,0:0:0:0:
392,256,31523,2,0,P|344:264|276:256,1,110
404,88,32245,5,0,0:0:0:0:
404,88,32569,2,0,L|364:140,1,55
320,196,32893,1,0,0:0:0:0:
320,196,33218,2,0,L|260:156,1,55
208,116,33542,2,0,L|160:164,1,55
169,154,33866,2,0,L|116:108,1,55
188,60,34191,1,0,0:0:0:0:
312,168,34515,1,0,0:0:0:0:
184,272,34839,5,0,0:0:0:0:
184,272,35001,2,0,P|248:260|260:256,1,55
368,160,35488,1,0,0:0:0:0:
368,160,35650,2,0,P|304:168|272:184,1,55
164,92,36137,1,0,0:0:0:0:
128,168,36299,1,0,0:0:0:0:
128,168,36380,1,0,0:0:0:0:
128,168,36461,1,0,0:0:0:0:
128,168,36542,2,0,P|164:228|172:232,1,82.5
244,256,36947,2,0,P|304:268|328:260,2,55
284,188,37434,1,0,0:0:0:0:
404,92,37758,5,0,0:0:0:0:
444,240,38082,2,0,L|420:304,1,55
356,324,38407,1,0,0:0:0:0:
272,196,38731,2,0,L|232:248,1,55
216,144,39055,2,0,L|264:84,1,55
184,52,39380,5,0,0:0:0:0:
76,176,39704,1,0,0:0:0:0:
128,208,39866,1,0,0:0:0:0:
188,216,40028,1,0,0:0:0:0:
332,140,40353,2,0,P|280:108|212:100,1,110
152,108,40839,1,0,0:0:0:0:
140,188,41001,2,0,L|108:212,2,27.5
236,244,41326,1,0,0:0:0:0:
292,240,41488,2,0,P|344:208|364:152,1,110
260,84,42137,1,0,0:0:0:0:
192,128,42299,2,0,P|144:168|132:196,2,55
112,80,53326,6,0,P|148:132|224:136,1,110
196,52,53812,1,0,0:0:0:0:
280,96,53974,2,0,L|344:68,2,55
308,276,54623,5,0,0:0:0:0:
144,264,54947,2,0,P|88:256|68:252,2,55
220,228,55434,1,0,0:0:0:0:
276,168,55596,2,0,P|324:112|324:108,1,55
252,88,55920,1,0,0:0:0:0:
168,84,56082,1,0,0:0:0:0:
144,4,56245,6,0,P|96:36|88:48,1,55
68,108,56569,1,0,0:0:0:0:
116,176,56731,1,0,0:0:0:0:
192,148,56893,2,0,P|228:116|272:112,1,55
256,192,57218,2,0,P|320:192|336:200,1,55
292,268,57542,1,0,0:0:0:0:
200,276,57704,2,0,L|164:284,6,27.5
408,116,58515,5,0,0:0:0:0:
336,72,58677,2,0,P|272:44|240:48,1,55
276,128,59001,1,0,0:0:0:0:
216,68,59164,2,0,P|188:140|192:148,1,55
212,188,59488,2,0,P|272:216|296:216,1,55
344,212,59812,2,0,P|400:184|412:164,1,55
440,124,60137,1,0,0:0:0:0:
280,92,60461,1,0,0:0:0:0:
204,60,60623,6,0,P|148:44|128:48,1,55
148,128,60947,1,0,0:0:0:0:
80,176,61110,1,0,0:0:0:0:
156,208,61272,2,0,P|128:252|132:272,1,55
216,260,61596,2,0,P|264:292|304:300,1,55
292,216,61920,1,0,0:0:0:0:
380,148,62082,1,0,0:0:0:0:
172,72,62407,2,0,B|116:108|104:160|136:224,1,165
156,248,62974,2,0,P|192:280|232:288,1,82.5
296,248,63380,5,0,0:0:0:0:
412,64,63704,1,0,0:0:0:0:
192,76,64028,6,0,L|120:92,2,55
412,76,64677,2,0,P|392:144|352:184,1,110
324,204,65082,2,0,L|284:224,1,27.5
192,184,65326,1,0,0:0:0:0:
196,100,65488,1,0,0:0:0:0:
276,124,65650,1,0,0:0:0:0:
136,76,65974,6,0,P|76:80|60:88,2,55
112,156,66461,1,0,0:0:0:0:
180,204,66623,2,0,P|244:224|260:220,2,55
232,140,67110,1,0,0:0:0:0:
312,132,67272,2,0,P|304:192|312:216,1,55
384,192,67596,2,0,P|368:244|348:268,1,55
296,280,67920,1,0,0:0:0:0:
132,260,68245,2,0,L|168:268,2,27.5
96,184,68569,5,0,0:0:0:0:
164,136,68731,1,0,0:0:0:0:
164,52,68893,2,0,P|112:84|104:100,1,55
36,88,69218,1,0,0:0:0:0:
84,156,69380,1,0,0:0:0:0:
168,148,69542,2,0,P|220:120|244:120,1,55
296,104,69866,1,0,0:0:0:0:
376,116,70028,2,0,L|412:128,2,27.5
364,196,70353,1,0,0:0:0:0:
308,256,70515,2,0,P|248:288|212:292,2,55
196,216,71001,5,0,0:0:0:0:
196,216,71164,2,0,L|136:192,1,55
124,88,71488,1,0,0:0:0:0:
228,120,71650,1,0,0:0:0:0:
228,120,71739,1,0,0:0:0:0:
228,120,71812,2,0,L|300:72,1,55
200,32,72137,2,0,P|144:12|112:12,1,55
112,116,72461,2,0,P|112:176|112:184,1,55
220,168,72785,2,0,L|272:224,1,55
336,132,73110,2,0,P|392:104|420:40,1,110
196,48,73758,1,0,0:0:0:0:
156,264,74082,5,0,0:0:0:0:
376,268,74407,2,0,P|308:228|268:232,1,110
152,124,75055,2,0,P|80:88|56:92,2,55
176,176,75542,1,0,0:0:0:0:
208,224,75704,2,0,P|260:252|316:260,1,110
408,160,76353,2,0,L|472:144,2,55
356,124,76839,1,0,0:0:0:0:
304,88,77001,2,0,P|236:60|188:64,1,110
140,208,77650,6,0,L|88:232,2,55
216,176,78137,1,0,0:0:0:0:
164,112,78299,2,0,P|232:96|284:120,1,110
392,216,78947,5,0,0:0:0:0:
340,120,79110,1,0,0:0:0:0:
320,228,79272,2,0,P|288:284|280:288,1,55
256,132,79596,2,0,P|232:80|252:24,1,110
312,80,80082,1,0,0:0:0:0:
416,88,80253,2,0,P|412:144|400:164,1,55
392,188,80496,1,0,0:0:0:0:
364,228,80577,2,0,P|332:256|304:272,1,55
224,272,80901,2,0,L|188:256,2,27.5
268,212,81145,1,0,0:0:0:0:
204,136,81307,1,0,0:0:0:0:
148,248,81550,6,0,P|120:200|128:160,1,82.5000031471254
268,152,81874,2,0,P|260:96|232:68,1,82.5000031471254
236,228,82199,2,0,P|200:188|192:152,1,82.5000031471254
336,208,82523,2,0,P|364:152|364:104,1,82.5000031471254
240,52,82847,1,0,0:0:0:0:
240,52,82928,1,0,0:0:0:0:
240,52,83010,1,0,0:0:0:0:
128,148,83172,1,0,0:0:0:0:
128,148,83253,1,0,0:0:0:0:
128,148,83334,1,0,0:0:0:0:
224,260,83496,1,0,0:0:0:0:
224,260,83577,1,0,0:0:0:0:
224,260,83658,2,0,P|272:272|308:260,1,82.5000031471254
396,132,84145,6,0,P|424:88|424:56,1,82.5000031471254
292,124,84469,2,0,P|248:160|228:216,1,82.5000031471254
376,128,84793,2,0,P|416:92|436:44,1,82.5000031471254
288,116,85118,2,0,P|252:136|220:184,1,82.5000031471254
128,216,85425,6,0,P|180:252|208:256,1,82.5000031471254
348,252,85749,1,0,0:0:0:0:
428,148,85911,1,0,0:0:0:0:
280,148,86073,1,0,0:0:0:0:
296,60,86253,5,0,0:0:0:0:
296,60,86334,1,0,0:0:0:0:
296,60,86415,1,0,0:0:0:0:
296,60,86496,1,0,0:0:0:0:
296,60,86577,1,0,0:0:0:0:
296,60,86658,2,0,P|332:96|400:96,1,82.5000031471254
288,52,86982,2,0,P|264:20|212:4,1,82.5000031471254
296,136,87307,2,0,P|348:112|372:64,1,82.5000031471254
224,152,87631,2,0,P|184:156|136:200,1,82.5000031471254
244,292,87955,5,0,0:0:0:0:
244,292,88037,1,0,0:0:0:0:
244,292,88118,1,0,0:0:0:0:
352,228,88280,1,0,0:0:0:0:
352,228,88361,1,0,0:0:0:0:
352,228,88442,1,0,0:0:0:0:
292,120,88604,2,0,P|244:84|124:100,1,165.000006294251
216,200,89091,1,0,0:0:0:0:
292,288,89253,5,0,0:0:0:0:
292,288,89334,1,0,0:0:0:0:
292,288,89415,1,0,0:0:0:0:
368,192,89577,1,0,0:0:0:0:
368,192,89658,1,0,0:0:0:0:
368,192,89739,1,0,0:0:0:0:
252,96,89901,2,0,P|204:112|172:140,1,82.5000031471254
324,92,90226,2,0,P|380:84|420:52,1,82.5000031471254
344,208,90550,1,0,0:0:0:0:
216,132,90712,1,0,0:0:0:0:
264,272,90874,1,0,0:0:0:0:
296,124,91037,1,0,0:0:0:0:
184,220,91199,1,0,0:0:0:0:
388,132,91442,5,0,0:0:0:0:
388,132,91523,1,0,0:0:0:0:
388,132,91604,2,0,P|368:180|296:200,1,123.750004720688
244,204,91928,2,0,P|200:188|176:148,1,82.5000031471254
320,104,92253,2,0,P|392:120|412:152,1,82.5000031471254
248,132,92577,2,0,P|192:124|156:92,1,82.5000031471254
296,192,92901,2,0,P|352:212|380:248,1,82.5000031471254
228,280,93226,1,0,0:0:0:0:
228,280,93307,1,0,0:0:0:0:
228,280,93388,1,0,0:0:0:0:
228,280,93469,1,0,0:0:0:0:
228,280,93550,1,0,0:0:0:0:
256,160,93712,1,0,0:0:0:0:
256,160,93793,1,0,0:0:0:0:
256,160,93874,6,0,P|308:188|332:188,1,82.5000031471254
272,76,94199,1,0,0:0:0:0:
180,160,94361,1,0,0:0:0:0:
260,252,94523,1,0,0:0:0:0:
420,156,94685,1,0,0:0:0:0:
420,156,94766,1,0,0:0:0:0:
420,156,94847,2,0,P|380:192|324:208,1,82.5000031471254
220,196,95172,1,0,0:0:0:0:
48,100,95415,2,0,P|64:56|96:32,1,82.5000031471254
224,48,95739,1,0,0:0:0:0:
328,132,95901,1,0,0:0:0:0:
316,264,96064,2,0,P|272:288|232:288,2,82.5000031471254
344,156,96631,5,0,0:0:0:0:
220,156,96793,2,0,P|172:188|156:208,2,82.5000031471254
244,320,97442,1,0,0:0:0:0:
284,320,97523,1,0,0:0:0:0:
324,312,97604,1,0,0:0:0:0:
352,284,97685,1,0,0:0:0:0:
376,248,97766,1,0,0:0:0:0:
336,100,98010,6,0,P|288:84|252:92,1,82.5000031471254
140,124,98334,2,0,P|176:160|216:172,1,82.5000031471254
312,232,98658,1,0,0:0:0:0:
416,168,98820,1,0,0:0:0:0:
300,104,98982,1,0,0:0:0:0:
300,104,99064,1,0,0:0:0:0:
300,104,99145,1,0,0:0:0:0:
200,180,99307,2,0,P|152:216|140:244,2,82.5000031471254
296,256,99793,5,0,0:0:0:0:
324,136,99955,2,0,P|280:144|232:168,1,82.5000031471254
176,56,100280,2,0,P|144:84|92:96,1,82.5000031471254
200,176,100604,2,0,P|168:220|156:264,1,82.5000031471254
268,300,100928,2,0,P|248:344|200:376,1,82.5000031471254
140,272,101253,1,0,0:0:0:0:
156,168,101415,1,0,0:0:0:0:
104,60,101577,1,0,0:0:0:0:
144,68,101658,1,0,0:0:0:0:
180,84,101739,1,0,0:0:0:0:
216,104,101820,1,0,0:0:0:0:
244,132,101901,1,0,0:0:0:0:
272,164,101982,1,0,0:0:0:0:
288,200,102064,1,0,0:0:0:0:
404,256,102299,5,0,0:0:0:0:
316,272,102461,2,0,L|276:280,2,27.5
300,184,102785,1,0,0:0:0:0:
236,124,102947,1,0,0:0:0:0:
164,176,103110,1,0,0:0:0:0:
140,260,103272,2,0,P|168:312|180:320,1,55
264,256,103596,5,0,0:0:0:0:
364,212,103758,2,0,L|400:244,2,27.5
400,108,104082,1,0,0:0:0:0:
328,64,104245,2,0,P|276:40|180:56,1,110
128,172,104893,6,0,P|100:208|88:240,2,55
140,92,105542,2,0,P|104:40|96:20,2,55
196,160,106028,1,0,0:0:0:0:
252,228,106191,2,0,P|300:276|352:288,1,110
424,132,106839,1,0,0:0:0:0:
340,108,107001,2,0,L|308:104,2,27.5
380,188,107326,1,0,0:0:0:0:
332,260,107488,6,0,P|280:296|236:296,1,110
116,168,108137,2,0,P|96:112|96:100,2,55
280,108,108785,2,0,P|328:68|348:64,1,55
376,140,109110,2,0,P|424:112|460:112,1,55
444,196,109434,2,0,P|448:264|424:308,1,110
256,292,110082,6,0,P|196:272|152:228,1,110
320,164,110731,2,0,P|376:132|388:112,2,55
144,140,111380,2,0,P|92:100|88:84,1,55
236,88,111704,2,0,P|288:64|312:32,1,55
196,152,112028,2,0,B|160:188|256:232|188:264|200:288,1,110
36,292,112677,5,0,0:0:0:0:
36,292,113001,2,0,L|116:264,1,55
172,252,113326,1,0,0:0:0:0:
88,96,113650,1,0,0:0:0:0:
88,96,113812,2,0,L|152:60,1,55
184,144,114137,2,0,L|260:96,1,55
276,188,114461,2,0,L|340:148,1,55
436,292,114947,1,0,0:0:0:0:
260,288,115272,5,0,0:0:0:0:
172,276,115434,2,0,L|148:296,2,27.5
240,220,115758,1,0,0:0:0:0:
308,164,115920,2,0,P|356:116|368:72,1,110
192,92,116569,2,0,P|136:124|120:148,1,55
212,172,116893,2,0,P|264:204|276:232,1,55
184,244,117218,2,0,P|132:264|88:304,1,110
268,316,117866,5,0,0:0:0:0:
268,316,118028,2,0,L|320:252,1,55
408,132,118515,1,0,0:0:0:0:
408,132,118677,2,0,L|332:96,1,55
184,72,119164,2,0,P|136:100|96:156,2,110
296,208,120137,1,0,0:0:0:0:
416,76,120461,6,0,P|352:56|340:60,1,55
280,52,120785,1,0,0:0:0:0:
184,200,121110,2,0,P|208:256|224:264,1,55
264,308,121434,1,0,0:0:0:0:
264,308,121758,2,0,L|312:256,1,55
288,180,122082,2,0,L|340:120,1,55
392,192,122407,1,0,0:0:0:0:
272,96,122569,1,0,0:0:0:0:
236,84,122650,1,0,0:0:0:0:
196,88,122731,1,0,0:0:0:0:
72,216,123055,5,0,0:0:0:0:
156,236,123218,2,0,L|124:260,2,27.5
228,184,123542,1,0,0:0:0:0:
316,192,123704,2,0,P|364:204|384:220,2,55
152,128,124353,2,0,P|116:108|92:104,1,55
208,56,124677,2,0,P|228:24|256:8,1,55
312,68,125001,1,0,0:0:0:0:
312,244,125326,1,0,0:0:0:0:
200,108,125650,5,0,0:0:0:0:
176,192,125812,2,0,L|156:216,2,27.5
264,196,126137,1,0,0:0:0:0:
352,196,126299,1,0,0:0:0:0:
208,300,126623,1,0,0:0:0:0:
360,216,126947,2,0,P|316:200|284:204,1,55
344,120,127272,2,0,P|312:100|280:96,1,55
220,140,127596,2,0,B|180:168|160:208|156:232,1,110
316,304,128245,5,0,0:0:0:0:
352,224,128407,2,0,L|392:252,2,27.5
288,164,128731,1,0,0:0:0:0:
220,112,128893,2,0,P|172:92|112:120,1,110
104,288,129542,6,0,P|140:312|168:312,1,55
196,320,129785,1,0,0:0:0:0:
240,320,129866,2,0,L|300:320,1,55
352,252,130191,1,0,0:0:0:0:
212,148,130515,1,0,0:0:0:0:
384,108,130839,6,0,P|420:136|432:160,2,55
224,180,131488,2,0,P|196:208|184:228,2,55
364,288,132137,1,0,0:0:0:0:
312,216,132299,2,0,L|296:248,2,27.5
348,136,132623,1,0,0:0:0:0:
348,136,132785,2,0,P|328:84|280:40,1,110
120,100,133434,6,0,P|148:144|216:156,1,110
348,64,134082,2,0,P|408:60|424:64,2,55
384,144,134569,1,0,0:0:0:0:
460,160,134731,2,0,P|404:220|368:220,1,110
204,236,135379,2,0,P|148:204|132:176,2,55
292,232,135866,5,0,0:0:0:0:
348,300,136028,2,0,P|288:320|232:296,1,110
236,132,136677,1,0,0:0:0:0:
176,140,136839,1,0,0:0:0:0:
124,116,137001,1,0,0:0:0:0:
104,60,137163,1,0,0:0:0:0:
192,76,137325,2,0,P|248:100|272:132,1,55
264,16,137650,2,0,P|308:8|332:-16,1,55
348,80,137974,1,0,0:0:0:0:
280,128,138136,2,0,L|252:148,2,27.5
332,200,138461,1,0,0:0:0:0:
244,124,138623,6,0,P|168:136|136:188,1,110
112,232,139109,1,0,0:0:0:0:
220,248,139271,2,0,L|272:284,1,55
320,184,139596,2,0,L|384:232,1,55
460,268,139920,6,0,P|416:312|364:328,1,110
260,328,140406,1,0,0:0:0:0:
280,220,140569,2,0,L|240:172,1,55
328,104,140893,2,0,L|288:52,1,55
212,52,141217,6,0,P|132:68|104:88,1,110
144,156,141704,2,0,L|208:160,1,55
188,240,142028,2,0,L|228:284,1,55
148,312,142352,1,0,0:0:0:0:
72,280,142515,2,0,P|40:216|48:152,1,110
64,128,143001,1,0,0:0:0:0:
140,80,143163,1,0,0:0:0:0:
208,136,143325,1,0,0:0:0:0:
284,88,143488,1,0,0:0:0:0:
144,196,143812,5,0,0:0:0:0:
60,216,143974,2,0,L|28:224,2,27.5
120,280,144298,1,0,0:0:0:0:
188,220,144461,2,0,P|148:200|120:196,1,55
120,280,144785,2,0,P|92:304|64:312,1,55
168,348,145109,5,0,0:0:0:0:
236,308,145271,2,0,L|268:320|268:320,1,27.5
188,208,145596,1,0,0:0:0:0:
212,124,145758,2,0,P|172:116|148:128,2,55
340,228,146244,1,0,0:0:0:0:
264,256,146406,6,0,P|212:284|156:284,1,110
116,208,146893,2,0,L|84:220,2,27.5
164,136,147217,1,0,0:0:0:0:
252,144,147379,1,0,0:0:0:0:
208,220,147542,1,0,0:0:0:0:
284,300,147704,6,0,P|320:324|344:328,1,55
184,296,148028,2,0,P|160:324|120:340,1,55
64,256,148352,1,0,0:0:0:0:
136,172,148515,1,0,0:0:0:0:
224,236,148677,1,0,0:0:0:0:
288,144,148839,1,0,0:0:0:0:
396,124,149001,5,0,0:0:0:0:
372,232,149163,2,0,L|400:256,2,27.5
292,156,149488,1,0,0:0:0:0:
188,196,149650,2,0,P|136:192|112:184,1,55
52,220,149974,2,0,P|76:248|108:264,1,55
176,284,150298,5,0,0:0:0:0:
224,212,150461,2,0,L|200:196,1,27.5
236,116,150704,1,0,0:0:0:0:
104,100,150947,2,0,P|140:136|140:160,1,55
64,180,151271,2,0,P|28:204|20:232,1,55
100,260,151596,6,0,P|108:308|160:348,1,110
196,268,152082,1,0,0:0:0:0:
240,192,152244,1,0,0:0:0:0:
284,268,152406,1,0,0:0:0:0:
332,192,152569,1,0,0:0:0:0:
384,264,152731,1,0,0:0:0:0:
424,184,152893,2,0,P|404:140|408:120,1,55
332,192,153217,2,0,P|304:156|276:144,1,55
208,100,153542,1,0,0:0:0:0:
152,196,153704,1,0,0:0:0:0:
240,260,153866,1,0,0:0:0:0:
368,136,154191,5,0,0:0:0:0:
368,136,154515,2,0,P|304:108|220:104,1,110
104,172,155164,1,0,0:0:0:0:
260,256,155488,2,0,L|320:264,1,55
332,176,155812,2,0,L|376:124,1,55
284,112,156137,1,0,0:0:0:0:
200,88,156299,1,0,0:0:0:0:
156,164,156461,1,0,0:0:0:0:
96,328,156785,6,0,P|168:312|204:264,1,110
220,204,157272,1,0,0:0:0:0:
232,160,157353,2,0,P|248:108|304:48,1,110
324,48,157758,1,0,0:0:0:0:
348,184,157920,2,0,L|388:236,1,55
308,272,158245,2,0,L|248:336,1,55
204,252,158569,5,0,0:0:0:0:
204,252,158731,2,0,P|152:188|156:140,1,110
324,136,159380,2,0,P|380:160|392:176,1,55
428,224,159704,1,0,0:0:0:0:
256,264,160028,2,0,P|192:244|172:232,1,55
140,188,160353,1,0,0:0:0:0:
272,72,160677,1,0,0:0:0:0:
304,156,160839,2,0,L|328:200,2,27.5
236,212,161164,1,0,0:0:0:0:
156,252,161326,1,0,0:0:0:0:
92,192,161488,6,0,P|100:136|120:124,1,55
168,88,161812,1,0,0:0:0:0:
224,196,161982,2,0,P|264:168|276:124,1,82.5000031471254
356,224,162307,2,0,P|364:180|396:144,1,82.5000031471254
276,180,162631,2,0,P|244:132|200:108,1,82.5000031471254
340,104,162955,2,0,P|368:68|408:36,1,82.5000031471254
292,56,163272,1,0,0:0:0:0:
196,100,163434,1,0,0:0:0:0:
148,196,163596,2,0,P|160:256|180:272,2,82.5000031471254
256,196,164082,1,0,0:0:0:0:
328,284,164253,6,0,P|376:300|432:288,1,82.5000031471254
404,192,164577,1,0,0:0:0:0:
404,192,164658,1,0,0:0:0:0:
404,192,164739,1,0,0:0:0:0:
304,148,164901,1,0,0:0:0:0:
304,148,164982,1,0,0:0:0:0:
304,148,165064,1,0,0:0:0:0:
200,168,165226,2,0,P|168:124|180:88,1,82.5000031471254
276,72,165550,2,0,P|320:80|348:116,1,82.5000031471254
268,212,165874,6,0,P|228:240|180:240,1,82.5000031471254
196,112,166199,2,0,P|248:88|284:88,1,82.5000031471254
388,152,166523,1,0,0:0:0:0:
388,152,166604,1,0,0:0:0:0:
388,152,166685,1,0,0:0:0:0:
340,276,166847,1,0,0:0:0:0:
340,276,166928,1,0,0:0:0:0:
340,276,167010,1,0,0:0:0:0:
208,288,167172,5,0,0:0:0:0:
208,288,167253,1,0,0:0:0:0:
208,288,167334,1,0,0:0:0:0:
100,212,167496,1,0,0:0:0:0:
100,212,167577,1,0,0:0:0:0:
100,212,167658,2,0,P|160:180|180:144,1,82.5000031471254
256,68,167982,1,0,0:0:0:0:
256,68,168064,2,0,P|188:68|168:72,1,82.5000031471254
244,184,168388,2,0,P|296:204|336:204,1,82.5000031471254
224,116,168712,1,0,0:0:0:0:
224,116,168793,1,0,0:0:0:0:
224,116,168874,1,0,0:0:0:0:
224,116,168955,2,0,P|184:160|176:188,1,82.5000031471254
112,248,169280,5,0,0:0:0:0:
112,248,169361,1,0,0:0:0:0:
112,248,169442,2,0,P|160:240|192:220,1,82.5000031471254
288,264,169766,6,0,P|336:296|384:308,1,82.5000031471254
344,196,170091,2,0,P|332:144|304:120,1,82.5000031471254
224,188,170415,2,0,P|192:216|168:256,1,82.5000031471254
276,272,170739,2,0,P|328:288|360:280,1,82.5000031471254
332,184,171055,1,0,0:0:0:0:
160,180,171218,1,0,0:0:0:0:
300,128,171380,1,0,0:0:0:0:
208,128,171542,1,0,0:0:0:0:
260,48,171704,1,0,0:0:0:0:
256,140,171866,2,0,L|256:224,1,82.5000031471254
160,276,172191,5,0,0:0:0:0:
256,324,172353,1,0,0:0:0:0:
348,256,172523,1,0,0:0:0:0:
348,256,172604,1,0,0:0:0:0:
348,256,172685,1,0,0:0:0:0:
408,168,172847,1,0,0:0:0:0:
312,120,173010,2,0,P|272:108|216:108,1,82.5000031471254
248,212,173334,2,0,P|208:236|176:276,1,82.5000031471254
288,296,173658,1,0,0:0:0:0:
376,236,173820,1,0,0:0:0:0:
376,236,173901,1,0,0:0:0:0:
376,236,173982,1,0,0:0:0:0:
376,236,174064,1,0,0:0:0:0:
376,236,174145,2,0,P|372:148|360:128,1,82.5000031471254
304,76,174469,6,0,P|264:112|244:160,1,82.5000031471254
356,144,174793,1,0,0:0:0:0:
416,232,174955,2,0,P|436:184|440:132,1,82.5000031471254
336,176,175280,2,0,P|280:168|240:176,1,82.5000031471254
304,268,175604,2,0,P|248:288|220:280,1,82.5000031471254
240,176,175928,2,0,P|272:136|320:112,1,82.5000031471254
404,124,176253,1,0,0:0:0:0:
404,124,176334,1,0,0:0:0:0:
404,124,176415,1,0,0:0:0:0:
404,124,176496,1,0,0:0:0:0:
404,124,176577,1,0,0:0:0:0:
404,124,176658,2,0,P|364:180|308:184,1,123.750004720688
260,272,177055,6,0,P|200:260|172:236,1,82.5000031471254
116,164,177380,2,0,L|88:120,2,41.2500015735627
228,148,177712,1,0,0:0:0:0:
352,228,177874,1,0,0:0:0:0:
356,80,178037,1,0,0:0:0:0:
272,204,178199,1,0,0:0:0:0:
412,156,178361,1,0,0:0:0:0:
276,120,178515,2,0,P|232:128|208:148,1,55
96,172,178839,1,0,0:0:0:0:
156,236,179002,1,0,0:0:0:0:
220,176,179164,1,0,0:0:0:0:
284,236,179326,1,0,0:0:0:0:
348,176,179488,1,0,0:0:0:0:
436,168,179650,6,0,P|460:108|456:88,1,82.5000031471254
392,60,179975,1,0,0:0:0:0:
308,92,180137,1,0,0:0:0:0:
184,288,180461,2,0,P|124:236|116:224,2,82.5000031471254
384,200,181110,2,0,P|424:160|444:116,1,82.5000031471254
344,120,181434,2,0,P|292:136|248:164,1,82.5000031471254
208,260,181758,1,0,0:0:0:0:
328,284,181920,1,0,0:0:0:0:
436,228,182082,2,0,P|480:176|484:152,2,82.5000031471254
152,52,192623,5,0,0:0:0:0:
76,104,192785,2,0,L|124:164,1,55
172,216,193110,1,0,0:0:0:0:
356,244,193434,2,0,P|408:208|428:168,1,110
260,84,194082,6,0,L|208:40,1,55
188,136,194407,2,0,L|132:184,1,55
96,92,194731,2,0,P|32:92|0:144,1,110
76,296,195380,5,0,0:0:0:0:
156,304,195542,1,0,0:0:0:0:
240,308,195704,2,0,P|308:300|348:276,1,110
412,128,196353,2,0,P|444:76|448:60,2,55
256,80,197001,2,0,P|200:88|188:96,1,55
244,160,197326,2,0,P|248:224|216:264,1,110
168,196,197812,5,0,0:0:0:0:
172,112,197974,1,0,0:0:0:0:
232,168,198137,1,0,0:0:0:0:
284,232,198299,2,0,L|324:284,2,55
404,120,198947,2,0,L|472:76,2,55
256,192,199596,2,0,P|200:212|136:188,2,110
200,132,200407,5,0,0:0:0:0:
280,120,200569,2,0,L|240:60,2,55
368,260,201218,2,0,L|424:228,2,55
204,288,201866,6,0,P|152:248|140:228,1,55
224,204,202191,1,0,0:0:0:0:
160,152,202353,1,0,0:0:0:0:
232,112,202515,1,0,0:0:0:0:
168,60,202677,1,0,0:0:0:0:
248,40,202839,2,0,P|304:40|360:72,1,110
424,260,203488,5,0,0:0:0:0:
324,296,203650,2,0,L|300:320,2,27.5
364,200,203974,1,0,0:0:0:0:
400,100,204137,2,0,P|328:104|296:128,1,110
144,228,204785,2,0,P|88:272|48:272,2,110
304,92,205758,1,0,0:0:0:0:
384,284,206082,5,0,0:0:0:0:
284,252,206245,2,0,L|252:272,2,27.5
372,196,206569,1,0,0:0:0:0:
372,196,206731,2,0,P|424:152|440:100,1,110
228,108,207380,1,0,0:0:0:0:
320,156,207542,1,0,0:0:0:0:
224,196,207704,1,0,0:0:0:0:
316,244,207866,2,0,P|284:296|244:312,1,55
184,300,208191,5,0,0:0:0:0:
92,252,208353,2,0,P|68:188|72:176,1,55
92,104,208677,1,0,0:0:0:0:
176,152,208839,2,0,L|128:168,2,27.5
276,140,209164,1,0,0:0:0:0:
376,148,209326,2,0,P|432:192|440:232,1,110
252,288,209974,5,0,0:0:0:0:
180,220,210137,2,0,L|152:248,2,27.5
252,152,210461,1,0,0:0:0:0:
292,64,210623,2,0,P|352:116|356:168,1,110
264,316,211272,6,0,P|208:288|196:272,2,55
380,200,211920,2,0,P|436:176|456:156,2,55
304,56,212569,1,0,0:0:0:0:
256,136,212731,1,0,0:0:0:0:
184,76,212893,1,0,0:0:0:0:
144,160,213055,1,0,0:0:0:0:
92,80,213218,2,0,P|56:120|52:180,1,110
196,292,213866,5,0,0:0:0:0:
384,296,214191,2,0,L|356:308,1,27.5
248,220,214515,1,0,0:0:0:0:
60,216,214839,2,0,L|88:180,1,27.5
188,112,215164,2,0,P|248:96|296:108,2,110
344,220,216137,1,0,0:0:0:0:
164,256,216461,6,0,P|128:224|112:200,1,55
188,156,216786,1,0,0:0:0:0:
272,184,216948,1,0,0:0:0:0:
356,140,217110,2,0,P|408:104|416:88,1,55
332,52,217434,1,0,0:0:0:0:
248,96,217597,1,0,0:0:0:0:
200,176,217758,2,0,P|168:228|168:240,1,55
272,276,218083,1,0,0:0:0:0:
348,228,218245,2,0,P|372:156|372:128,1,55
296,128,218570,2,0,P|248:160|240:180,1,55
244,244,218894,1,0,0:0:0:0:
168,284,219056,5,0,0:0:0:0:
104,224,219218,2,0,P|140:188|160:176,1,55
228,156,219543,1,0,0:0:0:0:
316,168,219705,2,0,L|356:188,2,27.5
316,80,220029,2,0,P|284:64|248:56,1,55
180,100,220353,1,0,0:0:0:0:
248,164,220515,1,0,0:0:0:0:
172,220,220677,2,0,L|128:280,1,55
224,300,221001,1,0,0:0:0:0:
384,204,221326,1,0,0:0:0:0:
212,132,221650,6,0,P|248:88|260:64,1,55
340,92,221974,1,0,0:0:0:0:
212,228,222299,2,0,P|188:292|188:300,2,55
376,316,222947,2,0,P|444:296|460:284,1,55
396,216,223272,2,0,P|452:188|464:176,1,55
384,124,223596,2,0,P|272:80|168:104,1,220
