osu file format v14

[General]
AudioFilename: audio.mp3
AudioLeadIn: 0
PreviewTime: 35654
Countdown: 0
SampleSet: Normal
StackLeniency: 0.7
Mode: 1
LetterboxInBreaks: 0
WidescreenStoryboard: 1

[Editor]
Bookmarks: 16197,36182,56192,66182,76182,86182,106182,111182,113682,151182,156582,161182,221182
DistanceSpacing: 1.1
BeatDivisor: 4
GridSize: 8
TimelineZoom: 3.099999

[Metadata]
Title:Yang Guang Cai Hong Xiao Bai Ma
TitleUnicode:陽光彩虹小白馬
Artist:Wowkie Zhang
ArtistUnicode:大張偉
Creator:vrnl
Version:Muzukashii!
Source:
Tags:pop chinese horiiizon rainbow sunshine white pony
BeatmapID:2478311
BeatmapSetID:1177380

[Difficulty]
HPDrainRate:6
CircleSize:5.5
OverallDifficulty:4
ApproachRate:5.5
SliderMultiplier:1.4
SliderTickRate:1

[Events]
//Background and Video events
0,0,"Screenshot (53).png",0,60
//Break Periods
2,106045,109795
//Storyboard Layer 0 (Background)
//Storyboard Layer 1 (Fail)
//Storyboard Layer 2 (Pass)
//Storyboard Layer 3 (Foreground)
//Storyboard Layer 4 (Overlay)
//Storyboard Sound Samples

[TimingPoints]
13545,625,4,1,0,70,1,0
13545,-100,4,1,0,70,0,0
16045,625,4,1,0,70,1,0
16045,-80,4,1,0,70,0,0
61591,-75.187969924812,4,1,0,70,0,0
61904,-72.992700729927,4,1,0,70,0,0
62216,-70.9219858156028,4,1,0,70,0,0
62529,-68.9655172413793,4,1,0,70,0,0
62841,-67.1140939597315,4,1,0,70,0,0
63154,-65.359477124183,4,1,0,70,0,0
63466,-63.6942675159236,4,1,0,70,0,0
63935,-68.0272108843537,4,1,0,70,0,0
64404,-72.992700729927,4,1,0,70,0,0
64716,-75.187969924812,4,1,0,70,0,0
64873,-77.5193798449612,4,1,0,70,0,0
65029,-80,4,1,0,70,0,0
65185,-82.6446280991736,4,1,0,70,0,0
65341,-71.4285714285714,4,1,0,70,0,0
65966,-80,4,1,0,70,0,0
66045,-90.9090909090909,4,1,0,70,0,1
83466,-66.6666666666667,4,1,0,70,0,1
83545,-80,4,1,0,70,0,0
106045,-90.9090909090909,4,1,0,70,0,0
111045,-80,4,1,0,70,0,0
156591,-75.187969924812,4,1,0,70,0,0
156904,-72.992700729927,4,1,0,70,0,0
157216,-70.9219858156028,4,1,0,70,0,0
157529,-68.9655172413793,4,1,0,70,0,0
157841,-67.1140939597315,4,1,0,70,0,0
158154,-65.359477124183,4,1,0,70,0,0
158466,-63.6942675159236,4,1,0,70,0,0
158935,-68.0272108843537,4,1,0,70,0,0
159404,-72.992700729927,4,1,0,70,0,0
159716,-75.187969924812,4,1,0,70,0,0
159873,-76.3358778625954,4,1,0,70,0,0
160029,-77.5193798449612,4,1,0,70,0,0
160185,-78.7401574803149,4,1,0,70,0,0
160341,-71.4285714285714,4,1,0,70,0,0
160966,-90.9090909090909,4,1,0,70,0,0
161045,-90.9090909090909,4,1,0,70,0,1
178466,-80,4,1,0,70,0,1
178545,-80,4,1,0,70,0,0
220888,-80,4,1,0,35,0,0

[HitObjects]
245,150,13545,5,2,0:0:0:0:
245,150,14014,1,2,0:0:0:0:
245,150,14483,1,2,0:0:0:0:
198,142,14795,1,2,0:0:0:0:
198,142,14951,1,0,0:0:0:0:
198,142,15108,1,0,0:0:0:0:
198,142,15420,1,2,0:0:0:0:
272,101,16045,1,0,0:0:0:0:
136,208,16357,1,2,0:0:0:0:
272,101,16670,1,2,0:0:0:0:
272,101,16982,1,0,0:0:0:0:
177,142,17138,1,2,0:0:0:0:
272,101,17607,1,2,0:0:0:0:
272,101,17920,1,2,0:0:0:0:
272,101,18232,1,0,0:0:0:0:
196,30,18388,1,0,0:0:0:0:
272,101,18545,1,2,0:0:0:0:
272,101,18857,1,2,0:0:0:0:
177,103,19170,1,2,0:0:0:0:
272,101,19482,1,0,0:0:0:0:
272,101,20107,1,2,0:0:0:0:
169,72,20420,1,2,0:0:0:0:
169,72,20576,1,2,0:0:0:0:
272,101,20732,1,0,0:0:0:0:
272,101,21045,1,2,0:0:0:0:
272,101,21357,1,0,0:0:0:0:
160,154,21670,1,2,0:0:0:0:
272,101,21982,1,0,0:0:0:0:
272,101,22607,1,2,0:0:0:0:
272,101,22920,1,2,0:0:0:0:
272,101,23232,1,0,0:0:0:0:
174,81,23388,1,0,0:0:0:0:
272,101,23545,1,2,0:0:0:0:
272,101,23857,1,0,0:0:0:0:
160,154,24170,1,2,0:0:0:0:
272,101,24482,1,0,0:0:0:0:
272,101,25107,1,0,0:0:0:0:
272,101,25420,1,0,0:0:0:0:
272,101,25732,1,0,0:0:0:0:
189,55,26045,1,2,0:0:0:0:
136,208,26357,1,0,0:0:0:0:
272,101,26670,1,2,0:0:0:0:
272,101,26982,1,0,0:0:0:0:
177,142,27138,1,2,0:0:0:0:
272,101,27607,1,2,0:0:0:0:
272,101,27920,1,2,0:0:0:0:
272,101,28232,1,0,0:0:0:0:
156,167,28388,1,0,0:0:0:0:
272,101,28545,1,2,0:0:0:0:
272,101,28857,1,2,0:0:0:0:
177,103,29170,1,0,0:0:0:0:
272,101,29482,1,0,0:0:0:0:
272,101,30107,1,2,0:0:0:0:
169,72,30420,1,2,0:0:0:0:
169,72,30576,1,2,0:0:0:0:
272,101,30732,1,0,0:0:0:0:
272,101,31045,1,2,0:0:0:0:
272,101,31357,1,0,0:0:0:0:
160,154,31670,1,2,0:0:0:0:
272,101,31982,1,0,0:0:0:0:
272,101,32607,1,2,0:0:0:0:
272,101,32920,1,2,0:0:0:0:
272,101,33545,1,2,0:0:0:0:
272,101,33857,1,0,0:0:0:0:
160,154,34170,1,2,0:0:0:0:
272,101,34482,1,2,0:0:0:0:
198,72,34795,1,2,0:0:0:0:
198,72,34951,1,0,0:0:0:0:
307,167,35107,1,0,0:0:0:0:
28,165,35420,1,2,0:0:0:0:
260,138,36045,1,2,0:0:0:0:
260,138,36357,1,2,0:0:0:0:
260,138,36513,1,0,0:0:0:0:
260,138,36670,1,2,0:0:0:0:
197,118,36982,1,2,0:0:0:0:
260,138,37295,1,2,0:0:0:0:
260,138,37451,1,0,0:0:0:0:
260,138,37607,1,2,0:0:0:0:
260,138,37920,1,2,0:0:0:0:
260,138,38232,1,0,0:0:0:0:
260,138,38545,1,2,0:0:0:0:
260,138,38857,1,2,0:0:0:0:
260,138,39013,1,0,0:0:0:0:
260,138,39170,1,2,0:0:0:0:
110,96,39482,1,2,0:0:0:0:
260,138,39795,1,2,0:0:0:0:
260,138,39951,1,2,0:0:0:0:
260,138,40107,1,0,0:0:0:0:
260,138,40420,1,2,0:0:0:0:
260,138,40732,1,0,0:0:0:0:
260,138,41045,1,2,0:0:0:0:
260,138,41357,1,2,0:0:0:0:
260,138,41670,1,2,0:0:0:0:
260,138,41982,1,0,0:0:0:0:
260,138,42295,1,2,0:0:0:0:
260,138,42607,1,0,0:0:0:0:
260,138,42920,1,2,0:0:0:0:
260,138,43545,1,2,0:0:0:0:
260,138,43857,1,2,0:0:0:0:
260,138,44013,1,2,0:0:0:0:
260,138,44170,1,0,0:0:0:0:
260,138,44482,1,2,0:0:0:0:
260,138,44795,1,0,0:0:0:0:
260,138,45420,1,2,0:0:0:0:
260,138,46045,1,2,0:0:0:0:
260,138,46357,1,2,0:0:0:0:
260,138,46513,1,0,0:0:0:0:
260,138,46670,1,2,0:0:0:0:
260,138,46982,1,2,0:0:0:0:
260,138,47295,1,2,0:0:0:0:
260,138,47451,1,0,0:0:0:0:
260,138,47607,1,2,0:0:0:0:
260,138,47920,1,2,0:0:0:0:
260,138,48232,1,0,0:0:0:0:
260,138,48545,1,2,0:0:0:0:
260,138,48857,1,2,0:0:0:0:
260,138,49013,1,0,0:0:0:0:
260,138,49170,1,2,0:0:0:0:
260,138,49482,1,2,0:0:0:0:
260,138,49795,1,2,0:0:0:0:
260,138,49951,1,2,0:0:0:0:
260,138,50107,1,0,0:0:0:0:
260,138,50420,1,2,0:0:0:0:
260,138,50732,1,2,0:0:0:0:
260,138,51045,1,0,0:0:0:0:
260,138,51357,1,0,0:0:0:0:
260,138,51670,1,2,0:0:0:0:
260,138,51982,1,0,0:0:0:0:
260,138,52295,1,0,0:0:0:0:
260,138,52607,1,0,0:0:0:0:
260,138,52920,1,2,0:0:0:0:
260,138,53545,1,2,0:0:0:0:
260,138,53857,1,2,0:0:0:0:
260,138,54013,1,2,0:0:0:0:
260,138,54170,1,0,0:0:0:0:
260,138,54482,1,2,0:0:0:0:
260,138,54795,1,0,0:0:0:0:
260,138,55420,1,2,0:0:0:0:
173,148,56045,1,2,0:0:0:0:
173,148,56513,1,0,0:0:0:0:
173,148,56670,1,2,0:0:0:0:
173,148,56982,1,0,0:0:0:0:
173,148,57451,1,0,0:0:0:0:
173,148,57607,1,2,0:0:0:0:
173,148,57920,1,2,0:0:0:0:
173,148,58232,1,0,0:0:0:0:
173,148,58545,1,2,0:0:0:0:
173,148,59013,1,0,0:0:0:0:
173,148,59170,1,2,0:0:0:0:
173,148,59482,1,0,0:0:0:0:
173,148,59951,1,0,0:0:0:0:
173,148,60107,1,2,0:0:0:0:
173,148,60420,1,2,0:0:0:0:
179,51,60732,1,0,0:0:0:0:
179,51,60888,1,0,0:0:0:0:
173,148,61045,1,2,0:0:0:0:
173,148,61670,1,2,0:0:0:0:
235,80,61982,1,0,0:0:0:0:
173,148,62295,1,2,0:0:0:0:
173,148,62607,1,2,0:0:0:0:
173,148,62920,1,2,0:0:0:0:
173,148,63232,1,0,0:0:0:0:
173,148,63545,1,2,0:0:0:0:
109,167,64013,1,2,0:0:0:0:
109,167,64482,1,0,0:0:0:0:
231,175,64795,1,2,0:0:0:0:
189,142,64951,1,2,0:0:0:0:
189,142,65107,1,0,0:0:0:0:
189,142,65263,1,0,0:0:0:0:
220,80,65420,1,6,0:0:0:0:
167,177,66045,1,0,0:0:0:0:
167,177,66201,1,2,0:0:0:0:
167,177,66357,1,0,0:0:0:0:
167,177,66670,1,2,0:0:0:0:
167,177,66826,1,2,0:0:0:0:
164,90,67138,1,0,0:0:0:0:
164,90,67295,1,2,0:0:0:0:
164,90,67451,1,0,0:0:0:0:
164,90,67607,1,0,0:0:0:0:
164,90,67920,1,2,0:0:0:0:
249,196,68545,1,0,0:0:0:0:
253,115,68701,1,2,0:0:0:0:
253,115,68857,1,0,0:0:0:0:
253,115,69170,1,2,0:0:0:0:
253,115,69482,1,2,0:0:0:0:
253,115,69638,1,0,0:0:0:0:
253,115,69951,1,0,0:0:0:0:
253,115,70107,1,0,0:0:0:0:
253,115,70420,1,2,0:0:0:0:
307,138,71045,1,0,0:0:0:0:
307,138,71123,1,0,0:0:0:0:
119,102,71201,1,2,0:0:0:0:
342,88,71670,1,2,0:0:0:0:
272,96,71826,1,0,0:0:0:0:
272,96,71982,1,2,0:0:0:0:
272,96,72138,1,0,0:0:0:0:
272,96,72451,1,0,0:0:0:0:
272,96,72607,1,0,0:0:0:0:
272,96,72920,1,2,0:0:0:0:
175,196,73545,1,0,0:0:0:0:
175,196,73701,1,2,0:0:0:0:
175,196,73857,1,0,0:0:0:0:
175,196,74170,1,2,0:0:0:0:
154,146,74482,1,2,0:0:0:0:
154,146,74638,1,0,0:0:0:0:
154,146,74951,1,0,0:0:0:0:
154,146,75107,1,0,0:0:0:0:
206,134,75420,1,2,0:0:0:0:
167,177,76045,1,0,0:0:0:0:
167,177,76201,1,2,0:0:0:0:
167,177,76357,1,0,0:0:0:0:
167,177,76670,1,2,0:0:0:0:
167,177,76826,1,2,0:0:0:0:
164,90,77138,1,0,0:0:0:0:
164,90,77295,1,2,0:0:0:0:
164,90,77451,1,0,0:0:0:0:
164,90,77607,1,0,0:0:0:0:
164,90,77920,1,2,0:0:0:0:
161,108,78232,1,2,0:0:0:0:
249,196,78545,1,0,0:0:0:0:
253,115,78701,1,2,0:0:0:0:
253,115,78857,1,0,0:0:0:0:
253,115,79170,1,2,0:0:0:0:
253,115,79482,1,2,0:0:0:0:
253,115,79638,1,0,0:0:0:0:
253,115,79951,1,0,0:0:0:0:
253,115,80107,1,0,0:0:0:0:
253,115,80420,1,2,0:0:0:0:
307,138,81045,1,4,0:0:0:0:
342,88,81670,1,2,0:0:0:0:
272,96,81826,1,0,0:0:0:0:
272,96,81982,1,2,0:0:0:0:
272,96,82138,1,0,0:0:0:0:
272,96,82451,1,0,0:0:0:0:
272,96,82607,1,0,0:0:0:0:
272,96,82920,1,2,0:0:0:0:
185,117,83545,5,0,0:0:0:0:
185,117,84013,1,0,0:0:0:0:
185,117,84170,1,2,0:0:0:0:
185,117,84482,1,0,0:0:0:0:
185,117,84951,1,0,0:0:0:0:
185,117,85107,1,0,0:0:0:0:
185,117,85420,1,6,0:0:0:0:
206,171,86045,1,2,0:0:0:0:
206,171,86357,1,0,0:0:0:0:
206,171,86670,1,2,0:0:0:0:
206,171,86982,1,2,0:0:0:0:
206,171,87295,1,0,0:0:0:0:
206,171,87607,1,2,0:0:0:0:
206,171,87763,1,2,0:0:0:0:
206,171,87920,1,0,0:0:0:0:
206,171,88232,1,2,0:0:0:0:
206,171,88545,1,0,0:0:0:0:
206,171,88857,1,0,0:0:0:0:
206,171,89013,1,2,0:0:0:0:
206,171,89170,1,0,0:0:0:0:
206,171,89482,1,2,0:0:0:0:
206,171,89795,1,0,0:0:0:0:
206,171,90420,1,2,0:0:0:0:
136,181,91045,1,2,0:0:0:0:
206,171,91357,1,0,0:0:0:0:
206,171,91670,1,2,0:0:0:0:
206,171,91982,1,2,0:0:0:0:
206,171,92295,1,0,0:0:0:0:
206,171,92607,1,2,0:0:0:0:
221,61,92763,1,0,0:0:0:0:
206,171,92920,1,2,0:0:0:0:
206,171,93232,1,0,0:0:0:0:
206,171,93545,1,0,0:0:0:0:
206,171,93857,1,0,0:0:0:0:
206,171,94013,1,2,0:0:0:0:
206,171,94170,1,0,0:0:0:0:
206,171,94482,1,2,0:0:0:0:
206,171,95107,1,4,0:0:0:0:
206,171,95420,1,4,0:0:0:0:
206,171,95732,1,4,0:0:0:0:
206,171,96045,1,2,0:0:0:0:
206,171,96357,1,0,0:0:0:0:
206,171,96670,1,2,0:0:0:0:
206,171,96982,1,2,0:0:0:0:
206,171,97295,1,0,0:0:0:0:
206,171,97607,1,2,0:0:0:0:
206,171,97763,1,2,0:0:0:0:
206,171,97920,1,0,0:0:0:0:
206,171,98232,1,2,0:0:0:0:
206,171,98545,1,0,0:0:0:0:
206,171,98857,1,0,0:0:0:0:
206,171,99013,1,2,0:0:0:0:
206,171,99170,1,0,0:0:0:0:
206,171,99482,1,2,0:0:0:0:
206,171,99795,1,0,0:0:0:0:
206,171,100420,1,2,0:0:0:0:
206,171,101045,1,2,0:0:0:0:
206,171,101357,1,0,0:0:0:0:
206,171,101670,1,2,0:0:0:0:
206,171,101982,1,2,0:0:0:0:
206,171,102295,1,0,0:0:0:0:
206,171,102607,1,2,0:0:0:0:
206,171,102763,1,0,0:0:0:0:
206,171,102920,1,2,0:0:0:0:
206,171,103232,1,0,0:0:0:0:
206,171,103545,1,0,0:0:0:0:
206,171,104013,1,0,0:0:0:0:
206,171,104170,1,0,0:0:0:0:
206,171,104482,1,2,0:0:0:0:
206,171,104951,1,2,0:0:0:0:
206,171,105107,1,0,0:0:0:0:
206,171,105420,1,2,0:0:0:0:
119,165,112920,5,2,0:0:0:0:
272,101,113545,1,2,0:0:0:0:
272,101,113857,1,0,0:0:0:0:
177,103,114170,1,2,0:0:0:0:
272,101,114482,1,0,0:0:0:0:
272,101,115107,1,2,0:0:0:0:
169,72,115420,1,2,0:0:0:0:
169,72,115576,1,0,0:0:0:0:
272,101,115732,1,0,0:0:0:0:
272,101,116045,1,2,0:0:0:0:
272,101,116357,1,0,0:0:0:0:
160,154,116670,1,2,0:0:0:0:
272,101,116982,1,0,0:0:0:0:
272,101,117607,1,2,0:0:0:0:
272,101,117920,1,2,0:0:0:0:
272,101,118232,1,0,0:0:0:0:
174,81,118388,1,0,0:0:0:0:
272,101,118545,1,2,0:0:0:0:
272,101,118857,1,0,0:0:0:0:
160,154,119170,1,2,0:0:0:0:
272,101,119482,1,0,0:0:0:0:
272,101,120107,1,0,0:0:0:0:
272,101,120420,1,0,0:0:0:0:
272,101,120732,1,0,0:0:0:0:
189,55,121045,1,2,0:0:0:0:
136,208,121357,1,0,0:0:0:0:
272,101,121670,1,2,0:0:0:0:
272,101,121982,1,0,0:0:0:0:
177,142,122138,1,2,0:0:0:0:
272,101,122607,1,2,0:0:0:0:
272,101,122920,1,2,0:0:0:0:
272,101,123232,1,0,0:0:0:0:
156,167,123388,1,0,0:0:0:0:
272,101,123545,1,2,0:0:0:0:
272,101,123857,1,2,0:0:0:0:
177,103,124170,1,0,0:0:0:0:
272,101,124482,1,0,0:0:0:0:
272,101,125107,1,2,0:0:0:0:
169,72,125420,1,2,0:0:0:0:
169,72,125576,1,0,0:0:0:0:
272,101,125732,1,0,0:0:0:0:
272,101,126045,1,2,0:0:0:0:
272,101,126357,1,0,0:0:0:0:
160,154,126670,1,2,0:0:0:0:
272,101,126982,1,0,0:0:0:0:
272,101,127607,1,2,0:0:0:0:
272,101,127920,1,2,0:0:0:0:
272,101,128232,1,0,0:0:0:0:
148,154,128388,1,0,0:0:0:0:
272,101,128545,1,2,0:0:0:0:
272,101,128857,1,0,0:0:0:0:
160,154,129170,1,2,0:0:0:0:
272,101,129482,1,2,0:0:0:0:
198,72,129795,1,2,0:0:0:0:
198,72,129951,1,0,0:0:0:0:
307,167,130107,1,0,0:0:0:0:
28,165,130420,1,2,0:0:0:0:
260,138,131045,1,2,0:0:0:0:
260,138,131357,1,2,0:0:0:0:
260,138,131513,1,0,0:0:0:0:
260,138,131670,1,2,0:0:0:0:
197,118,131982,1,2,0:0:0:0:
260,138,132295,1,2,0:0:0:0:
260,138,132451,1,0,0:0:0:0:
260,138,132607,1,2,0:0:0:0:
260,138,132920,1,2,0:0:0:0:
260,138,133232,1,0,0:0:0:0:
260,138,133545,1,2,0:0:0:0:
260,138,133857,1,2,0:0:0:0:
260,138,134013,1,0,0:0:0:0:
260,138,134170,1,2,0:0:0:0:
110,96,134482,1,2,0:0:0:0:
260,138,134795,1,2,0:0:0:0:
260,138,134951,1,2,0:0:0:0:
260,138,135107,1,0,0:0:0:0:
260,138,135420,1,2,0:0:0:0:
260,138,135732,1,2,0:0:0:0:
260,138,136045,1,0,0:0:0:0:
260,138,136357,1,2,0:0:0:0:
260,138,136670,1,2,0:0:0:0:
260,138,136982,1,0,0:0:0:0:
260,138,137295,1,2,0:0:0:0:
260,138,137607,1,0,0:0:0:0:
260,138,137920,1,2,0:0:0:0:
260,138,138545,1,2,0:0:0:0:
260,138,138857,1,2,0:0:0:0:
260,138,139013,1,2,0:0:0:0:
260,138,139170,1,0,0:0:0:0:
260,138,139482,1,2,0:0:0:0:
260,138,139795,1,0,0:0:0:0:
124,120,140107,1,0,0:0:0:0:
260,138,140420,1,2,0:0:0:0:
260,138,141045,1,2,0:0:0:0:
260,138,141357,1,2,0:0:0:0:
260,138,141513,1,0,0:0:0:0:
260,138,141670,1,2,0:0:0:0:
260,138,141982,1,2,0:0:0:0:
260,138,142295,1,2,0:0:0:0:
260,138,142451,1,0,0:0:0:0:
260,138,142607,1,2,0:0:0:0:
260,138,142920,1,2,0:0:0:0:
260,138,143232,1,0,0:0:0:0:
260,138,143545,1,2,0:0:0:0:
260,138,143857,1,2,0:0:0:0:
260,138,144013,1,0,0:0:0:0:
260,138,144170,1,2,0:0:0:0:
260,138,144482,1,2,0:0:0:0:
260,138,144795,1,2,0:0:0:0:
260,138,144951,1,2,0:0:0:0:
260,138,145107,1,0,0:0:0:0:
260,138,145420,1,2,0:0:0:0:
260,138,145732,1,2,0:0:0:0:
260,138,146045,1,0,0:0:0:0:
260,138,146357,1,0,0:0:0:0:
260,138,146670,1,2,0:0:0:0:
260,138,146982,1,0,0:0:0:0:
260,138,147295,1,0,0:0:0:0:
260,138,147607,1,0,0:0:0:0:
260,138,147920,1,2,0:0:0:0:
260,138,148545,1,2,0:0:0:0:
260,138,148857,1,2,0:0:0:0:
260,138,149013,1,2,0:0:0:0:
260,138,149170,1,0,0:0:0:0:
260,138,149482,1,2,0:0:0:0:
260,138,149795,1,0,0:0:0:0:
180,74,150107,1,0,0:0:0:0:
260,138,150420,1,2,0:0:0:0:
173,148,151045,1,2,0:0:0:0:
173,148,151513,1,0,0:0:0:0:
173,148,151670,1,2,0:0:0:0:
173,148,151982,1,0,0:0:0:0:
173,148,152451,1,0,0:0:0:0:
173,148,152607,1,2,0:0:0:0:
173,148,152920,1,2,0:0:0:0:
173,148,153232,1,0,0:0:0:0:
173,148,153545,1,2,0:0:0:0:
173,148,154013,1,0,0:0:0:0:
173,148,154170,1,2,0:0:0:0:
173,148,154482,1,0,0:0:0:0:
173,148,154951,1,0,0:0:0:0:
173,148,155107,1,2,0:0:0:0:
173,148,155420,1,2,0:0:0:0:
179,51,155732,1,0,0:0:0:0:
179,51,155888,1,0,0:0:0:0:
173,148,156045,1,2,0:0:0:0:
173,148,156670,1,2,0:0:0:0:
235,80,156982,1,0,0:0:0:0:
173,148,157295,1,2,0:0:0:0:
173,148,157607,1,2,0:0:0:0:
173,148,157920,1,2,0:0:0:0:
173,148,158232,1,0,0:0:0:0:
173,148,158545,1,2,0:0:0:0:
109,167,159013,1,2,0:0:0:0:
109,167,159482,1,0,0:0:0:0:
231,175,159795,1,2,0:0:0:0:
189,142,159951,1,2,0:0:0:0:
189,142,160107,1,0,0:0:0:0:
189,142,160263,1,0,0:0:0:0:
220,80,160420,1,6,0:0:0:0:
167,177,161045,1,0,0:0:0:0:
167,177,161201,1,2,0:0:0:0:
167,177,161357,1,0,0:0:0:0:
167,177,161670,1,2,0:0:0:0:
167,177,161826,1,2,0:0:0:0:
164,90,162138,1,0,0:0:0:0:
164,90,162295,1,2,0:0:0:0:
164,90,162451,1,0,0:0:0:0:
164,90,162607,1,0,0:0:0:0:
164,90,162920,1,2,0:0:0:0:
249,196,163545,1,0,0:0:0:0:
253,115,163701,1,2,0:0:0:0:
253,115,163857,1,0,0:0:0:0:
253,115,164170,1,2,0:0:0:0:
253,115,164482,1,2,0:0:0:0:
253,115,164638,1,0,0:0:0:0:
253,115,164951,1,0,0:0:0:0:
253,115,165107,1,0,0:0:0:0:
253,115,165420,1,2,0:0:0:0:
307,138,166045,1,0,0:0:0:0:
307,138,166123,1,0,0:0:0:0:
119,102,166201,1,2,0:0:0:0:
342,88,166670,1,2,0:0:0:0:
272,96,166826,1,0,0:0:0:0:
272,96,166982,1,2,0:0:0:0:
272,96,167138,1,0,0:0:0:0:
272,96,167451,1,0,0:0:0:0:
272,96,167607,1,0,0:0:0:0:
272,96,167920,1,2,0:0:0:0:
175,196,168545,1,0,0:0:0:0:
175,196,168701,1,2,0:0:0:0:
175,196,168857,1,0,0:0:0:0:
175,196,169170,1,2,0:0:0:0:
154,146,169482,1,2,0:0:0:0:
154,146,169638,1,0,0:0:0:0:
154,146,169951,1,0,0:0:0:0:
154,146,170107,1,0,0:0:0:0:
206,134,170420,1,2,0:0:0:0:
167,177,171045,1,0,0:0:0:0:
167,177,171201,1,2,0:0:0:0:
167,177,171357,1,0,0:0:0:0:
167,177,171670,1,2,0:0:0:0:
167,177,171826,1,2,0:0:0:0:
164,90,172138,1,0,0:0:0:0:
164,90,172295,1,2,0:0:0:0:
164,90,172451,1,0,0:0:0:0:
164,90,172607,1,0,0:0:0:0:
164,90,172920,1,2,0:0:0:0:
161,108,173232,1,2,0:0:0:0:
249,196,173545,1,0,0:0:0:0:
253,115,173701,1,2,0:0:0:0:
253,115,173857,1,0,0:0:0:0:
253,115,174170,1,2,0:0:0:0:
253,115,174482,1,2,0:0:0:0:
253,115,174638,1,0,0:0:0:0:
253,115,174951,1,0,0:0:0:0:
253,115,175107,1,0,0:0:0:0:
253,115,175420,1,2,0:0:0:0:
307,138,176045,1,4,0:0:0:0:
342,88,176670,1,2,0:0:0:0:
272,96,176826,1,0,0:0:0:0:
272,96,176982,1,2,0:0:0:0:
272,96,177138,1,0,0:0:0:0:
272,96,177451,1,0,0:0:0:0:
272,96,177607,1,0,0:0:0:0:
272,96,177920,1,2,0:0:0:0:
185,117,178545,5,0,0:0:0:0:
185,117,179013,1,0,0:0:0:0:
185,117,179170,1,2,0:0:0:0:
185,117,179482,1,0,0:0:0:0:
185,117,179951,1,0,0:0:0:0:
185,117,180107,1,0,0:0:0:0:
185,117,180420,1,6,0:0:0:0:
206,171,181045,1,2,0:0:0:0:
206,171,181357,1,0,0:0:0:0:
206,171,181670,1,2,0:0:0:0:
206,171,181982,1,2,0:0:0:0:
206,171,182295,1,0,0:0:0:0:
206,171,182607,1,2,0:0:0:0:
206,171,182763,1,2,0:0:0:0:
206,171,182920,1,0,0:0:0:0:
206,171,183232,1,2,0:0:0:0:
206,171,183545,1,0,0:0:0:0:
206,171,183857,1,0,0:0:0:0:
206,171,184013,1,2,0:0:0:0:
206,171,184170,1,0,0:0:0:0:
206,171,184482,1,2,0:0:0:0:
206,171,184795,1,0,0:0:0:0:
206,171,185420,1,2,0:0:0:0:
136,181,186045,1,2,0:0:0:0:
206,171,186357,1,0,0:0:0:0:
206,171,186670,1,2,0:0:0:0:
206,171,186982,1,2,0:0:0:0:
206,171,187295,1,0,0:0:0:0:
206,171,187607,1,2,0:0:0:0:
221,61,187763,1,0,0:0:0:0:
206,171,187920,1,2,0:0:0:0:
206,171,188232,1,0,0:0:0:0:
206,171,188545,1,0,0:0:0:0:
206,171,188857,1,0,0:0:0:0:
206,171,189013,1,2,0:0:0:0:
206,171,189170,1,0,0:0:0:0:
206,171,189482,1,2,0:0:0:0:
206,171,190107,1,4,0:0:0:0:
206,171,190420,1,4,0:0:0:0:
206,171,190732,1,4,0:0:0:0:
206,171,191045,1,2,0:0:0:0:
206,171,191357,1,0,0:0:0:0:
206,171,191670,1,2,0:0:0:0:
206,171,191982,1,2,0:0:0:0:
206,171,192295,1,0,0:0:0:0:
206,171,192607,1,2,0:0:0:0:
206,171,192763,1,2,0:0:0:0:
206,171,192920,1,0,0:0:0:0:
206,171,193232,1,2,0:0:0:0:
206,171,193545,1,0,0:0:0:0:
206,171,193857,1,0,0:0:0:0:
206,171,194013,1,2,0:0:0:0:
206,171,194170,1,0,0:0:0:0:
206,171,194482,1,2,0:0:0:0:
206,171,194795,1,0,0:0:0:0:
206,171,195420,1,2,0:0:0:0:
206,171,196045,1,2,0:0:0:0:
206,171,196357,1,0,0:0:0:0:
206,171,196670,1,2,0:0:0:0:
206,171,196982,1,2,0:0:0:0:
206,171,197295,1,0,0:0:0:0:
206,171,197607,1,2,0:0:0:0:
206,171,197763,1,0,0:0:0:0:
206,171,197920,1,2,0:0:0:0:
206,171,198232,1,0,0:0:0:0:
206,171,198545,1,2,0:0:0:0:
176,109,199013,1,0,0:0:0:0:
176,109,199170,1,0,0:0:0:0:
176,109,199482,1,0,0:0:0:0:
176,109,199951,1,2,0:0:0:0:
176,109,200107,1,0,0:0:0:0:
176,109,200420,1,2,0:0:0:0:
206,171,201045,1,2,0:0:0:0:
206,171,201357,1,0,0:0:0:0:
206,171,201670,1,2,0:0:0:0:
206,171,201982,1,2,0:0:0:0:
206,171,202295,1,0,0:0:0:0:
206,171,202607,1,2,0:0:0:0:
206,171,202763,1,2,0:0:0:0:
206,171,202920,1,0,0:0:0:0:
206,171,203232,1,2,0:0:0:0:
206,171,203545,1,0,0:0:0:0:
206,171,203857,1,0,0:0:0:0:
206,171,204013,1,2,0:0:0:0:
206,171,204170,1,0,0:0:0:0:
206,171,204482,1,2,0:0:0:0:
206,171,204795,1,0,0:0:0:0:
206,171,205420,1,2,0:0:0:0:
136,181,206045,1,2,0:0:0:0:
206,171,206357,1,0,0:0:0:0:
206,171,206670,1,2,0:0:0:0:
206,171,206982,1,2,0:0:0:0:
206,171,207295,1,0,0:0:0:0:
206,171,207607,1,2,0:0:0:0:
221,61,207763,1,0,0:0:0:0:
206,171,207920,1,2,0:0:0:0:
206,171,208232,1,0,0:0:0:0:
206,171,208545,1,0,0:0:0:0:
206,171,208857,1,0,0:0:0:0:
206,171,209013,1,2,0:0:0:0:
206,171,209170,1,0,0:0:0:0:
206,171,209482,1,2,0:0:0:0:
206,171,210107,1,4,0:0:0:0:
206,171,210420,1,4,0:0:0:0:
206,171,210732,1,4,0:0:0:0:
206,171,211045,1,2,0:0:0:0:
206,171,211357,1,0,0:0:0:0:
206,171,211670,1,2,0:0:0:0:
206,171,211982,1,2,0:0:0:0:
206,171,212295,1,0,0:0:0:0:
206,171,212607,1,2,0:0:0:0:
206,171,212763,1,2,0:0:0:0:
206,171,212920,1,0,0:0:0:0:
206,171,213232,1,2,0:0:0:0:
206,171,213545,1,0,0:0:0:0:
206,171,213857,1,0,0:0:0:0:
206,171,214013,1,2,0:0:0:0:
206,171,214170,1,0,0:0:0:0:
206,171,214482,1,2,0:0:0:0:
206,171,214795,1,0,0:0:0:0:
206,171,215420,1,2,0:0:0:0:
206,171,216045,1,2,0:0:0:0:
206,171,216357,1,0,0:0:0:0:
206,171,216670,1,2,0:0:0:0:
206,171,216982,1,2,0:0:0:0:
206,171,217295,1,0,0:0:0:0:
206,171,217607,1,2,0:0:0:0:
206,171,217763,1,0,0:0:0:0:
206,171,217920,1,2,0:0:0:0:
206,171,218232,1,0,0:0:0:0:
206,171,218545,1,2,0:0:0:0:
176,109,219013,1,0,0:0:0:0:
176,109,219170,1,0,0:0:0:0:
176,109,219482,1,0,0:0:0:0:
176,109,219951,1,2,0:0:0:0:
176,109,220107,1,0,0:0:0:0:
176,109,220420,1,2,0:0:0:0:
245,111,221045,5,2,0:0:0:0:
