osu file format v14

[General]
AudioFilename: audio.mp3
AudioLeadIn: 0
PreviewTime: 35654
Countdown: 0
SampleSet: Normal
StackLeniency: 0.7
Mode: 1
LetterboxInBreaks: 0
WidescreenStoryboard: 1

[Editor]
Bookmarks: 16197,36182,56192,66182,76182,86182,106182,111182,113682,151182,161182,221182
DistanceSpacing: 1.3
BeatDivisor: 8
GridSize: 8
TimelineZoom: 2.1

[Metadata]
Title:Yang Guang Cai Hong Xiao Bai Ma
TitleUnicode:陽光彩虹小白馬
Artist:Wowkie Zhang
ArtistUnicode:大張偉
Creator:vrnl
Version:Horiiizon's Oni!
Source:
Tags:pop chinese horiiizon rainbow sunshine white pony
BeatmapID:2490272
BeatmapSetID:1177380

[Difficulty]
HPDrainRate:5
CircleSize:5.5
OverallDifficulty:5
ApproachRate:5.5
SliderMultiplier:1.4
SliderTickRate:1

[Events]
//Background and Video events
0,0,"Screenshot (53).png",0,60
//Break Periods
2,106045,109795
//Storyboard Layer 0 (Background)
//Storyboard Layer 1 (Fail)
//Storyboard Layer 2 (Pass)
//Storyboard Layer 3 (Foreground)
//Storyboard Layer 4 (Overlay)
//Storyboard Sound Samples

[TimingPoints]
13545,625,4,1,0,70,1,0
16045,625,4,1,0,70,1,0
16045,-80,4,1,0,70,0,0
61591,-76.9230769230769,4,1,0,70,0,0
61904,-75.7575757575758,4,1,0,70,0,0
62216,-74.6268656716418,4,1,0,70,0,0
62529,-73.5294117647059,4,1,0,70,0,0
62841,-72.463768115942,4,1,0,70,0,0
63154,-71.4285714285714,4,1,0,70,0,0
63466,-70.4225352112676,4,1,0,70,0,0
63935,-73.5294117647059,4,1,0,70,0,0
64404,-76.9230769230769,4,1,0,70,0,0
64755,-80.6451612903226,4,1,0,70,0,0
64912,-84.7457627118644,4,1,0,70,0,0
65068,-89.2857142857143,4,1,0,70,0,0
65224,-94.3396226415094,4,1,0,70,0,0
65380,-100,4,1,0,70,0,0
65966,-100,4,1,0,70,0,0
66045,-100,4,1,0,70,0,1
83466,-80,4,1,0,70,0,1
83545,-80,4,1,0,70,0,0
106045,-100,4,1,0,70,0,0
111045,-80,4,1,0,70,0,0
156591,-76.9230769230769,4,1,0,70,0,0
156904,-75.7575757575758,4,1,0,70,0,0
157216,-74.6268656716418,4,1,0,70,0,0
157529,-73.5294117647059,4,1,0,70,0,0
157841,-72.463768115942,4,1,0,70,0,0
158154,-71.4285714285714,4,1,0,70,0,0
158466,-70.4225352112676,4,1,0,70,0,0
158935,-73.5294117647059,4,1,0,70,0,0
159404,-76.9230769230769,4,1,0,70,0,0
159755,-80.6451612903226,4,1,0,70,0,0
159912,-84.7457627118644,4,1,0,70,0,0
160068,-89.2857142857143,4,1,0,70,0,0
160224,-94.3396226415094,4,1,0,70,0,0
160380,-100,4,1,0,70,0,0
160966,-100,4,1,0,70,0,0
161045,-100,4,1,0,70,0,1
178466,-80,4,1,0,70,0,1
178545,-80,4,1,0,70,0,0
220888,-80,4,1,0,35,0,0

[HitObjects]
256,189,13545,5,8,0:0:0:0:
256,189,14013,1,8,0:0:0:0:
240,253,14482,1,8,0:0:0:0:
240,253,14638,1,0,0:0:0:0:
240,253,14795,1,0,0:0:0:0:
240,253,14951,1,8,0:0:0:0:
240,253,15107,1,0,0:0:0:0:
228,272,15420,1,8,0:0:0:0:
300,123,16045,1,0,0:0:0:0:
259,222,16357,1,8,0:0:0:0:
275,318,16670,1,8,0:0:0:0:
257,312,16982,1,0,0:0:0:0:
264,249,17138,1,8,0:0:0:0:
234,223,17607,1,8,0:0:0:0:
249,300,17920,1,0,0:0:0:0:
240,223,18232,1,0,0:0:0:0:
240,223,18388,1,0,0:0:0:0:
233,212,18545,1,8,0:0:0:0:
251,251,18857,1,0,0:0:0:0:
248,292,19170,1,8,0:0:0:0:
273,210,19482,1,0,0:0:0:0:
231,238,20107,1,8,0:0:0:0:
231,238,20420,1,0,0:0:0:0:
229,256,20732,1,8,0:0:0:0:
229,256,20888,1,8,0:0:0:0:
229,256,21045,1,0,0:0:0:0:
231,238,21357,1,0,0:0:0:0:
233,207,21670,1,8,0:0:0:0:
230,242,21982,1,0,0:0:0:0:
215,205,22607,1,8,0:0:0:0:
200,200,22920,1,0,0:0:0:0:
229,226,23232,1,0,0:0:0:0:
229,226,23388,1,0,0:0:0:0:
229,226,23545,1,8,0:0:0:0:
229,226,23857,1,0,0:0:0:0:
191,203,24170,1,8,0:0:0:0:
191,203,24482,1,0,0:0:0:0:
191,203,25107,1,0,0:0:0:0:
226,219,25420,1,8,0:0:0:0:
226,219,25732,1,8,0:0:0:0:
226,219,25888,1,8,0:0:0:0:
226,219,26045,1,0,0:0:0:0:
223,234,26357,1,0,0:0:0:0:
223,234,26670,1,8,0:0:0:0:
225,233,26982,1,0,0:0:0:0:
234,222,27138,1,0,0:0:0:0:
241,221,27607,1,8,0:0:0:0:
245,217,27920,1,0,0:0:0:0:
215,213,28232,1,0,0:0:0:0:
215,213,28388,1,0,0:0:0:0:
215,213,28545,1,8,0:0:0:0:
239,255,28857,1,8,0:0:0:0:
219,225,29170,1,0,0:0:0:0:
231,218,29482,1,8,0:0:0:0:
238,207,30107,1,0,0:0:0:0:
238,207,30420,1,8,0:0:0:0:
229,198,30732,1,8,0:0:0:0:
226,197,30888,1,8,0:0:0:0:
229,201,31045,1,0,0:0:0:0:
231,212,31357,1,8,0:0:0:0:
227,215,31670,1,8,0:0:0:0:
219,232,31982,1,0,0:0:0:0:
227,215,32607,1,0,0:0:0:0:
220,216,32920,1,8,0:0:0:0:
234,218,33545,1,8,0:0:0:0:
234,218,33857,1,0,0:0:0:0:
238,220,34170,1,8,0:0:0:0:
238,220,34482,1,0,0:0:0:0:
238,220,34795,1,8,0:0:0:0:
227,219,34951,1,0,0:0:0:0:
227,219,35107,1,0,0:0:0:0:
222,222,35420,1,8,0:0:0:0:
252,203,36045,1,8,0:0:0:0:
241,216,36357,1,0,0:0:0:0:
241,216,36513,1,0,0:0:0:0:
241,218,36670,1,8,0:0:0:0:
235,220,36982,1,8,0:0:0:0:
215,233,37295,1,8,0:0:0:0:
235,220,37451,1,0,0:0:0:0:
215,233,37607,1,8,0:0:0:0:
215,233,37920,1,8,0:0:0:0:
202,240,38232,1,8,0:0:0:0:
207,240,38545,1,0,0:0:0:0:
210,240,38857,1,0,0:0:0:0:
210,240,39013,1,0,0:0:0:0:
210,240,39170,1,8,0:0:0:0:
218,238,39482,1,8,0:0:0:0:
218,238,39795,1,8,0:0:0:0:
218,238,39951,1,0,0:0:0:0:
218,238,40107,1,8,0:0:0:0:
218,238,40420,1,8,0:0:0:0:
214,251,40732,1,8,0:0:0:0:
214,251,41045,1,0,0:0:0:0:
214,251,41357,1,0,0:0:0:0:
214,251,41670,1,8,0:0:0:0:
214,251,41982,1,0,0:0:0:0:
214,251,42295,1,8,0:0:0:0:
214,251,42607,1,8,0:0:0:0:
214,251,42920,1,0,0:0:0:0:
214,251,43545,1,8,0:0:0:0:
214,251,44170,1,8,0:0:0:0:
231,191,44482,1,8,0:0:0:0:
231,222,44795,1,0,0:0:0:0:
226,223,45107,1,0,0:0:0:0:
234,234,45420,1,8,0:0:0:0:
234,235,45732,1,0,0:0:0:0:
252,203,46045,1,8,0:0:0:0:
241,216,46357,1,0,0:0:0:0:
241,216,46513,1,0,0:0:0:0:
241,218,46670,1,8,0:0:0:0:
235,220,46982,1,8,0:0:0:0:
215,233,47295,1,8,0:0:0:0:
235,220,47451,1,0,0:0:0:0:
215,233,47607,1,8,0:0:0:0:
215,233,47920,1,8,0:0:0:0:
202,240,48232,1,8,0:0:0:0:
207,240,48545,1,0,0:0:0:0:
210,240,48857,1,0,0:0:0:0:
210,240,49013,1,0,0:0:0:0:
210,240,49170,1,8,0:0:0:0:
218,238,49482,1,8,0:0:0:0:
218,238,49795,1,8,0:0:0:0:
218,238,49951,1,0,0:0:0:0:
218,238,50107,1,8,0:0:0:0:
218,238,50420,1,8,0:0:0:0:
214,251,50732,1,8,0:0:0:0:
214,251,51045,1,0,0:0:0:0:
214,251,51357,1,0,0:0:0:0:
214,251,51670,1,8,0:0:0:0:
214,251,51982,1,0,0:0:0:0:
214,251,52295,1,8,0:0:0:0:
214,251,52607,1,8,0:0:0:0:
214,251,52920,1,0,0:0:0:0:
214,251,53545,1,8,0:0:0:0:
214,251,54170,1,8,0:0:0:0:
231,191,54482,1,8,0:0:0:0:
231,222,54795,1,0,0:0:0:0:
222,220,55107,1,0,0:0:0:0:
224,220,55420,1,8,0:0:0:0:
259,270,56045,1,8,0:0:0:0:
259,270,56513,1,0,0:0:0:0:
243,285,56670,1,8,0:0:0:0:
237,313,56982,1,0,0:0:0:0:
238,275,57295,1,8,0:0:0:0:
238,275,57451,1,0,0:0:0:0:
238,275,57607,1,8,0:0:0:0:
238,275,57920,1,8,0:0:0:0:
238,275,58232,1,0,0:0:0:0:
238,275,58388,1,0,0:0:0:0:
238,275,58545,1,8,0:0:0:0:
241,199,59013,1,0,0:0:0:0:
174,247,59170,1,0,0:0:0:0:
217,234,59482,1,8,0:0:0:0:
217,234,59795,1,0,0:0:0:0:
226,220,59951,1,8,0:0:0:0:
251,249,60107,1,8,0:0:0:0:
251,249,60420,1,0,0:0:0:0:
251,249,60732,1,8,0:0:0:0:
251,249,60888,1,8,0:0:0:0:
234,207,61045,1,0,0:0:0:0:
227,250,61670,1,8,0:0:0:0:
231,225,61982,1,0,0:0:0:0:
231,225,62295,1,8,0:0:0:0:
231,225,62607,1,8,0:0:0:0:
231,225,62920,1,8,0:0:0:0:
231,225,63232,1,0,0:0:0:0:
231,225,63545,1,8,0:0:0:0:
223,186,64013,1,8,0:0:0:0:
208,202,64482,1,0,0:0:0:0:
243,172,64795,1,8,0:0:0:0:
261,256,64951,1,8,0:0:0:0:
220,222,65107,1,0,0:0:0:0:
220,222,65263,1,0,0:0:0:0:
261,176,65420,1,12,0:0:0:0:
247,262,66045,1,0,0:0:0:0:
267,309,66357,1,0,0:0:0:0:
267,309,66513,1,8,0:0:0:0:
229,308,66670,1,8,0:0:0:0:
242,309,66982,1,8,0:0:0:0:
240,294,67138,1,0,0:0:0:0:
240,294,67295,1,8,0:0:0:0:
200,291,67451,1,0,0:0:0:0:
200,291,67607,1,0,0:0:0:0:
206,292,67763,1,0,0:0:0:0:
206,292,67920,1,8,0:0:0:0:
246,240,68232,1,0,0:0:0:0:
222,275,68388,1,8,0:0:0:0:
222,275,68466,1,8,0:0:0:0:
223,278,68545,1,0,0:0:0:0:
218,222,68857,1,0,0:0:0:0:
235,259,69013,1,0,0:0:0:0:
235,259,69170,1,8,0:0:0:0:
260,239,69482,1,8,0:0:0:0:
218,233,69638,1,0,0:0:0:0:
226,246,69795,1,8,0:0:0:0:
227,248,69951,1,0,0:0:0:0:
228,251,70107,1,0,0:0:0:0:
231,252,70263,1,0,0:0:0:0:
231,252,70420,1,8,0:0:0:0:
292,300,70576,1,0,0:0:0:0:
292,300,70732,1,8,0:0:0:0:
244,257,71045,1,8,0:0:0:0:
246,257,71123,1,8,0:0:0:0:
244,244,71357,1,8,0:0:0:0:
244,244,71513,1,0,0:0:0:0:
241,236,71670,1,8,0:0:0:0:
241,236,71826,1,0,0:0:0:0:
241,236,71904,1,0,0:0:0:0:
261,242,71982,1,8,0:0:0:0:
228,238,72138,1,0,0:0:0:0:
222,222,72451,1,8,0:0:0:0:
234,273,72607,1,0,0:0:0:0:
247,278,72763,1,0,0:0:0:0:
248,279,72920,1,8,0:0:0:0:
233,231,73232,1,8,0:0:0:0:
221,230,73388,1,8,0:0:0:0:
217,222,73545,1,0,0:0:0:0:
220,222,73701,1,8,0:0:0:0:
220,222,73857,1,0,0:0:0:0:
218,232,74013,1,0,0:0:0:0:
218,232,74170,1,8,0:0:0:0:
235,222,74326,1,0,0:0:0:0:
240,235,74404,1,0,0:0:0:0:
235,222,74482,1,8,0:0:0:0:
212,217,74795,1,8,0:0:0:0:
215,218,74951,1,0,0:0:0:0:
232,230,75107,1,8,0:0:0:0:
219,237,75263,1,8,0:0:0:0:
220,237,75420,1,0,0:0:0:0:
231,215,75498,1,8,0:0:0:0:
231,215,75576,1,8,0:0:0:0:
227,256,75732,1,0,0:0:0:0:
241,250,76045,1,8,0:0:0:0:
221,255,76357,1,0,0:0:0:0:
182,292,76513,1,0,0:0:0:0:
221,252,76670,1,8,0:0:0:0:
203,271,76982,1,0,0:0:0:0:
210,271,77295,1,8,0:0:0:0:
210,271,77451,1,0,0:0:0:0:
210,271,77607,1,8,0:0:0:0:
210,271,77763,1,8,0:0:0:0:
211,272,77920,1,0,0:0:0:0:
215,272,78232,1,0,0:0:0:0:
250,207,78310,1,0,0:0:0:0:
215,272,78388,1,0,0:0:0:0:
215,272,78545,1,8,0:0:0:0:
211,252,78857,1,0,0:0:0:0:
211,252,79013,1,0,0:0:0:0:
225,227,79170,1,8,0:0:0:0:
202,253,79482,1,8,0:0:0:0:
175,312,79638,1,0,0:0:0:0:
175,312,79795,1,8,0:0:0:0:
186,266,79951,1,0,0:0:0:0:
211,284,80107,1,0,0:0:0:0:
186,266,80263,1,0,0:0:0:0:
186,266,80420,1,8,0:0:0:0:
193,298,80576,1,0,0:0:0:0:
193,298,80732,1,8,0:0:0:0:
251,190,81045,1,12,0:0:0:0:
211,248,81357,1,0,0:0:0:0:
211,231,81513,1,0,0:0:0:0:
193,298,81670,1,8,0:0:0:0:
208,236,81748,1,8,0:0:0:0:
208,236,81826,1,8,0:0:0:0:
208,236,81982,1,0,0:0:0:0:
211,248,82138,1,0,0:0:0:0:
208,236,82295,1,8,0:0:0:0:
211,231,82451,1,0,0:0:0:0:
212,234,82607,1,8,0:0:0:0:
212,234,82763,1,8,0:0:0:0:
212,234,82920,1,0,0:0:0:0:
216,237,83232,1,0,0:0:0:0:
223,234,83545,1,8,0:0:0:0:
224,222,84013,1,8,0:0:0:0:
224,222,84170,1,8,0:0:0:0:
224,222,84482,1,0,0:0:0:0:
217,229,84795,1,0,0:0:0:0:
217,229,84951,1,0,0:0:0:0:
188,253,85107,1,8,0:0:0:0:
203,249,85420,1,8,0:0:0:0:
220,245,85732,1,0,0:0:0:0:
220,245,86045,1,8,0:0:0:0:
227,238,86357,1,8,0:0:0:0:
228,213,86513,1,8,0:0:0:0:
218,236,86670,1,8,0:0:0:0:
227,237,86982,1,0,0:0:0:0:
227,238,87295,1,8,0:0:0:0:
224,236,87607,1,0,0:0:0:0:
227,237,87920,1,8,0:0:0:0:
227,216,88076,1,8,0:0:0:0:
227,238,88232,1,0,0:0:0:0:
214,221,88388,1,0,0:0:0:0:
224,236,88545,1,8,0:0:0:0:
226,241,88857,1,0,0:0:0:0:
227,238,89170,1,8,0:0:0:0:
221,217,89482,1,8,0:0:0:0:
221,217,89795,1,0,0:0:0:0:
213,243,90420,1,0,0:0:0:0:
210,244,90732,1,0,0:0:0:0:
211,233,90888,1,0,0:0:0:0:
209,237,91045,1,8,0:0:0:0:
188,243,91357,1,0,0:0:0:0:
189,243,91670,1,8,0:0:0:0:
213,243,91982,1,8,0:0:0:0:
211,233,92138,1,8,0:0:0:0:
213,243,92295,1,0,0:0:0:0:
213,243,92607,1,0,0:0:0:0:
185,252,92763,1,8,0:0:0:0:
151,280,92920,1,8,0:0:0:0:
185,252,93076,1,0,0:0:0:0:
185,252,93232,1,0,0:0:0:0:
185,252,93545,1,0,0:0:0:0:
197,282,93857,1,0,0:0:0:0:
247,240,94013,1,8,0:0:0:0:
247,240,94170,1,0,0:0:0:0:
247,240,94482,1,8,0:0:0:0:
229,258,94795,1,0,0:0:0:0:
271,250,95107,1,12,0:0:0:0:
216,202,95420,1,12,0:0:0:0:
246,217,95732,1,4,0:0:0:0:
220,245,96045,1,8,0:0:0:0:
227,238,96357,1,8,0:0:0:0:
228,213,96513,1,8,0:0:0:0:
218,236,96670,1,8,0:0:0:0:
227,237,96982,1,0,0:0:0:0:
227,238,97295,1,8,0:0:0:0:
224,236,97607,1,0,0:0:0:0:
227,237,97920,1,8,0:0:0:0:
227,216,98076,1,8,0:0:0:0:
227,238,98232,1,0,0:0:0:0:
214,221,98388,1,0,0:0:0:0:
224,236,98545,1,8,0:0:0:0:
226,241,98857,1,0,0:0:0:0:
227,238,99170,1,8,0:0:0:0:
221,217,99482,1,8,0:0:0:0:
221,217,99795,1,0,0:0:0:0:
213,243,100420,1,0,0:0:0:0:
210,244,100732,1,0,0:0:0:0:
211,233,100888,1,0,0:0:0:0:
209,237,101045,1,8,0:0:0:0:
188,243,101357,1,0,0:0:0:0:
189,243,101670,1,8,0:0:0:0:
213,243,101982,1,8,0:0:0:0:
211,233,102138,1,8,0:0:0:0:
213,243,102295,1,0,0:0:0:0:
213,243,102607,1,0,0:0:0:0:
185,252,102763,1,8,0:0:0:0:
151,280,102920,1,8,0:0:0:0:
185,252,103076,1,0,0:0:0:0:
185,252,103232,1,0,0:0:0:0:
221,256,103545,1,8,0:0:0:0:
221,256,104013,1,0,0:0:0:0:
221,256,104170,1,0,0:0:0:0:
216,258,104482,1,0,0:0:0:0:
229,248,104951,1,8,0:0:0:0:
229,248,105107,1,0,0:0:0:0:
229,248,105420,1,8,0:0:0:0:
235,181,112920,5,0,0:0:0:0:
213,256,113232,1,0,0:0:0:0:
226,245,113388,1,8,0:0:0:0:
207,256,113545,1,0,0:0:0:0:
244,268,113857,1,0,0:0:0:0:
232,273,114170,1,8,0:0:0:0:
189,218,114482,1,0,0:0:0:0:
220,212,115107,1,0,0:0:0:0:
215,232,115420,1,8,0:0:0:0:
222,293,115732,1,8,0:0:0:0:
222,225,115888,1,8,0:0:0:0:
223,225,116045,1,0,0:0:0:0:
238,235,116357,1,0,0:0:0:0:
210,235,116670,1,8,0:0:0:0:
171,210,116982,1,0,0:0:0:0:
171,210,117295,1,0,0:0:0:0:
236,248,117607,1,0,0:0:0:0:
236,248,117920,1,8,0:0:0:0:
236,248,118232,1,0,0:0:0:0:
243,245,118388,1,0,0:0:0:0:
233,241,118545,1,8,0:0:0:0:
233,241,118857,1,8,0:0:0:0:
204,236,119170,1,0,0:0:0:0:
204,236,119482,1,8,0:0:0:0:
228,241,120107,1,0,0:0:0:0:
228,241,120420,1,8,0:0:0:0:
208,239,120732,1,8,0:0:0:0:
256,294,120888,1,8,0:0:0:0:
220,232,121045,1,0,0:0:0:0:
272,306,121357,1,0,0:0:0:0:
271,303,121670,1,8,0:0:0:0:
272,306,121982,1,0,0:0:0:0:
268,302,122138,1,8,0:0:0:0:
193,238,122607,1,8,0:0:0:0:
203,255,122920,1,0,0:0:0:0:
206,244,123232,1,0,0:0:0:0:
213,226,123388,1,8,0:0:0:0:
205,244,123545,1,0,0:0:0:0:
209,206,123857,1,0,0:0:0:0:
187,209,124170,1,8,0:0:0:0:
187,209,124482,1,0,0:0:0:0:
194,208,125107,1,0,0:0:0:0:
223,202,125420,1,8,0:0:0:0:
223,202,125732,1,0,0:0:0:0:
223,202,125888,1,0,0:0:0:0:
223,202,126045,1,8,0:0:0:0:
223,202,126357,1,8,0:0:0:0:
223,202,126670,1,0,0:0:0:0:
223,202,126982,1,8,0:0:0:0:
215,209,127295,1,0,0:0:0:0:
215,209,127607,1,0,0:0:0:0:
219,208,127920,1,8,0:0:0:0:
215,209,128232,1,8,0:0:0:0:
215,209,128388,1,8,0:0:0:0:
215,209,128545,1,0,0:0:0:0:
203,208,129170,1,8,0:0:0:0:
218,212,129482,1,0,0:0:0:0:
218,212,129795,1,8,0:0:0:0:
218,212,129951,1,8,0:0:0:0:
218,212,130107,1,0,0:0:0:0:
218,212,130420,1,8,0:0:0:0:
252,203,131045,1,8,0:0:0:0:
241,216,131357,1,0,0:0:0:0:
241,216,131513,1,0,0:0:0:0:
241,218,131670,1,8,0:0:0:0:
235,220,131982,1,8,0:0:0:0:
215,233,132295,1,8,0:0:0:0:
235,220,132451,1,0,0:0:0:0:
215,233,132607,1,8,0:0:0:0:
215,233,132920,1,8,0:0:0:0:
202,240,133232,1,8,0:0:0:0:
207,240,133545,1,0,0:0:0:0:
210,240,133857,1,0,0:0:0:0:
210,240,134013,1,0,0:0:0:0:
210,240,134170,1,8,0:0:0:0:
218,238,134482,1,8,0:0:0:0:
218,238,134795,1,8,0:0:0:0:
218,238,134951,1,0,0:0:0:0:
218,238,135107,1,8,0:0:0:0:
218,238,135420,1,8,0:0:0:0:
214,251,135732,1,8,0:0:0:0:
214,251,136045,1,0,0:0:0:0:
214,251,136357,1,0,0:0:0:0:
214,251,136670,1,8,0:0:0:0:
214,251,136982,1,0,0:0:0:0:
214,251,137295,1,8,0:0:0:0:
214,251,137607,1,8,0:0:0:0:
214,251,137920,1,0,0:0:0:0:
214,251,138545,1,8,0:0:0:0:
214,251,139170,1,8,0:0:0:0:
231,191,139482,1,8,0:0:0:0:
231,222,139795,1,0,0:0:0:0:
226,223,140107,1,0,0:0:0:0:
234,234,140420,1,8,0:0:0:0:
234,235,140732,1,0,0:0:0:0:
252,203,141045,1,8,0:0:0:0:
241,216,141357,1,0,0:0:0:0:
241,216,141513,1,0,0:0:0:0:
241,218,141670,1,8,0:0:0:0:
235,220,141982,1,8,0:0:0:0:
215,233,142295,1,8,0:0:0:0:
235,220,142451,1,0,0:0:0:0:
215,233,142607,1,8,0:0:0:0:
215,233,142920,1,8,0:0:0:0:
202,240,143232,1,8,0:0:0:0:
207,240,143545,1,0,0:0:0:0:
210,240,143857,1,0,0:0:0:0:
210,240,144013,1,0,0:0:0:0:
210,240,144170,1,8,0:0:0:0:
218,238,144482,1,8,0:0:0:0:
218,238,144795,1,8,0:0:0:0:
218,238,144951,1,0,0:0:0:0:
218,238,145107,1,8,0:0:0:0:
218,238,145420,1,8,0:0:0:0:
214,251,145732,1,8,0:0:0:0:
214,251,146045,1,0,0:0:0:0:
214,251,146357,1,0,0:0:0:0:
214,251,146670,1,8,0:0:0:0:
214,251,146982,1,0,0:0:0:0:
214,251,147295,1,8,0:0:0:0:
214,251,147607,1,8,0:0:0:0:
214,251,147920,1,0,0:0:0:0:
214,251,148545,1,8,0:0:0:0:
214,251,149170,1,8,0:0:0:0:
231,191,149482,1,8,0:0:0:0:
231,222,149795,1,0,0:0:0:0:
222,220,150107,1,0,0:0:0:0:
224,220,150420,1,8,0:0:0:0:
259,270,151045,1,8,0:0:0:0:
259,270,151513,1,0,0:0:0:0:
243,285,151670,1,8,0:0:0:0:
237,313,151982,1,0,0:0:0:0:
238,275,152295,1,8,0:0:0:0:
238,275,152451,1,0,0:0:0:0:
238,275,152607,1,8,0:0:0:0:
238,275,152920,1,8,0:0:0:0:
238,275,153232,1,0,0:0:0:0:
238,275,153388,1,0,0:0:0:0:
238,275,153545,1,8,0:0:0:0:
241,199,154013,1,0,0:0:0:0:
174,247,154170,1,0,0:0:0:0:
217,234,154482,1,8,0:0:0:0:
217,234,154795,1,0,0:0:0:0:
226,220,154951,1,8,0:0:0:0:
251,249,155107,1,8,0:0:0:0:
251,249,155420,1,0,0:0:0:0:
251,249,155732,1,8,0:0:0:0:
251,249,155888,1,8,0:0:0:0:
234,207,156045,1,0,0:0:0:0:
227,250,156670,1,8,0:0:0:0:
231,225,156982,1,0,0:0:0:0:
231,225,157295,1,8,0:0:0:0:
231,225,157607,1,8,0:0:0:0:
231,225,157920,1,8,0:0:0:0:
231,225,158232,1,0,0:0:0:0:
231,225,158545,1,8,0:0:0:0:
223,186,159013,1,8,0:0:0:0:
208,202,159482,1,0,0:0:0:0:
226,207,159795,1,0,0:0:0:0:
193,194,159951,1,0,0:0:0:0:
220,222,160107,1,0,0:0:0:0:
220,222,160263,1,0,0:0:0:0:
232,168,160420,1,12,0:0:0:0:
247,262,161045,1,0,0:0:0:0:
267,309,161357,1,0,0:0:0:0:
267,309,161513,1,8,0:0:0:0:
229,308,161670,1,8,0:0:0:0:
242,309,161982,1,8,0:0:0:0:
240,294,162138,1,0,0:0:0:0:
240,294,162295,1,8,0:0:0:0:
200,291,162451,1,0,0:0:0:0:
200,291,162607,1,0,0:0:0:0:
206,292,162763,1,0,0:0:0:0:
206,292,162920,1,8,0:0:0:0:
246,240,163232,1,0,0:0:0:0:
222,275,163388,1,8,0:0:0:0:
222,275,163466,1,8,0:0:0:0:
223,278,163545,1,0,0:0:0:0:
218,222,163857,1,0,0:0:0:0:
235,259,164013,1,0,0:0:0:0:
235,259,164170,1,8,0:0:0:0:
260,239,164482,1,8,0:0:0:0:
218,233,164638,1,0,0:0:0:0:
226,246,164795,1,8,0:0:0:0:
227,248,164951,1,0,0:0:0:0:
228,251,165107,1,0,0:0:0:0:
231,252,165263,1,0,0:0:0:0:
231,252,165420,1,8,0:0:0:0:
292,300,165576,1,0,0:0:0:0:
292,300,165732,1,8,0:0:0:0:
244,257,166045,1,8,0:0:0:0:
246,257,166123,1,8,0:0:0:0:
244,244,166357,1,8,0:0:0:0:
244,244,166513,1,0,0:0:0:0:
241,236,166670,1,8,0:0:0:0:
241,236,166826,1,0,0:0:0:0:
241,236,166904,1,0,0:0:0:0:
261,242,166982,1,8,0:0:0:0:
228,238,167138,1,0,0:0:0:0:
222,222,167451,1,8,0:0:0:0:
234,273,167607,1,0,0:0:0:0:
247,278,167763,1,0,0:0:0:0:
248,279,167920,1,8,0:0:0:0:
233,231,168232,1,8,0:0:0:0:
221,230,168388,1,8,0:0:0:0:
217,222,168545,1,0,0:0:0:0:
220,222,168701,1,8,0:0:0:0:
220,222,168857,1,0,0:0:0:0:
218,232,169013,1,0,0:0:0:0:
218,232,169170,1,8,0:0:0:0:
235,222,169326,1,0,0:0:0:0:
240,235,169404,1,0,0:0:0:0:
235,222,169482,1,8,0:0:0:0:
212,217,169795,1,8,0:0:0:0:
215,218,169951,1,0,0:0:0:0:
232,230,170107,1,8,0:0:0:0:
219,237,170263,1,8,0:0:0:0:
220,237,170420,1,0,0:0:0:0:
231,215,170498,1,8,0:0:0:0:
231,215,170576,1,8,0:0:0:0:
227,256,170732,1,0,0:0:0:0:
241,250,171045,1,8,0:0:0:0:
221,255,171357,1,0,0:0:0:0:
182,292,171513,1,0,0:0:0:0:
221,252,171670,1,8,0:0:0:0:
203,271,171982,1,0,0:0:0:0:
210,271,172295,1,8,0:0:0:0:
210,271,172451,1,0,0:0:0:0:
210,271,172607,1,8,0:0:0:0:
210,271,172763,1,8,0:0:0:0:
211,272,172920,1,0,0:0:0:0:
215,272,173232,1,0,0:0:0:0:
250,207,173310,1,0,0:0:0:0:
215,272,173388,1,0,0:0:0:0:
215,272,173545,1,8,0:0:0:0:
211,252,173857,1,0,0:0:0:0:
211,252,174013,1,0,0:0:0:0:
225,227,174170,1,8,0:0:0:0:
202,253,174482,1,8,0:0:0:0:
175,312,174638,1,0,0:0:0:0:
175,312,174795,1,8,0:0:0:0:
186,266,174951,1,0,0:0:0:0:
211,284,175107,1,0,0:0:0:0:
186,266,175263,1,0,0:0:0:0:
186,266,175420,1,8,0:0:0:0:
193,298,175576,1,0,0:0:0:0:
193,298,175732,1,8,0:0:0:0:
261,171,176045,1,12,0:0:0:0:
211,248,176357,1,0,0:0:0:0:
211,231,176513,1,0,0:0:0:0:
193,298,176670,1,8,0:0:0:0:
208,236,176748,1,8,0:0:0:0:
208,236,176826,1,8,0:0:0:0:
208,236,176982,1,0,0:0:0:0:
211,248,177138,1,0,0:0:0:0:
208,236,177295,1,8,0:0:0:0:
223,235,177451,1,0,0:0:0:0:
212,234,177607,1,8,0:0:0:0:
212,234,177763,1,8,0:0:0:0:
212,234,177920,1,0,0:0:0:0:
216,237,178232,1,0,0:0:0:0:
221,236,178545,1,8,0:0:0:0:
224,222,179013,1,8,0:0:0:0:
224,222,179170,1,8,0:0:0:0:
224,222,179482,1,0,0:0:0:0:
217,229,179795,1,0,0:0:0:0:
217,229,179951,1,0,0:0:0:0:
188,253,180107,1,8,0:0:0:0:
203,249,180420,1,8,0:0:0:0:
220,245,180732,1,0,0:0:0:0:
220,245,181045,1,8,0:0:0:0:
227,238,181357,1,8,0:0:0:0:
228,213,181513,1,8,0:0:0:0:
218,236,181670,1,8,0:0:0:0:
227,237,181982,1,0,0:0:0:0:
227,238,182295,1,8,0:0:0:0:
224,236,182607,1,0,0:0:0:0:
227,237,182920,1,8,0:0:0:0:
227,216,183076,1,8,0:0:0:0:
227,238,183232,1,0,0:0:0:0:
214,221,183388,1,0,0:0:0:0:
224,236,183545,1,8,0:0:0:0:
226,241,183857,1,0,0:0:0:0:
227,238,184170,1,8,0:0:0:0:
221,217,184482,1,8,0:0:0:0:
221,217,184795,1,0,0:0:0:0:
197,187,185107,1,0,0:0:0:0:
213,243,185420,1,0,0:0:0:0:
197,187,185576,1,8,0:0:0:0:
210,244,185732,1,0,0:0:0:0:
211,233,185888,1,0,0:0:0:0:
209,237,186045,1,8,0:0:0:0:
188,243,186357,1,0,0:0:0:0:
189,243,186670,1,8,0:0:0:0:
213,243,186982,1,8,0:0:0:0:
211,233,187138,1,8,0:0:0:0:
213,243,187295,1,0,0:0:0:0:
213,243,187607,1,0,0:0:0:0:
185,252,187763,1,8,0:0:0:0:
151,280,187920,1,8,0:0:0:0:
185,252,188076,1,0,0:0:0:0:
185,252,188232,1,0,0:0:0:0:
185,252,188545,1,0,0:0:0:0:
208,233,188857,1,0,0:0:0:0:
208,233,189013,1,8,0:0:0:0:
226,243,189170,1,0,0:0:0:0:
226,243,189482,1,8,0:0:0:0:
229,258,189795,1,0,0:0:0:0:
248,224,190107,1,12,0:0:0:0:
219,209,190420,1,12,0:0:0:0:
219,209,190732,1,4,0:0:0:0:
220,245,191045,1,8,0:0:0:0:
227,238,191357,1,8,0:0:0:0:
228,213,191513,1,8,0:0:0:0:
218,236,191670,1,8,0:0:0:0:
227,237,191982,1,0,0:0:0:0:
227,238,192295,1,8,0:0:0:0:
224,236,192607,1,0,0:0:0:0:
227,237,192920,1,8,0:0:0:0:
227,216,193076,1,8,0:0:0:0:
227,238,193232,1,0,0:0:0:0:
214,221,193388,1,0,0:0:0:0:
224,236,193545,1,8,0:0:0:0:
226,241,193857,1,0,0:0:0:0:
227,238,194170,1,8,0:0:0:0:
221,217,194482,1,8,0:0:0:0:
221,217,194795,1,0,0:0:0:0:
212,220,195107,1,0,0:0:0:0:
213,243,195420,1,0,0:0:0:0:
215,233,195576,1,0,0:0:0:0:
210,244,195732,1,0,0:0:0:0:
211,233,195888,1,0,0:0:0:0:
209,237,196045,1,8,0:0:0:0:
188,243,196357,1,0,0:0:0:0:
189,243,196670,1,8,0:0:0:0:
213,243,196982,1,8,0:0:0:0:
211,233,197138,1,8,0:0:0:0:
213,243,197295,1,0,0:0:0:0:
213,243,197607,1,0,0:0:0:0:
185,252,197763,1,8,0:0:0:0:
151,280,197920,1,8,0:0:0:0:
185,252,198076,1,0,0:0:0:0:
185,252,198232,1,0,0:0:0:0:
221,256,198545,1,8,0:0:0:0:
221,256,199013,1,0,0:0:0:0:
221,256,199170,1,0,0:0:0:0:
216,258,199482,1,0,0:0:0:0:
175,220,199951,1,8,0:0:0:0:
229,248,200107,1,0,0:0:0:0:
229,248,200420,1,8,0:0:0:0:
220,245,200732,1,0,0:0:0:0:
220,245,201045,1,8,0:0:0:0:
227,238,201357,1,8,0:0:0:0:
228,213,201513,1,8,0:0:0:0:
218,236,201670,1,8,0:0:0:0:
227,237,201982,1,0,0:0:0:0:
227,238,202295,1,8,0:0:0:0:
224,236,202607,1,0,0:0:0:0:
227,237,202920,1,8,0:0:0:0:
227,216,203076,1,8,0:0:0:0:
227,238,203232,1,0,0:0:0:0:
214,221,203388,1,0,0:0:0:0:
224,236,203545,1,8,0:0:0:0:
226,241,203857,1,0,0:0:0:0:
227,238,204170,1,8,0:0:0:0:
221,217,204482,1,8,0:0:0:0:
221,217,204795,1,0,0:0:0:0:
197,187,205107,1,0,0:0:0:0:
213,243,205420,1,0,0:0:0:0:
197,187,205576,1,8,0:0:0:0:
210,244,205732,1,0,0:0:0:0:
211,233,205888,1,0,0:0:0:0:
209,237,206045,1,8,0:0:0:0:
188,243,206357,1,0,0:0:0:0:
189,243,206670,1,8,0:0:0:0:
213,243,206982,1,8,0:0:0:0:
211,233,207138,1,8,0:0:0:0:
213,243,207295,1,0,0:0:0:0:
213,243,207607,1,0,0:0:0:0:
185,252,207763,1,8,0:0:0:0:
151,280,207920,1,8,0:0:0:0:
185,252,208076,1,0,0:0:0:0:
185,252,208232,1,0,0:0:0:0:
185,252,208545,1,0,0:0:0:0:
197,282,208857,1,0,0:0:0:0:
236,268,209013,1,8,0:0:0:0:
246,263,209170,1,0,0:0:0:0:
246,263,209482,1,8,0:0:0:0:
229,258,209795,1,0,0:0:0:0:
222,212,210107,1,12,0:0:0:0:
222,212,210420,1,12,0:0:0:0:
222,212,210732,1,4,0:0:0:0:
220,245,211045,1,8,0:0:0:0:
227,238,211357,1,8,0:0:0:0:
228,213,211513,1,8,0:0:0:0:
218,236,211670,1,8,0:0:0:0:
227,237,211982,1,0,0:0:0:0:
227,238,212295,1,8,0:0:0:0:
224,236,212607,1,0,0:0:0:0:
227,237,212920,1,8,0:0:0:0:
227,216,213076,1,8,0:0:0:0:
227,238,213232,1,0,0:0:0:0:
214,221,213388,1,0,0:0:0:0:
224,236,213545,1,8,0:0:0:0:
226,241,213857,1,0,0:0:0:0:
227,238,214170,1,8,0:0:0:0:
221,217,214482,1,8,0:0:0:0:
221,217,214795,1,0,0:0:0:0:
212,220,215107,1,0,0:0:0:0:
213,243,215420,1,0,0:0:0:0:
215,233,215576,1,0,0:0:0:0:
210,244,215732,1,0,0:0:0:0:
211,233,215888,1,0,0:0:0:0:
209,237,216045,1,8,0:0:0:0:
188,243,216357,1,0,0:0:0:0:
189,243,216670,1,8,0:0:0:0:
213,243,216982,1,8,0:0:0:0:
211,233,217138,1,8,0:0:0:0:
213,243,217295,1,0,0:0:0:0:
213,243,217607,1,0,0:0:0:0:
185,252,217763,1,8,0:0:0:0:
151,280,217920,1,8,0:0:0:0:
185,252,218076,1,0,0:0:0:0:
185,252,218232,1,0,0:0:0:0:
223,234,218545,1,8,0:0:0:0:
224,222,219013,1,8,0:0:0:0:
224,222,219170,1,8,0:0:0:0:
224,222,219482,1,0,0:0:0:0:
217,229,219795,1,0,0:0:0:0:
217,229,219951,1,0,0:0:0:0:
188,253,220107,1,8,0:0:0:0:
203,249,220420,1,8,0:0:0:0:
246,206,221045,1,8,0:0:0:0:
