osu file format v14

[General]
AudioFilename: audio.mp3
AudioLeadIn: 0
PreviewTime: 35654
Countdown: 0
SampleSet: Normal
StackLeniency: 0.7
Mode: 1
LetterboxInBreaks: 0
WidescreenStoryboard: 1

[Editor]
Bookmarks: 16197,36182,56192,66182,76182,86182,106182,111182,113682,151182,156582,161182,221182
DistanceSpacing: 1.1
BeatDivisor: 8
GridSize: 8
TimelineZoom: 2

[Metadata]
Title:Yang Guang Cai Hong Xiao Bai Ma
TitleUnicode:陽光彩虹小白馬
Artist:Wowkie Zhang
ArtistUnicode:大張偉
Creator:vrnl
Version:Horiiizon's Futsuu!
Source:
Tags:pop chinese horiiizon rainbow sunshine white pony
BeatmapID:2535333
BeatmapSetID:1177380

[Difficulty]
HPDrainRate:7
CircleSize:5.5
OverallDifficulty:3
ApproachRate:5.5
SliderMultiplier:1.4
SliderTickRate:1

[Events]
//Background and Video events
0,0,"Screenshot (53).png",0,60
//Break Periods
2,106045,111045
//Storyboard Layer 0 (Background)
//Storyboard Layer 1 (Fail)
//Storyboard Layer 2 (Pass)
//Storyboard Layer 3 (Foreground)
//Storyboard Layer 4 (Overlay)
//Storyboard Sound Samples

[TimingPoints]
13545,625,4,1,0,70,1,0
13545,-100,4,1,0,70,0,0
16045,625,4,1,0,70,1,0
16045,-80,4,1,0,70,0,0
66045,-100,4,1,0,70,0,1
83466,-80,4,1,0,70,0,1
83545,-80,4,1,0,70,0,0
161045,-100,4,1,0,70,0,1
178466,-80,4,1,0,70,0,1
178545,-80,4,1,0,70,0,0
220888,-80,4,1,0,35,0,0

[HitObjects]
221,253,13545,5,8,0:0:0:0:
279,249,14013,1,8,0:0:0:0:
245,230,14795,1,0,0:0:0:0:
245,230,15107,1,0,0:0:0:0:
233,193,15420,1,8,0:0:0:0:
233,193,16045,1,0,0:0:0:0:
233,193,16670,1,8,0:0:0:0:
233,193,16982,1,0,0:0:0:0:
214,183,17607,1,0,0:0:0:0:
214,183,17920,1,8,0:0:0:0:
230,182,18232,1,8,0:0:0:0:
231,184,18545,1,0,0:0:0:0:
218,188,19170,1,0,0:0:0:0:
218,188,19482,1,8,0:0:0:0:
270,187,20107,1,0,0:0:0:0:
270,187,20420,1,8,0:0:0:0:
251,188,20732,1,0,0:0:0:0:
251,188,21045,1,0,0:0:0:0:
244,188,21670,1,8,0:0:0:0:
219,176,21982,1,0,0:0:0:0:
235,183,22607,1,8,0:0:0:0:
235,183,22920,1,0,0:0:0:0:
235,183,23232,1,8,0:0:0:0:
231,178,23545,1,8,0:0:0:0:
219,176,24170,1,8,0:0:0:0:
216,184,24482,1,8,0:0:0:0:
256,193,25420,1,0,0:0:0:0:
221,181,25732,1,8,0:0:0:0:
249,198,26045,1,8,0:0:0:0:
205,216,26670,1,0,0:0:0:0:
204,176,26982,1,0,0:0:0:0:
200,172,27607,1,8,0:0:0:0:
200,172,27920,1,8,0:0:0:0:
200,172,28232,1,0,0:0:0:0:
200,172,28545,1,8,0:0:0:0:
196,164,29170,1,8,0:0:0:0:
215,172,29482,1,8,0:0:0:0:
205,178,30107,1,8,0:0:0:0:
206,157,30420,1,0,0:0:0:0:
206,160,30732,1,0,0:0:0:0:
206,159,31045,1,8,0:0:0:0:
212,178,31670,1,8,0:0:0:0:
212,178,31982,1,0,0:0:0:0:
212,178,32607,1,0,0:0:0:0:
212,178,32920,1,8,0:0:0:0:
212,178,33545,1,8,0:0:0:0:
212,178,34170,1,8,0:0:0:0:
211,172,34482,1,8,0:0:0:0:
188,243,35420,1,0,0:0:0:0:
244,214,36045,1,8,0:0:0:0:
247,234,36357,1,0,0:0:0:0:
247,234,36670,1,8,0:0:0:0:
200,200,37295,1,8,0:0:0:0:
200,200,37607,1,8,0:0:0:0:
200,200,37920,1,0,0:0:0:0:
200,200,38545,1,8,0:0:0:0:
212,191,38857,1,0,0:0:0:0:
212,191,39170,1,8,0:0:0:0:
190,186,39795,1,8,0:0:0:0:
200,199,40107,1,8,0:0:0:0:
190,186,40420,1,0,0:0:0:0:
200,199,41045,1,0,0:0:0:0:
194,188,41670,1,8,0:0:0:0:
232,219,42295,1,0,0:0:0:0:
211,192,42607,1,0,0:0:0:0:
194,188,42920,1,8,0:0:0:0:
197,179,43545,1,8,0:0:0:0:
187,183,44170,1,8,0:0:0:0:
187,183,44795,1,0,0:0:0:0:
244,214,46045,1,8,0:0:0:0:
247,234,46357,1,0,0:0:0:0:
247,234,46670,1,8,0:0:0:0:
200,200,47295,1,8,0:0:0:0:
200,200,47607,1,8,0:0:0:0:
200,200,47920,1,0,0:0:0:0:
200,200,48545,1,8,0:0:0:0:
212,191,48857,1,0,0:0:0:0:
212,191,49170,1,8,0:0:0:0:
190,186,49795,1,8,0:0:0:0:
200,199,50107,1,8,0:0:0:0:
190,186,50420,1,0,0:0:0:0:
200,199,51045,1,0,0:0:0:0:
194,188,51670,1,8,0:0:0:0:
232,219,52295,1,0,0:0:0:0:
211,192,52607,1,0,0:0:0:0:
194,188,52920,1,8,0:0:0:0:
197,179,53545,1,8,0:0:0:0:
187,183,54170,1,8,0:0:0:0:
187,183,54795,1,0,0:0:0:0:
222,195,56045,1,8,0:0:0:0:
209,192,56670,1,0,0:0:0:0:
223,213,56982,1,0,0:0:0:0:
196,211,57607,1,0,0:0:0:0:
206,200,57920,1,0,0:0:0:0:
196,188,58232,1,8,0:0:0:0:
199,194,58545,1,0,0:0:0:0:
203,152,59170,1,8,0:0:0:0:
211,179,59482,1,8,0:0:0:0:
227,199,60107,1,8,0:0:0:0:
228,190,60420,1,8,0:0:0:0:
228,190,60732,1,0,0:0:0:0:
228,190,61045,1,8,0:0:0:0:
241,182,61670,1,8,0:0:0:0:
235,215,62295,1,8,0:0:0:0:
233,208,62607,1,8,0:0:0:0:
232,210,62920,1,8,0:0:0:0:
233,208,63545,1,0,0:0:0:0:
207,227,64013,1,8,0:0:0:0:
233,208,64482,1,0,0:0:0:0:
242,189,64795,1,8,0:0:0:0:
213,195,64951,1,8,0:0:0:0:
242,189,65107,1,8,0:0:0:0:
242,189,65420,1,0,0:0:0:0:
221,199,66045,1,8,0:0:0:0:
209,154,66357,1,0,0:0:0:0:
225,182,66670,1,8,0:0:0:0:
225,182,67295,1,8,0:0:0:0:
225,182,67607,1,0,0:0:0:0:
215,182,67920,1,0,0:0:0:0:
222,173,68232,1,8,0:0:0:0:
212,147,68388,1,8,0:0:0:0:
212,147,68545,1,8,0:0:0:0:
201,211,68857,1,0,0:0:0:0:
200,240,69170,1,8,0:0:0:0:
209,199,69795,1,8,0:0:0:0:
218,168,70107,1,0,0:0:0:0:
218,168,70420,1,8,0:0:0:0:
199,154,71045,1,0,0:0:0:0:
231,199,71201,1,0,0:0:0:0:
231,199,71670,1,8,0:0:0:0:
200,187,71826,1,8,0:0:0:0:
200,187,71982,1,8,0:0:0:0:
224,189,72295,1,0,0:0:0:0:
224,189,72607,1,0,0:0:0:0:
201,171,72920,1,8,0:0:0:0:
201,171,73545,1,8,0:0:0:0:
211,173,73857,1,0,0:0:0:0:
211,173,74170,1,8,0:0:0:0:
201,163,74326,1,8,0:0:0:0:
201,163,74482,1,8,0:0:0:0:
201,161,74795,1,0,0:0:0:0:
221,199,76045,1,8,0:0:0:0:
209,154,76357,1,0,0:0:0:0:
225,182,76670,1,8,0:0:0:0:
225,182,77295,1,8,0:0:0:0:
225,182,77607,1,0,0:0:0:0:
215,182,77920,1,0,0:0:0:0:
222,173,78232,1,8,0:0:0:0:
212,147,78388,1,8,0:0:0:0:
212,147,78545,1,8,0:0:0:0:
201,211,78857,1,0,0:0:0:0:
200,240,79170,1,8,0:0:0:0:
209,199,79795,1,8,0:0:0:0:
218,168,80107,1,0,0:0:0:0:
218,168,80420,1,8,0:0:0:0:
239,232,81045,1,8,0:0:0:0:
224,193,81357,1,0,0:0:0:0:
231,199,81670,1,8,0:0:0:0:
200,187,81826,1,8,0:0:0:0:
200,187,81982,1,8,0:0:0:0:
224,189,82295,1,0,0:0:0:0:
209,198,82607,1,0,0:0:0:0:
201,171,82920,1,8,0:0:0:0:
227,211,83545,5,8,0:0:0:0:
227,211,84170,1,8,0:0:0:0:
222,218,84482,1,0,0:0:0:0:
221,194,85107,1,0,0:0:0:0:
227,211,85420,1,8,0:0:0:0:
208,197,86045,1,8,0:0:0:0:
192,199,86357,1,0,0:0:0:0:
192,199,86670,1,8,0:0:0:0:
224,181,87295,1,8,0:0:0:0:
201,232,87920,1,8,0:0:0:0:
202,208,88232,1,0,0:0:0:0:
196,157,88545,1,0,0:0:0:0:
240,156,88857,1,0,0:0:0:0:
197,172,89170,1,8,0:0:0:0:
199,160,89795,1,0,0:0:0:0:
207,172,90420,1,0,0:0:0:0:
221,227,91045,1,8,0:0:0:0:
206,197,91357,1,0,0:0:0:0:
238,200,91670,1,8,0:0:0:0:
196,178,92295,1,8,0:0:0:0:
196,178,92920,1,8,0:0:0:0:
200,165,93232,1,0,0:0:0:0:
200,165,93545,1,8,0:0:0:0:
204,177,93857,1,0,0:0:0:0:
204,177,94170,1,8,0:0:0:0:
210,173,95420,1,0,0:0:0:0:
210,173,95732,1,0,0:0:0:0:
208,197,96045,1,8,0:0:0:0:
192,199,96357,1,0,0:0:0:0:
192,199,96670,1,8,0:0:0:0:
224,181,97295,1,8,0:0:0:0:
201,232,97920,1,8,0:0:0:0:
202,208,98232,1,0,0:0:0:0:
196,157,98545,1,0,0:0:0:0:
240,156,98857,1,0,0:0:0:0:
197,172,99170,1,8,0:0:0:0:
199,160,99795,1,0,0:0:0:0:
207,172,100420,1,0,0:0:0:0:
221,227,101045,1,8,0:0:0:0:
206,197,101357,1,0,0:0:0:0:
238,200,101670,1,8,0:0:0:0:
196,178,102295,1,8,0:0:0:0:
214,197,102920,1,8,0:0:0:0:
200,165,103232,1,0,0:0:0:0:
227,211,103545,5,8,0:0:0:0:
227,211,104170,1,8,0:0:0:0:
222,218,104482,1,0,0:0:0:0:
221,194,105107,1,0,0:0:0:0:
227,211,105420,1,8,0:0:0:0:
216,190,112920,5,8,0:0:0:0:
209,212,113545,1,8,0:0:0:0:
190,159,113857,1,8,0:0:0:0:
208,222,114170,1,8,0:0:0:0:
208,222,114482,1,0,0:0:0:0:
202,227,115107,1,8,0:0:0:0:
198,227,115420,1,8,0:0:0:0:
213,221,116045,1,0,0:0:0:0:
179,168,116357,1,0,0:0:0:0:
190,175,116670,1,8,0:0:0:0:
186,182,116982,1,0,0:0:0:0:
209,198,117607,1,0,0:0:0:0:
208,180,117920,1,8,0:0:0:0:
199,171,118232,1,0,0:0:0:0:
199,171,118545,1,8,0:0:0:0:
210,197,119170,1,0,0:0:0:0:
192,164,119482,1,0,0:0:0:0:
228,210,120420,1,8,0:0:0:0:
215,213,120732,1,8,0:0:0:0:
223,210,121045,1,0,0:0:0:0:
207,183,121670,1,8,0:0:0:0:
206,196,121982,1,0,0:0:0:0:
185,190,122607,1,8,0:0:0:0:
188,192,122920,1,0,0:0:0:0:
205,206,123232,1,8,0:0:0:0:
205,206,123545,1,8,0:0:0:0:
226,217,124170,1,0,0:0:0:0:
226,217,124482,1,8,0:0:0:0:
241,166,125107,1,8,0:0:0:0:
234,218,125420,1,0,0:0:0:0:
241,166,125732,1,0,0:0:0:0:
228,182,126045,1,8,0:0:0:0:
192,157,126670,1,8,0:0:0:0:
221,237,126982,1,0,0:0:0:0:
219,201,127607,1,8,0:0:0:0:
191,172,127920,1,8,0:0:0:0:
251,217,128232,1,0,0:0:0:0:
208,200,128545,1,8,0:0:0:0:
204,183,129170,1,0,0:0:0:0:
204,183,129482,1,0,0:0:0:0:
238,217,130420,1,0,0:0:0:0:
244,214,131045,1,8,0:0:0:0:
247,234,131357,1,0,0:0:0:0:
247,234,131670,1,8,0:0:0:0:
200,200,132295,1,8,0:0:0:0:
200,200,132607,1,8,0:0:0:0:
200,200,132920,1,0,0:0:0:0:
200,200,133545,1,8,0:0:0:0:
212,191,133857,1,0,0:0:0:0:
212,191,134170,1,8,0:0:0:0:
190,186,134795,1,8,0:0:0:0:
200,199,135107,1,8,0:0:0:0:
190,186,135420,1,0,0:0:0:0:
200,199,136045,1,0,0:0:0:0:
194,188,136670,1,8,0:0:0:0:
232,219,137295,1,0,0:0:0:0:
211,192,137607,1,0,0:0:0:0:
194,188,137920,1,8,0:0:0:0:
197,179,138545,1,8,0:0:0:0:
187,183,139170,1,8,0:0:0:0:
187,183,139795,1,0,0:0:0:0:
244,214,141045,1,8,0:0:0:0:
247,234,141357,1,0,0:0:0:0:
247,234,141670,1,8,0:0:0:0:
200,200,142295,1,8,0:0:0:0:
200,200,142607,1,8,0:0:0:0:
200,200,142920,1,0,0:0:0:0:
200,200,143545,1,8,0:0:0:0:
212,191,143857,1,0,0:0:0:0:
212,191,144170,1,8,0:0:0:0:
190,186,144795,1,8,0:0:0:0:
200,199,145107,1,8,0:0:0:0:
190,186,145420,1,0,0:0:0:0:
200,199,146045,1,0,0:0:0:0:
194,188,146670,1,8,0:0:0:0:
232,219,147295,1,0,0:0:0:0:
211,192,147607,1,0,0:0:0:0:
194,188,147920,1,8,0:0:0:0:
197,179,148545,1,8,0:0:0:0:
187,183,149170,1,8,0:0:0:0:
187,183,149795,1,0,0:0:0:0:
222,195,151045,1,8,0:0:0:0:
209,192,151670,1,0,0:0:0:0:
223,213,151982,1,0,0:0:0:0:
196,211,152607,1,0,0:0:0:0:
206,200,152920,1,0,0:0:0:0:
196,188,153232,1,8,0:0:0:0:
199,194,153545,1,0,0:0:0:0:
203,152,154170,1,8,0:0:0:0:
211,179,154482,1,8,0:0:0:0:
227,199,155107,1,8,0:0:0:0:
228,190,155420,1,8,0:0:0:0:
228,190,155732,1,0,0:0:0:0:
228,190,156045,1,8,0:0:0:0:
241,182,156670,1,8,0:0:0:0:
235,215,157295,1,8,0:0:0:0:
233,208,157607,1,8,0:0:0:0:
232,210,157920,1,8,0:0:0:0:
233,208,158545,1,0,0:0:0:0:
207,227,159013,1,8,0:0:0:0:
233,208,159482,1,0,0:0:0:0:
242,189,159795,1,8,0:0:0:0:
213,195,159951,1,8,0:0:0:0:
242,189,160107,1,8,0:0:0:0:
242,189,160420,1,0,0:0:0:0:
221,199,161045,1,8,0:0:0:0:
209,154,161357,1,0,0:0:0:0:
225,182,161670,1,8,0:0:0:0:
225,182,162295,1,8,0:0:0:0:
225,182,162607,1,0,0:0:0:0:
215,182,162920,1,0,0:0:0:0:
222,173,163232,1,8,0:0:0:0:
212,147,163388,1,8,0:0:0:0:
212,147,163545,1,8,0:0:0:0:
201,211,163857,1,0,0:0:0:0:
200,240,164170,1,8,0:0:0:0:
209,199,164795,1,8,0:0:0:0:
218,168,165107,1,0,0:0:0:0:
218,168,165420,1,8,0:0:0:0:
199,154,166045,1,0,0:0:0:0:
231,199,166201,1,0,0:0:0:0:
231,199,166670,1,8,0:0:0:0:
200,187,166826,1,8,0:0:0:0:
200,187,166982,1,8,0:0:0:0:
224,189,167295,1,0,0:0:0:0:
224,189,167607,1,0,0:0:0:0:
201,171,167920,1,8,0:0:0:0:
201,171,168545,1,8,0:0:0:0:
211,173,168857,1,0,0:0:0:0:
211,173,169170,1,8,0:0:0:0:
201,163,169326,1,8,0:0:0:0:
201,163,169482,1,8,0:0:0:0:
201,161,169795,1,0,0:0:0:0:
221,199,171045,1,8,0:0:0:0:
209,154,171357,1,0,0:0:0:0:
225,182,171670,1,8,0:0:0:0:
225,182,172295,1,8,0:0:0:0:
225,182,172607,1,0,0:0:0:0:
215,182,172920,1,0,0:0:0:0:
222,173,173232,1,8,0:0:0:0:
212,147,173388,1,8,0:0:0:0:
212,147,173545,1,8,0:0:0:0:
201,211,173857,1,0,0:0:0:0:
200,240,174170,1,8,0:0:0:0:
209,199,174795,1,8,0:0:0:0:
218,168,175107,1,0,0:0:0:0:
218,168,175420,1,8,0:0:0:0:
239,232,176045,1,8,0:0:0:0:
224,193,176357,1,0,0:0:0:0:
231,199,176670,1,8,0:0:0:0:
200,187,176826,1,8,0:0:0:0:
200,187,176982,1,8,0:0:0:0:
224,189,177295,1,0,0:0:0:0:
209,198,177607,1,0,0:0:0:0:
201,171,177920,1,8,0:0:0:0:
197,220,178545,1,8,0:0:0:0:
227,211,179170,5,8,0:0:0:0:
222,218,179482,1,0,0:0:0:0:
221,194,180107,1,0,0:0:0:0:
227,211,180420,1,8,0:0:0:0:
208,197,181045,1,8,0:0:0:0:
192,199,181357,1,0,0:0:0:0:
192,199,181670,1,8,0:0:0:0:
224,181,182295,1,8,0:0:0:0:
201,232,182920,1,8,0:0:0:0:
199,192,183232,1,8,0:0:0:0:
196,157,183545,1,0,0:0:0:0:
240,156,183857,1,0,0:0:0:0:
197,172,184170,1,8,0:0:0:0:
199,160,184795,1,0,0:0:0:0:
207,181,185420,1,0,0:0:0:0:
238,200,185732,1,8,0:0:0:0:
228,187,186045,1,8,0:0:0:0:
206,197,186357,1,0,0:0:0:0:
238,200,186670,1,8,0:0:0:0:
196,178,187295,1,8,0:0:0:0:
196,178,187920,1,8,0:0:0:0:
200,165,188232,1,0,0:0:0:0:
200,165,188545,1,8,0:0:0:0:
204,177,188857,1,0,0:0:0:0:
204,177,189170,1,8,0:0:0:0:
210,173,190420,1,0,0:0:0:0:
210,173,190732,1,0,0:0:0:0:
208,197,191045,1,8,0:0:0:0:
192,199,191357,1,0,0:0:0:0:
192,199,191670,1,8,0:0:0:0:
224,181,192295,1,8,0:0:0:0:
201,232,192920,1,8,0:0:0:0:
199,192,193232,1,8,0:0:0:0:
196,157,193545,1,0,0:0:0:0:
240,156,193857,1,0,0:0:0:0:
197,172,194170,1,8,0:0:0:0:
199,160,194795,1,0,0:0:0:0:
207,181,195420,1,0,0:0:0:0:
238,200,195732,1,8,0:0:0:0:
228,187,196045,1,8,0:0:0:0:
206,197,196357,1,0,0:0:0:0:
238,200,196670,1,8,0:0:0:0:
196,178,197295,1,8,0:0:0:0:
201,163,197920,1,8,0:0:0:0:
201,163,198232,1,0,0:0:0:0:
227,211,198545,1,8,0:0:0:0:
227,211,199170,1,8,0:0:0:0:
222,218,199482,1,0,0:0:0:0:
221,194,200107,1,0,0:0:0:0:
227,211,200420,1,8,0:0:0:0:
208,197,201045,1,8,0:0:0:0:
192,199,201357,1,0,0:0:0:0:
192,199,201670,1,8,0:0:0:0:
224,181,202295,1,8,0:0:0:0:
201,232,202920,1,8,0:0:0:0:
199,192,203232,1,8,0:0:0:0:
196,157,203545,1,0,0:0:0:0:
240,156,203857,1,0,0:0:0:0:
197,172,204170,1,8,0:0:0:0:
199,160,204795,1,0,0:0:0:0:
207,181,205420,1,0,0:0:0:0:
238,200,205732,1,8,0:0:0:0:
228,187,206045,1,8,0:0:0:0:
206,197,206357,1,0,0:0:0:0:
238,200,206670,1,8,0:0:0:0:
196,178,207295,1,8,0:0:0:0:
196,178,207920,1,8,0:0:0:0:
200,165,208232,1,0,0:0:0:0:
200,165,208545,1,8,0:0:0:0:
204,177,208857,1,0,0:0:0:0:
204,177,209170,1,8,0:0:0:0:
210,173,210420,1,0,0:0:0:0:
210,173,210732,1,0,0:0:0:0:
208,197,211045,1,8,0:0:0:0:
192,199,211357,1,0,0:0:0:0:
192,199,211670,1,8,0:0:0:0:
224,181,212295,1,8,0:0:0:0:
201,232,212920,1,8,0:0:0:0:
199,192,213232,1,8,0:0:0:0:
196,157,213545,1,0,0:0:0:0:
240,156,213857,1,0,0:0:0:0:
197,172,214170,1,8,0:0:0:0:
199,160,214795,1,0,0:0:0:0:
207,181,215420,1,0,0:0:0:0:
238,200,215732,1,8,0:0:0:0:
228,187,216045,1,8,0:0:0:0:
206,197,216357,1,0,0:0:0:0:
238,200,216670,1,8,0:0:0:0:
196,178,217295,1,8,0:0:0:0:
201,163,217920,1,8,0:0:0:0:
201,163,218232,1,0,0:0:0:0:
227,211,218545,1,8,0:0:0:0:
227,211,219170,1,8,0:0:0:0:
222,218,219482,1,0,0:0:0:0:
221,194,220107,1,0,0:0:0:0:
227,211,220420,1,8,0:0:0:0:
219,207,221045,1,8,0:0:0:0:
