osu file format v14

[General]
AudioFilename: audio.mp3
AudioLeadIn: 0
PreviewTime: 35624
Countdown: 0
SampleSet: None
StackLeniency: 0.4
Mode: 0
LetterboxInBreaks: 0
WidescreenStoryboard: 1

[Editor]
Bookmarks: 33593,108593
DistanceSpacing: 1
BeatDivisor: 4
GridSize: 8
TimelineZoom: 2.3

[Metadata]
Title:Yang Guang Cai Hong Xiao Bai Ma
TitleUnicode:陽光彩虹小白馬
Artist:Wowkie Zhang
ArtistUnicode:大張偉
Creator:DeRandom Otaku
Version:Chiga's Hard
Source:
Tags:pop chinese rainbow sunshine white pony chiga fuju kudosu soop so0p ermi modding queue ren
BeatmapID:2570593
BeatmapSetID:1236694

[Difficulty]
HPDrainRate:5
CircleSize:3.5
OverallDifficulty:6
ApproachRate:8
SliderMultiplier:2
SliderTickRate:1

[Events]
//Background and Video events
0,0,"bg.png",0,0
//Break Periods
//Storyboard Layer 0 (Background)
//Storyboard Layer 1 (Fail)
//Storyboard Layer 2 (Pass)
//Storyboard Layer 3 (Foreground)
//Storyboard Layer 4 (Overlay)
//Storyboard Sound Samples

[TimingPoints]
-1407,625,4,2,1,50,1,0
13593,-142.857142857143,4,2,2,60,0,0
15468,-142.857142857143,4,2,1,60,0,0
16093,-100,4,2,1,70,0,0
25311,-100,4,2,2,70,0,0
25468,-100,4,2,1,70,0,0
36093,-83.3333333333333,4,2,1,80,0,0
43436,-83.3333333333333,4,2,1,80,0,0
43593,-83.3333333333333,4,2,1,80,0,0
51561,-83.3333333333333,4,2,2,80,0,0
51718,-83.3333333333333,4,2,1,80,0,0
52655,-83.3333333333333,4,2,2,80,0,0
52968,-83.3333333333333,4,2,1,80,0,0
53436,-83.3333333333333,4,2,1,80,0,0
53593,-83.3333333333333,4,2,1,80,0,0
54999,-83.3333333333333,4,2,2,80,0,0
55468,-83.3333333333333,4,2,1,80,0,0
56093,-100,4,2,2,65,0,0
63593,-100,4,2,2,55,0,0
64843,-100,4,2,2,65,0,0
65468,-100,4,2,1,65,0,0
66093,-100,4,2,1,80,0,0
83593,-100,4,2,1,75,0,0
85468,-83.3333333333333,4,2,1,75,0,0
86093,-76.9230769230769,4,2,1,90,0,0
103593,-76.9230769230769,4,2,1,75,0,0
105780,-76.9230769230769,4,2,1,40,0,0
106249,-76.9230769230769,4,2,1,5,0,0

[Colours]
Combo1 : 128,255,128
Combo2 : 126,193,255
Combo3 : 255,121,177
Combo4 : 255,255,128

[HitObjects]
398,201,13593,6,0,L|282:175,1,104.999996795654,10|10,0:2|0:2,0:0:0:0:
245,113,14218,2,0,P|253:78|298:56,1,69.9999978637696,10|10,0:2|0:2,0:0:0:0:
377,29,14738,1,2,0:2:0:0:
377,29,14843,2,0,L|366:79,1,34.9999989318848,2|2,0:2|0:2,0:0:0:0:
459,134,15155,2,0,L|451:99,1,34.9999989318848,2|2,0:2|0:2,0:0:0:0:
398,201,15468,1,10,0:0:0:0:
398,201,16093,6,0,P|349:198|307:232,1,100,6|2,1:2|0:2,0:0:0:0:
380,320,16718,2,0,P|374:291|369:255,1,50,8|0,0:0|0:0,0:0:0:0:
326,380,17030,1,0,1:0:0:0:
326,380,17186,2,0,P|280:371|213:361,1,100
141,304,17655,2,0,P|190:296|208:292,1,50,2|0,1:2|0:0,0:0:0:0:
244,233,17968,2,0,P|239:208|236:184,1,50,10|0,0:2|0:0,0:0:0:0:
143,122,18280,2,0,P|147:146|151:171,1,50,2|2,0:2|0:2,0:0:0:0:
151,32,18593,5,2,1:2:0:0:
277,114,18905,2,0,P|301:109|326:105,1,50,2|0,0:2|0:0,0:0:0:0:
373,0,19218,2,0,P|376:24|381:49,1,50,8|0,0:0|0:0,0:0:0:0:
458,91,19530,1,0,1:2:0:0:
458,91,19686,2,0,P|491:126|495:175,1,100
427,241,20155,1,2,1:2:0:0:
287,183,20468,2,0,P|284:207|279:232,1,50,10|0,0:2|0:0,0:0:0:0:
362,322,20780,2,0,P|357:297|353:272,1,50,2|2,0:2|0:2,0:0:0:0:
299,383,21093,5,2,1:2:0:0:
198,284,21405,2,0,P|174:289|149:293,1,50,2|0,0:2|0:0,0:0:0:0:
70,384,21718,2,0,P|77:360|83:335,1,50,8|0,0:2|0:0,0:0:0:0:
30,270,22030,1,0,1:2:0:0:
30,270,22186,2,0,P|14:209|41:169,1,100
98,141,22655,1,2,1:2:0:0:
189,234,22968,2,0,P|193:259|198:284,1,50,10|0,0:2|0:0,0:0:0:0:
253,166,23280,2,0,P|249:141|244:116,1,50,2|2,0:2|0:2,0:0:0:0:
177,68,23593,5,2,1:2:0:0:
295,13,23905,2,0,P|318:20|343:26,1,50,2|0,0:2|0:0,0:0:0:0:
428,29,24218,1,8,0:2:0:0:
428,29,24374,1,0,0:0:0:0:
389,101,24530,2,0,P|399:153|408:205,1,100,0|0,1:0|0:0,0:0:0:0:
304,305,25155,2,0,P|298:335|291:375,1,50,2|8,1:2|0:0,0:0:0:0:
243,248,25468,2,0,P|218:243|193:238,1,50,10|0,0:0|0:0,0:0:0:0:
294,184,25780,2,0,P|298:159|303:134,1,50,2|2,0:2|0:2,0:0:0:0:
355,72,26093,5,6,1:2:0:0:
214,6,26405,2,0,P|187:12|154:18,1,50,2|0,0:2|0:0,0:0:0:0:
113,86,26718,2,0,P|119:112|125:146,1,50,8|0,0:0|0:0,0:0:0:0:
83,204,27030,1,0,1:0:0:0:
83,204,27186,2,0,P|136:214|189:181,1,100
216,124,27655,1,2,1:2:0:0:
188,285,27968,2,0,P|183:260|177:236,1,50,10|0,0:2|0:0,0:0:0:0:
266,329,28280,2,0,P|290:322|314:318,1,50,2|2,0:2|0:2,0:0:0:0:
395,324,28593,5,2,1:2:0:0:
367,200,28905,2,0,P|372:175|377:151,1,50,2|0,0:2|0:0,0:0:0:0:
344,74,29218,2,0,P|319:68|295:64,1,50,8|0,0:0|0:0,0:0:0:0:
226,121,29530,1,0,1:2:0:0:
226,121,29686,2,0,P|174:114|139:69,1,100
122,0,30155,1,2,1:2:0:0:
11,104,30468,2,0,P|19:132|25:162,1,50,10|0,0:2|0:0,0:0:0:0:
102,191,30780,2,0,P|93:219|88:249,1,50,2|2,0:2|0:2,0:0:0:0:
103,318,31093,5,2,1:2:0:0:
243,248,31405,2,0,P|266:255|291:260,1,50,2|0,0:2|0:0,0:0:0:0:
327,375,31718,2,0,P|332:350|339:326,1,50,8|0,0:2|0:0,0:0:0:0:
414,280,32030,1,0,1:2:0:0:
414,278,32186,2,0,P|434:234|416:188,1,100
341,158,32655,1,2,1:2:0:0:
472,71,32968,2,0,P|467:39|465:5,1,50,10|0,0:2|0:0,0:0:0:0:
379,34,33280,2,0,P|383:65|386:100,1,50,2|2,0:2|0:2,0:0:0:0:
341,158,33593,5,2,1:2:0:0:
204,82,33905,2,0,P|181:89|156:95,1,50,2|0,0:2|0:0,0:0:0:0:
75,90,34218,1,8,0:2:0:0:
75,90,34374,1,0,0:0:0:0:
110,170,34530,6,0,P|100:222|91:274,1,100,0|2,1:0|0:2,0:0:0:0:
80,352,34999,1,2,0:2:0:0:
80,352,35077,1,2,0:2:0:0:
80,352,35155,2,0,P|104:353|127:344,1,50,2|8,1:2|0:0,0:0:0:0:
174,271,35468,2,0,P|196:261|221:263,1,50,10|0,0:0|0:0,0:0:0:0:
282,321,35780,1,2,0:2:0:0:
354,274,35936,1,2,0:2:0:0:
450,356,36093,6,0,B|487:325|487:325|465:247,1,119.999996337891,6|2,1:2|0:2,0:0:0:0:
418,181,36561,1,2,0:2:0:0:
335,216,36718,2,0,L|356:282,1,59.9999981689454,10|0,0:2|0:0,0:0:0:0:
256,173,37030,2,0,L|274:115,1,59.9999981689454,2|0,1:2|0:0,0:0:0:0:
177,217,37343,5,2,0:2:0:0:
177,217,37499,1,2,0:2:0:0:
115,148,37655,1,2,1:2:0:0:
115,148,37811,1,2,0:2:0:0:
35,197,37968,2,0,P|32:236|49:265,1,59.9999981689454,10|0,0:2|0:0,0:0:0:0:
72,336,38280,2,0,P|110:328|133:303,1,59.9999981689454,2|2,0:2|0:2,0:0:0:0:
177,217,38593,6,0,B|233:225|233:225|236:230|236:230|304:240,1,119.999996337891,2|2,1:2|0:2,0:0:0:0:
359,294,39061,1,2,0:2:0:0:
431,242,39218,2,0,P|439:212|428:172,1,59.9999981689454,10|0,0:2|0:0,0:0:0:0:
373,128,39530,2,0,P|368:98|376:69,1,59.9999981689454,2|0,1:2|0:0,0:0:0:0:
433,6,39843,5,2,0:2:0:0:
433,6,39999,1,2,0:2:0:0:
498,71,40155,1,2,1:2:0:0:
498,71,40311,1,2,0:2:0:0:
432,137,40468,2,0,L|349:124,1,59.9999981689454,10|0,0:2|0:0,0:0:0:0:
323,219,40780,2,0,L|406:206,1,59.9999981689454,2|0,0:2|0:0,0:0:0:0:
218,175,41093,6,0,P|207:147|210:117,1,59.9999981689454,2|0,1:2|0:0,0:0:0:0:
259,9,41405,2,0,P|269:36|266:66,1,59.9999981689454,2|0,0:2|0:0,0:0:0:0:
135,92,41718,2,0,L|64:75,1,59.9999981689454,10|0,0:2|0:0,0:0:0:0:
17,141,42030,2,0,L|30:199,1,59.9999981689454,2|0,1:2|0:0,0:0:0:0:
3,281,42343,2,0,P|70:276|111:227,1,119.999996337891,2|2,0:2|1:2,0:0:0:0:
212,110,42968,2,0,B|148:157|148:157|198:254,1,179.999994506836,10|2,0:2|0:2,0:0:0:0:
210,271,43593,6,0,P|255:225|318:238,1,119.999996337891,2|2,1:2|0:2,0:0:0:0:
350,304,44061,1,2,0:2:0:0:
350,304,44218,2,0,L|340:372,1,59.9999981689454,10|0,0:2|0:0,0:0:0:0:
442,290,44530,2,0,L|433:230,1,59.9999981689454,2|0,1:2|0:0,0:0:0:0:
418,150,44843,5,2,0:2:0:0:
418,150,44999,1,2,0:2:0:0:
339,193,45155,1,2,1:2:0:0:
339,193,45311,1,2,0:2:0:0:
262,142,45468,2,0,P|229:150|173:161,1,59.9999981689454,10|2,0:2|0:2,0:0:0:0:
130,103,45780,1,2,0:2:0:0:
59,152,45936,1,2,0:2:0:0:
139,235,46093,6,0,B|128:295|128:295|130:296|130:296|119:359,1,119.999996337891,6|2,1:2|0:2,0:0:0:0:
40,375,46561,1,2,0:2:0:0:
0,299,46718,2,0,P|19:276|49:265,1,59.9999981689454,10|0,0:2|0:0,0:0:0:0:
94,182,47030,2,0,P|123:185|147:206,1,59.9999981689454,2|0,1:2|0:0,0:0:0:0:
173,287,47343,5,2,0:2:0:0:
173,287,47499,1,2,0:2:0:0:
244,234,47655,1,2,1:2:0:0:
244,234,47811,1,2,0:2:0:0:
308,294,47968,2,0,P|343:285|385:279,1,59.9999981689454,10|0,0:2|0:0,0:0:0:0:
441,326,48280,2,0,P|446:355|453:384,1,59.9999981689454,2|2,0:2|0:2,0:0:0:0:
502,265,48593,6,0,P|515:201|465:153,1,119.999996337891,2|2,1:2|0:2,0:0:0:0:
401,148,49061,1,2,0:2:0:0:
454,87,49218,2,0,P|463:58|450:17,1,59.9999981689454,10|0,0:2|0:0,0:0:0:0:
369,1,49530,2,0,L|286:16,1,59.9999981689454,2|0,1:2|0:0,0:0:0:0:
225,20,49843,5,2,0:2:0:0:
225,20,49999,1,2,0:2:0:0:
273,100,50155,1,2,1:2:0:0:
273,100,50311,1,2,0:2:0:0:
206,157,50468,2,0,P|193:177|191:224,1,59.9999981689454,10|0,0:2|0:0,0:0:0:0:
249,275,50780,2,0,P|262:295|264:342,1,59.9999981689454,2|0,0:2|0:0,0:0:0:0:
154,384,51093,6,0,P|124:375|87:370,1,59.9999981689454,2|0,1:2|0:0,0:0:0:0:
45,275,51405,2,0,P|74:283|112:289,1,59.9999981689454,2|8,0:2|0:0,0:0:0:0:
188,212,51718,2,0,P|201:192|203:145,1,59.9999981689454,10|0,0:2|0:0,0:0:0:0:
283,123,52030,2,0,P|272:101|232:76,1,59.9999981689454,2|0,1:2|0:0,0:0:0:0:
175,5,52343,6,0,P|108:11|80:87,1,119.999996337891,2|2,0:2|1:2,0:0:0:0:
7,190,52968,2,0,B|19:272|19:272|24:275|24:275|38:374,1,179.999994506836,10|2,0:2|0:2,0:0:0:0:
59,377,53593,6,0,P|127:378|176:320,1,119.999996337891,2|2,1:2|0:2,0:0:0:0:
198,277,54061,1,2,0:2:0:0:
198,277,54218,2,0,L|188:211,1,59.9999981689454,10|0,0:2|0:0,0:0:0:0:
284,290,54530,2,0,L|275:349,1,59.9999981689454,2|0,1:2|0:0,0:0:0:0:
350,242,54843,5,2,0:2:0:0:
350,242,54999,1,8,0:2:0:0:
423,290,55155,1,0,1:0:0:0:
423,290,55311,1,8,0:2:0:0:
497,249,55468,2,0,P|517:184|458:118,1,119.999996337891,8|0,0:0|0:0,0:0:0:0:
384,29,56093,6,0,L|364:153,1,100,14|10,0:2|0:2,0:0:0:0:
299,181,56561,1,10,0:0:0:0:
299,181,56718,2,0,P|275:244|291:290,1,100,10|10,1:2|0:2,0:0:0:0:
355,322,57186,1,8,0:0:0:0:
355,322,57343,6,0,P|384:317|409:314,1,50,10|8,0:0|1:2,0:0:0:0:
405,233,57655,2,0,P|376:238|349:242,1,50,10|10,0:0|0:2,0:0:0:0:
297,186,57968,1,10,0:0:0:0:
209,272,58280,2,0,P|214:299|217:326,1,50,10|8,0:2|0:0,0:0:0:0:
210,356,58514,1,8,0:0:0:0:
210,356,58593,6,0,P|147:361|111:319,1,100,14|10,0:0|0:2,0:0:0:0:
47,314,59061,1,10,0:0:0:0:
47,314,59218,2,0,P|58:288|99:261,1,50,10|0,0:0|0:0,0:0:0:0:
151,250,59530,1,10,0:0:0:0:
58,118,59843,6,0,L|65:185,2,50,10|8|10,0:0|1:2|1:2,0:0:0:0:
96,46,60311,1,8,0:0:0:0:
96,46,60468,2,0,P|165:28|198:52,1,100,8|4,2:0|1:2,0:0:0:0:
226,123,60936,1,10,1:2:0:0:
226,123,61093,6,0,B|277:116|277:116|281:120|281:120|351:111,1,100,6|10,1:2|0:2,0:0:0:0:
387,58,61561,1,10,0:2:0:0:
387,58,61718,1,6,1:2:0:0:
462,186,62030,2,0,L|448:255,1,50,10|0,0:0|0:0,0:0:0:0:
428,318,62343,5,14,1:2:0:0:
287,245,62655,2,0,L|302:315,1,50,14|2,1:2|0:0,0:0:0:0:
247,370,62968,2,0,P|218:378|177:364,1,50,6|0,1:2|0:0,0:0:0:0:
140,312,63280,2,0,P|113:304|89:308,1,50,14|0,1:2|0:0,0:0:0:0:
29,362,63593,6,0,B|-7:293|-7:293|54:234,2,150,10|10|10,0:0|0:0|0:0,0:0:0:0:
217,303,64843,2,0,P|243:295|266:298,1,50,10|10,0:0|0:0,0:0:0:0:
315,236,65155,2,0,P|334:254|344:279,1,50,10|10,0:0|0:0,0:0:0:0:
325,354,65468,5,4,0:0:0:0:
152,291,65780,2,0,L|132:204,1,50,2|2,0:0|0:0,0:0:0:0:
219,194,66093,6,0,L|240:84,1,100,6|0,1:2|0:0,0:0:0:0:
178,31,66561,1,2,0:0:0:0:
178,31,66718,2,0,P|141:31|119:45,1,50,10|0,0:2|0:0,0:0:0:0:
38,52,67030,2,0,P|45:86|53:137,1,50,2|0,0:2|1:0,0:0:0:0:
120,181,67343,6,0,P|124:153|129:128,2,50,2|0|2,0:2|1:0|1:2,0:0:0:0:
160,256,67811,1,2,0:2:0:0:
160,256,67968,2,0,P|106:265|56:239,1,100,10|2,0:2|0:2,0:0:0:0:
215,164,68593,6,0,P|268:154|320:182,1,100,2|2,1:2|1:2,0:0:0:0:
333,260,69061,1,2,0:2:0:0:
333,260,69218,2,0,P|325:294|317:346,1,50,10|0,0:2|0:0,0:0:0:0:
389,374,69530,2,0,P|423:381|477:389,1,50,2|0,0:2|1:0,0:0:0:0:
453,307,69843,6,0,P|418:300|363:292,2,50,2|2|2,0:2|1:2|1:2,0:0:0:0:
512,249,70311,1,2,0:2:0:0:
512,249,70468,2,0,P|521:216|501:166,1,50,10|2,0:2|0:2,0:0:0:0:
471,131,70780,1,2,0:2:0:0:
512,5,71093,6,0,B|462:13|462:13|460:17|460:17|391:30,1,100,2|0,0:3|0:0,0:0:0:0:
348,82,71561,1,2,0:0:0:0:
348,82,71718,2,0,P|325:64|282:61,1,50,10|2,0:2|0:0,0:0:0:0:
248,160,72030,2,0,P|271:142|309:138,1,50,2|0,0:2|1:0,0:0:0:0:
348,203,72343,6,0,P|341:234|337:267,2,50,2|0|2,0:2|1:0|1:2,0:0:0:0:
419,155,72811,1,2,0:2:0:0:
419,155,72968,2,0,P|489:174|505:212,1,100,10|2,0:2|0:2,0:0:0:0:
487,354,73593,6,0,L|356:327,1,100,2|2,1:2|1:2,0:0:0:0:
320,381,74061,1,2,0:2:0:0:
320,381,74218,2,0,P|306:358|305:319,1,50,10|2,0:2|0:0,0:0:0:0:
343,259,74530,2,0,P|357:235|360:207,1,50,2|0,0:2|1:0,0:0:0:0:
300,141,74843,6,0,P|263:147|219:153,2,50,2|2|2,0:2|1:2|1:2,0:0:0:0:
344,67,75311,1,2,0:2:0:0:
344,67,75468,2,0,P|381:60|421:54,1,50,10|2,0:2|0:2,0:0:0:0:
478,47,75780,1,2,0:2:0:0:
281,15,76093,6,0,B|244:52|244:52|278:136,1,100,6|2,1:2|0:0,0:0:0:0:
343,153,76561,1,2,0:0:0:0:
343,153,76718,2,0,P|338:181|331:206,1,50,10|0,0:2|0:0,0:0:0:0:
270,263,77030,2,0,P|243:256|215:249,1,50,2|0,0:2|1:0,0:0:0:0:
154,192,77343,6,0,P|154:159|178:123,2,50,2|0|2,0:2|1:0|1:2,0:0:0:0:
130,273,77811,1,2,0:2:0:0:
130,273,77968,2,0,P|60:299|24:281,1,100,10|2,0:2|0:2,0:0:0:0:
0,114,78593,6,0,B|12:84|13:42|13:42|17:62|33:77,1,100,2|2,1:2|1:2,0:0:0:0:
95,123,79061,1,2,0:2:0:0:
95,123,79218,2,0,P|132:133|162:127,1,50,10|0,0:2|0:0,0:0:0:0:
210,71,79530,2,0,P|237:69|262:80,1,50,2|0,0:2|1:0,0:0:0:0:
309,151,79843,6,0,P|300:181|291:216,2,50,2|2|2,0:2|1:2|1:2,0:0:0:0:
385,107,80311,1,2,0:2:0:0:
385,107,80468,2,0,P|415:117|446:122,1,50,10|2,0:2|0:2,0:0:0:0:
509,85,80780,1,2,0:2:0:0:
442,219,81093,6,0,B|451:277|451:277|455:278|455:278|466:342,1,100,2|0,0:1|1:0,0:0:0:0:
397,376,81561,1,4,0:3:0:0:
397,376,81718,2,0,B|369:379|369:379|336:361,1,50,10|2,0:2|0:0,0:0:0:0:
298,300,82030,2,0,L|311:225,1,50,2|0,0:2|1:0,0:0:0:0:
295,170,82343,6,0,P|258:184|238:214,2,50,2|0|2,0:2|1:0|1:2,0:0:0:0:
379,204,82811,1,2,0:2:0:0:
379,204,82968,2,0,P|370:154|361:81,1,100,10|2,0:2|0:2,0:0:0:0:
231,2,83593,6,0,P|171:9|134:64,1,100,8|0,0:3|0:0,0:0:0:0:
78,86,84061,1,8,0:3:0:0:
78,86,84218,2,0,P|95:105|143:117,1,50,8|0,0:3|0:0,0:0:0:0:
205,171,84530,2,0,P|180:182|161:199,1,50,8|0,0:3|0:0,0:0:0:0:
109,297,84843,6,0,P|162:287|239:277,1,100,2|10,0:0|0:0,0:0:0:0:
57,362,85468,2,0,P|27:308|52:236,1,119.999996337891,10|2,0:0|0:0,0:0:0:0:
112,220,85936,1,2,0:0:0:0:
48,128,86093,6,0,L|61:61,1,64.9999970245363,6|0,1:2|0:0,0:0:0:0:
133,15,86405,1,2,0:2:0:0:
133,15,86561,1,2,0:2:0:0:
191,82,86718,2,0,P|220:100|268:98,1,64.9999970245363,10|0,0:2|0:0,0:0:0:0:
324,57,87030,1,2,0:2:0:0:
324,57,87186,1,2,0:2:0:0:
372,131,87343,6,0,L|340:269,1,129.999994049073,2|2,1:2|0:2,0:0:0:0:
394,327,87811,1,2,0:2:0:0:
484,314,87968,2,0,P|507:284|508:250,1,64.9999970245363,10|2,0:2|0:2,0:0:0:0:
451,191,88280,1,2,0:2:0:0:
451,191,88436,1,2,0:2:0:0:
512,122,88593,6,0,B|502:83|481:63|481:63|444:58|413:68,1,129.999994049073,2|2,1:2|0:2,0:0:0:0:
352,121,89061,1,2,0:2:0:0:
273,75,89218,2,0,P|282:42|289:9,1,64.9999970245363,10|0,0:2|0:0,0:0:0:0:
184,104,89530,2,0,P|193:136|200:170,1,64.9999970245363,2|0,0:2|0:0,0:0:0:0:
156,244,89843,2,0,P|67:262|32:235,1,129.999994049073,2|0,1:2|0:0,0:0:0:0:
217,371,90468,2,0,P|230:303|247:237,1,129.999994049073,8|2,0:0|0:2,0:0:0:0:
327,202,90936,1,2,0:2:0:0:
420,234,91093,6,0,P|442:265|439:316,1,64.9999970245363,2|0,1:2|0:0,0:0:0:0:
396,363,91405,1,2,0:2:0:0:
396,363,91561,1,2,0:2:0:0:
305,326,91718,2,0,P|271:331|209:347,1,64.9999970245363,10|0,0:2|0:0,0:0:0:0:
162,373,92030,1,2,0:2:0:0:
162,373,92186,1,2,0:2:0:0:
77,316,92343,6,0,B|89:258|89:258|87:254|87:254|101:172,1,129.999994049073,2|2,1:2|0:2,0:0:0:0:
31,133,92811,1,2,0:2:0:0:
68,54,92968,2,0,P|95:35|138:35,1,64.9999970245363,10|2,0:2|0:2,0:0:0:0:
190,95,93280,1,2,0:2:0:0:
190,95,93436,1,2,0:2:0:0:
260,32,93593,6,0,B|307:70|307:70|278:136,1,129.999994049073,2|2,1:2|0:2,0:0:0:0:
211,193,94061,1,2,0:2:0:0:
211,193,94218,2,0,P|218:229|223:272,1,64.9999970245363,10|0,0:2|0:0,0:0:0:0:
300,325,94530,2,0,P|304:292|310:260,1,64.9999970245363,2|0,0:2|0:0,0:0:0:0:
367,194,94843,1,2,1:2:0:0:
261,86,95155,6,0,P|231:88|199:114,1,64.9999970245363,2|0,1:2|0:0,0:0:0:0:
111,109,95468,2,0,P|105:138|121:176,1,64.9999970245363,2|0,1:2|0:0,0:0:0:0:
109,258,95780,2,0,P|135:271|176:264,1,64.9999970245363,2|0,1:2|0:0,0:0:0:0:
260,175,96093,6,0,P|292:180|325:187,1,64.9999970245363,6|0,1:2|0:0,0:0:0:0:
392,242,96405,1,2,0:2:0:0:
392,242,96561,1,2,0:2:0:0:
466,200,96718,2,0,P|485:180|484:125,1,64.9999970245363,10|0,0:2|0:0,0:0:0:0:
436,79,97030,1,2,0:2:0:0:
436,79,97186,1,2,0:2:0:0:
346,108,97343,6,0,P|281:97|218:83,1,129.999994049073,2|2,1:2|0:2,0:0:0:0:
153,28,97811,1,2,0:2:0:0:
85,86,97968,2,0,P|90:121|95:161,1,64.9999970245363,10|2,0:2|0:2,0:0:0:0:
86,239,98280,1,2,0:2:0:0:
86,239,98436,1,2,0:2:0:0:
179,218,98593,6,0,P|253:239|267:306,1,129.999994049073,2|2,1:2|0:2,0:0:0:0:
221,357,99061,1,2,0:2:0:0:
143,314,99218,2,0,P|111:320|76:327,1,64.9999970245363,10|0,0:2|0:0,0:0:0:0:
12,269,99530,2,0,P|6:236|0:205,1,64.9999970245363,2|0,0:2|0:0,0:0:0:0:
22,121,99843,2,0,P|86:110|153:97,1,129.999994049073,2|0,1:2|0:0,0:0:0:0:
298,7,100468,2,0,P|277:29|278:132,1,129.999994049073,8|2,0:0|0:2,0:0:0:0:
351,166,100936,1,2,0:2:0:0:
285,250,101093,6,0,P|251:241|205:232,1,64.9999970245363,2|0,1:2|0:0,0:0:0:0:
148,279,101405,1,2,0:2:0:0:
148,279,101561,1,2,0:2:0:0:
191,356,101718,2,0,P|224:364|271:374,1,64.9999970245363,10|0,0:2|0:0,0:0:0:0:
331,330,102030,1,2,0:2:0:0:
331,330,102186,1,2,0:2:0:0:
436,380,102343,6,0,B|475:322|475:322|431:251,1,129.999994049073,2|2,1:2|0:2,0:0:0:0:
393,198,102811,1,2,0:2:0:0:
459,133,102968,2,0,P|472:106|466:66,1,64.9999970245363,10|2,0:2|0:2,0:0:0:0:
400,22,103280,1,2,0:2:0:0:
400,22,103436,1,2,0:2:0:0:
300,89,103593,6,0,B|237:79|237:79|229:81|229:81|147:67,1,129.999994049073,8|0,0:3|0:0,0:0:0:0:
111,7,104061,1,8,0:3:0:0:
111,7,104218,2,0,B|86:33|86:33|82:64,1,64.9999970245363,8|0,0:3|0:0,0:0:0:0:
123,150,104530,2,0,L|108:232,1,64.9999970245363,8|0,0:3|0:0,0:0:0:0:
29,282,104843,2,0,P|97:293|181:310,1,129.999994049073,2|8,0:0|0:3,0:0:0:0:
302,380,105468,2,0,P|286:284|323:240,1,129.999994049073,2|0,0:0|0:0,0:0:0:0:
256,192,106093,12,0,109843,0:0:0:0:
