osu file format v14

[General]
AudioFilename: audio.mp3
AudioLeadIn: 0
PreviewTime: 35781
Countdown: 0
SampleSet: Soft
StackLeniency: 0.7
Mode: 3
LetterboxInBreaks: 0
SpecialStyle: 0
WidescreenStoryboard: 1

[Editor]
DistanceSpacing: 0.6
BeatDivisor: 4
GridSize: 8
TimelineZoom: 1

[Metadata]
Title:Yang Guang Cai Hong Xiao Bai Ma (Cut Ver.)
TitleUnicode:阳光彩虹小白马 (Cut Ver.)
Artist:Wowkie Zhang
ArtistUnicode:大张伟
Creator:Carpihat
Version:Sanae's Normal
Source:
Tags:大張偉 陽光彩虹小白馬 da zhang wei Chinese male vocal pop Cpop c-pop rainbow sunshine white pony 人間精品 人间精品 botique in the world 太合音樂 太合音乐 taihe music lovely_hyahya hyahya sanae [GB]Sanae Flade
BeatmapID:4478862
BeatmapSetID:2128378

[Difficulty]
HPDrainRate:7
CircleSize:4
OverallDifficulty:7
ApproachRate:5
SliderMultiplier:1.4
SliderTickRate:1

[Events]
//Background and Video events
0,0,"T3qX9Nm.jpg",0,0
//Break Periods
//Storyboard Layer 0 (Background)
//Storyboard Layer 1 (Fail)
//Storyboard Layer 2 (Pass)
//Storyboard Layer 3 (Foreground)
//Storyboard Layer 4 (Overlay)
//Storyboard Sound Samples

[TimingPoints]
16094,312.5,4,2,1,40,1,0
36094,-100,4,2,1,40,0,1
56094,-100,4,2,1,40,0,0
86094,-100,4,2,1,40,0,1
94844,-100,4,2,1,40,0,0
96094,-100,4,2,1,40,0,1
103594,-100,4,2,1,40,0,0

[HitObjects]
64,192,13594,5,0,0:0:0:0:
448,192,13906,1,0,0:0:0:0:
320,192,14062,1,0,0:0:0:0:
192,192,14219,1,0,0:0:0:0:
448,192,14531,1,0,0:0:0:0:
192,192,14765,1,0,0:0:0:0:
320,192,14844,1,0,0:0:0:0:
64,192,15000,1,0,0:0:0:0:
448,192,15156,128,0,15312:0:0:0:0:
320,192,15312,1,0,0:0:0:0:
64,192,15469,128,0,15625:0:0:0:0:
192,192,15469,1,0,0:0:0:0:
320,192,15781,128,0,15937:0:0:0:0:
64,192,16094,128,0,16406:0:0:0:0:
448,192,16094,1,0,0:0:0:0:
448,192,16406,128,0,16719:0:0:0:0:
192,192,16719,1,0,0:0:0:0:
320,192,16719,1,0,0:0:0:0:
64,192,16875,1,0,0:0:0:0:
448,192,17031,1,0,0:0:0:0:
320,192,17031,1,0,0:0:0:0:
192,192,17187,1,0,0:0:0:0:
64,192,17656,128,0,17812:0:0:0:0:
320,192,17656,1,0,0:0:0:0:
192,192,17812,1,0,0:0:0:0:
320,192,17969,128,0,18125:0:0:0:0:
448,192,17969,1,0,0:0:0:0:
64,192,18125,1,0,0:0:0:0:
448,192,18281,128,0,18437:0:0:0:0:
320,192,18437,1,0,0:0:0:0:
192,192,18594,128,0,18906:0:0:0:0:
64,192,18594,1,0,0:0:0:0:
320,192,18906,128,0,19219:0:0:0:0:
64,192,19219,1,0,0:0:0:0:
448,192,19219,1,0,0:0:0:0:
192,192,19375,1,0,0:0:0:0:
320,192,19531,1,0,0:0:0:0:
448,192,19531,1,0,0:0:0:0:
192,192,19687,1,0,0:0:0:0:
64,192,20156,128,0,20312:0:0:0:0:
448,192,20156,1,0,0:0:0:0:
320,192,20312,1,0,0:0:0:0:
192,192,20469,128,0,20625:0:0:0:0:
64,192,20469,1,0,0:0:0:0:
448,192,20625,1,0,0:0:0:0:
320,192,20781,128,0,20937:0:0:0:0:
64,192,20937,1,0,0:0:0:0:
448,192,21094,128,0,21406:0:0:0:0:
320,192,21094,1,0,0:0:0:0:
192,192,21406,128,0,21719:0:0:0:0:
448,192,21719,1,0,0:0:0:0:
320,192,21719,1,0,0:0:0:0:
64,192,21875,1,0,0:0:0:0:
320,192,22031,1,0,0:0:0:0:
192,192,22031,1,0,0:0:0:0:
448,192,22187,1,0,0:0:0:0:
64,192,22344,1,0,0:0:0:0:
192,192,22656,128,0,22812:0:0:0:0:
320,192,22656,1,0,0:0:0:0:
64,192,22812,1,0,0:0:0:0:
448,192,22969,128,0,23125:0:0:0:0:
320,192,22969,1,0,0:0:0:0:
64,192,23281,128,0,23437:0:0:0:0:
192,192,23437,1,0,0:0:0:0:
320,192,23594,1,0,0:0:0:0:
448,192,23594,128,0,23906:0:0:0:0:
64,192,23906,128,0,24219:0:0:0:0:
192,192,24219,1,0,0:0:0:0:
320,192,24219,1,0,0:0:0:0:
448,192,24375,1,0,0:0:0:0:
192,192,24531,1,0,0:0:0:0:
64,192,24531,1,0,0:0:0:0:
64,192,25156,128,0,25312:0:0:0:0:
448,192,25156,1,0,0:0:0:0:
192,192,25312,1,0,0:0:0:0:
448,192,25469,128,0,25625:0:0:0:0:
320,192,25469,1,0,0:0:0:0:
192,192,25781,128,0,25937:0:0:0:0:
320,192,25937,1,0,0:0:0:0:
448,192,26094,128,0,26406:0:0:0:0:
64,192,26094,1,0,0:0:0:0:
192,192,26406,128,0,26719:0:0:0:0:
320,192,26719,1,0,0:0:0:0:
448,192,26719,1,0,0:0:0:0:
64,192,26875,1,0,0:0:0:0:
448,192,27031,1,0,0:0:0:0:
192,192,27031,1,0,0:0:0:0:
320,192,27187,1,0,0:0:0:0:
448,192,27656,128,0,27812:0:0:0:0:
192,192,27656,1,0,0:0:0:0:
320,192,27812,1,0,0:0:0:0:
192,192,27969,128,0,28125:0:0:0:0:
64,192,27969,1,0,0:0:0:0:
448,192,28125,1,0,0:0:0:0:
64,192,28281,128,0,28437:0:0:0:0:
320,192,28437,1,0,0:0:0:0:
192,192,28594,128,0,28906:0:0:0:0:
448,192,28594,1,0,0:0:0:0:
320,192,28906,128,0,29219:0:0:0:0:
448,192,29219,1,0,0:0:0:0:
64,192,29219,1,0,0:0:0:0:
320,192,29375,1,0,0:0:0:0:
192,192,29531,1,0,0:0:0:0:
448,192,29531,1,0,0:0:0:0:
64,192,29687,1,0,0:0:0:0:
448,192,30156,128,0,30312:0:0:0:0:
64,192,30156,1,0,0:0:0:0:
192,192,30312,1,0,0:0:0:0:
320,192,30469,128,0,30625:0:0:0:0:
448,192,30469,1,0,0:0:0:0:
64,192,30625,1,0,0:0:0:0:
192,192,30781,128,0,30937:0:0:0:0:
448,192,30937,1,0,0:0:0:0:
320,192,31094,128,0,31406:0:0:0:0:
192,192,31094,1,0,0:0:0:0:
64,192,31406,128,0,31719:0:0:0:0:
448,192,31719,1,0,0:0:0:0:
320,192,31719,1,0,0:0:0:0:
192,192,31875,1,0,0:0:0:0:
64,192,32031,1,0,0:0:0:0:
448,192,32031,1,0,0:0:0:0:
320,192,32187,1,0,0:0:0:0:
64,192,32344,1,0,0:0:0:0:
320,192,32656,128,0,32812:0:0:0:0:
192,192,32656,1,0,0:0:0:0:
448,192,32812,1,0,0:0:0:0:
64,192,32969,128,0,33125:0:0:0:0:
192,192,32969,1,0,0:0:0:0:
448,192,33281,128,0,33437:0:0:0:0:
320,192,33437,1,0,0:0:0:0:
192,192,33594,1,0,0:0:0:0:
64,192,33594,128,0,33906:0:0:0:0:
448,192,33906,128,0,34219:0:0:0:0:
320,192,34219,1,0,0:0:0:0:
192,192,34219,1,0,0:0:0:0:
64,192,34375,1,0,0:0:0:0:
448,192,34531,1,0,0:0:0:0:
320,192,34531,1,0,0:0:0:0:
64,192,34844,1,0,0:0:0:0:
320,192,35000,1,0,0:0:0:0:
192,192,35078,1,0,0:0:0:0:
448,192,35156,1,0,0:0:0:0:
64,192,35156,1,0,0:0:0:0:
192,192,35312,1,0,0:0:0:0:
320,192,35469,1,0,0:0:0:0:
448,192,35469,1,0,0:0:0:0:
64,192,35781,128,0,35937:0:0:0:0:
192,192,35937,128,0,36094:0:0:0:0:
448,192,36094,1,0,0:0:0:0:
320,192,36094,1,0,0:0:0:0:
320,192,36406,1,0,0:0:0:0:
64,192,36562,1,0,0:0:0:0:
448,192,36719,1,0,0:0:0:0:
320,192,36719,1,0,0:0:0:0:
320,192,37031,1,0,0:0:0:0:
192,192,37031,1,0,0:0:0:0:
64,192,37344,1,0,0:0:0:0:
448,192,37500,1,0,0:0:0:0:
192,192,37656,1,0,0:0:0:0:
320,192,37656,1,0,0:0:0:0:
448,192,37812,1,0,0:0:0:0:
192,192,37969,1,0,0:0:0:0:
64,192,37969,1,0,0:0:0:0:
64,192,38281,1,0,0:0:0:0:
192,192,38594,1,0,0:0:0:0:
448,192,38594,1,0,0:0:0:0:
448,192,38906,1,0,0:0:0:0:
192,192,39062,1,0,0:0:0:0:
448,192,39219,1,0,0:0:0:0:
64,192,39219,1,0,0:0:0:0:
448,192,39531,1,0,0:0:0:0:
192,192,39531,1,0,0:0:0:0:
64,192,39844,1,0,0:0:0:0:
320,192,40000,1,0,0:0:0:0:
192,192,40156,1,0,0:0:0:0:
64,192,40156,1,0,0:0:0:0:
448,192,40312,1,0,0:0:0:0:
192,192,40469,1,0,0:0:0:0:
320,192,40469,1,0,0:0:0:0:
320,192,40781,1,0,0:0:0:0:
64,192,41094,128,0,41250:0:0:0:0:
448,192,41094,1,0,0:0:0:0:
192,192,41406,128,0,41562:0:0:0:0:
320,192,41719,128,0,41875:0:0:0:0:
448,192,41719,1,0,0:0:0:0:
448,192,42031,128,0,42187:0:0:0:0:
64,192,42031,1,0,0:0:0:0:
192,192,42344,128,0,42500:0:0:0:0:
448,192,42656,128,0,42812:0:0:0:0:
320,192,42656,1,0,0:0:0:0:
64,192,42969,128,0,43281:0:0:0:0:
192,192,42969,1,0,0:0:0:0:
192,192,43594,1,0,0:0:0:0:
448,192,43594,1,0,0:0:0:0:
320,192,43906,1,0,0:0:0:0:
192,192,44062,1,0,0:0:0:0:
64,192,44219,1,0,0:0:0:0:
448,192,44219,1,0,0:0:0:0:
192,192,44531,1,0,0:0:0:0:
320,192,44531,1,0,0:0:0:0:
64,192,44844,1,0,0:0:0:0:
192,192,45000,1,0,0:0:0:0:
64,192,45156,1,0,0:0:0:0:
448,192,45156,1,0,0:0:0:0:
320,192,45312,1,0,0:0:0:0:
192,192,45469,1,0,0:0:0:0:
448,192,45625,1,0,0:0:0:0:
320,192,45781,128,0,45937:0:0:0:0:
448,192,45937,128,0,46094:0:0:0:0:
64,192,46094,1,0,0:0:0:0:
192,192,46094,1,0,0:0:0:0:
192,192,46406,1,0,0:0:0:0:
448,192,46562,1,0,0:0:0:0:
64,192,46719,1,0,0:0:0:0:
192,192,46719,1,0,0:0:0:0:
192,192,47031,1,0,0:0:0:0:
320,192,47031,1,0,0:0:0:0:
448,192,47344,1,0,0:0:0:0:
64,192,47500,1,0,0:0:0:0:
320,192,47656,1,0,0:0:0:0:
192,192,47656,1,0,0:0:0:0:
64,192,47812,1,0,0:0:0:0:
320,192,47969,1,0,0:0:0:0:
448,192,47969,1,0,0:0:0:0:
448,192,48281,1,0,0:0:0:0:
320,192,48594,1,0,0:0:0:0:
64,192,48594,1,0,0:0:0:0:
64,192,48906,1,0,0:0:0:0:
320,192,49062,1,0,0:0:0:0:
64,192,49219,1,0,0:0:0:0:
448,192,49219,1,0,0:0:0:0:
64,192,49531,1,0,0:0:0:0:
320,192,49531,1,0,0:0:0:0:
448,192,49844,1,0,0:0:0:0:
192,192,50000,1,0,0:0:0:0:
320,192,50156,1,0,0:0:0:0:
448,192,50156,1,0,0:0:0:0:
64,192,50312,1,0,0:0:0:0:
320,192,50469,1,0,0:0:0:0:
192,192,50469,1,0,0:0:0:0:
192,192,50781,1,0,0:0:0:0:
448,192,51094,128,0,51250:0:0:0:0:
64,192,51094,1,0,0:0:0:0:
320,192,51406,128,0,51562:0:0:0:0:
192,192,51719,128,0,51875:0:0:0:0:
64,192,51719,1,0,0:0:0:0:
64,192,52031,128,0,52187:0:0:0:0:
448,192,52031,1,0,0:0:0:0:
320,192,52344,128,0,52500:0:0:0:0:
64,192,52656,128,0,52812:0:0:0:0:
192,192,52656,1,0,0:0:0:0:
448,192,52969,128,0,53281:0:0:0:0:
320,192,52969,1,0,0:0:0:0:
320,192,53594,1,0,0:0:0:0:
64,192,53594,1,0,0:0:0:0:
192,192,53906,1,0,0:0:0:0:
320,192,54062,1,0,0:0:0:0:
448,192,54219,1,0,0:0:0:0:
64,192,54219,1,0,0:0:0:0:
320,192,54531,1,0,0:0:0:0:
192,192,54531,1,0,0:0:0:0:
64,192,54844,1,0,0:0:0:0:
192,192,55000,1,0,0:0:0:0:
320,192,55156,1,0,0:0:0:0:
448,192,55156,1,0,0:0:0:0:
64,192,55312,1,0,0:0:0:0:
448,192,55469,128,0,55781:0:0:0:0:
192,192,55469,1,0,0:0:0:0:
64,192,56094,1,0,0:0:0:0:
448,192,56094,1,0,0:0:0:0:
320,192,56406,1,0,0:0:0:0:
192,192,56562,1,0,0:0:0:0:
448,192,56562,1,0,0:0:0:0:
64,192,56719,1,0,0:0:0:0:
320,192,56719,1,0,0:0:0:0:
64,192,57031,1,0,0:0:0:0:
448,192,57031,1,0,0:0:0:0:
320,192,57344,1,0,0:0:0:0:
64,192,57500,1,0,0:0:0:0:
192,192,57500,1,0,0:0:0:0:
320,192,57656,1,0,0:0:0:0:
448,192,57656,1,0,0:0:0:0:
192,192,57812,1,0,0:0:0:0:
64,192,57969,1,0,0:0:0:0:
448,192,57969,1,0,0:0:0:0:
64,192,58281,1,0,0:0:0:0:
320,192,58281,1,0,0:0:0:0:
192,192,58437,1,0,0:0:0:0:
320,192,58594,1,0,0:0:0:0:
448,192,58594,1,0,0:0:0:0:
64,192,58906,1,0,0:0:0:0:
448,192,59062,1,0,0:0:0:0:
192,192,59062,1,0,0:0:0:0:
64,192,59219,1,0,0:0:0:0:
320,192,59219,1,0,0:0:0:0:
64,192,59531,1,0,0:0:0:0:
320,192,59531,1,0,0:0:0:0:
192,192,59844,1,0,0:0:0:0:
448,192,60000,1,0,0:0:0:0:
320,192,60000,1,0,0:0:0:0:
192,192,60156,1,0,0:0:0:0:
64,192,60156,1,0,0:0:0:0:
192,192,60469,1,0,0:0:0:0:
320,192,60469,1,0,0:0:0:0:
448,192,60781,1,0,0:0:0:0:
320,192,60781,1,0,0:0:0:0:
192,192,60937,1,0,0:0:0:0:
64,192,60937,1,0,0:0:0:0:
448,192,61094,1,0,0:0:0:0:
320,192,61094,1,0,0:0:0:0:
64,192,61406,1,0,0:0:0:0:
448,192,61562,1,0,0:0:0:0:
192,192,61562,1,0,0:0:0:0:
320,192,61719,1,0,0:0:0:0:
64,192,61719,1,0,0:0:0:0:
192,192,62031,1,0,0:0:0:0:
64,192,62031,1,0,0:0:0:0:
448,192,62344,1,0,0:0:0:0:
320,192,62344,1,0,0:0:0:0:
64,192,62656,1,0,0:0:0:0:
448,192,62656,1,0,0:0:0:0:
192,192,62812,1,0,0:0:0:0:
64,192,62969,1,0,0:0:0:0:
320,192,62969,1,0,0:0:0:0:
64,192,63281,1,0,0:0:0:0:
192,192,63281,1,0,0:0:0:0:
448,192,63594,1,0,0:0:0:0:
448,192,63906,1,0,0:0:0:0:
192,192,64062,1,0,0:0:0:0:
320,192,64219,1,0,0:0:0:0:
320,192,64531,1,0,0:0:0:0:
64,192,64844,128,0,65000:0:0:0:0:
192,192,65000,128,0,65156:0:0:0:0:
448,192,65156,128,0,65312:0:0:0:0:
320,192,65312,128,0,65469:0:0:0:0:
192,192,65469,1,0,0:0:0:0:
64,192,65469,1,0,0:0:0:0:
192,192,65781,128,0,65937:0:0:0:0:
448,192,65937,128,0,66094:0:0:0:0:
64,192,66094,1,0,0:0:0:0:
320,192,66094,1,0,0:0:0:0:
448,192,66406,1,0,0:0:0:0:
320,192,66562,1,0,0:0:0:0:
64,192,66719,1,0,0:0:0:0:
192,192,66719,1,0,0:0:0:0:
64,192,67031,1,0,0:0:0:0:
448,192,67344,1,0,0:0:0:0:
320,192,67500,1,0,0:0:0:0:
192,192,67500,1,0,0:0:0:0:
64,192,67656,1,0,0:0:0:0:
448,192,67656,1,0,0:0:0:0:
192,192,67812,1,0,0:0:0:0:
320,192,67969,1,0,0:0:0:0:
448,192,67969,1,0,0:0:0:0:
320,192,68281,1,0,0:0:0:0:
192,192,68594,1,0,0:0:0:0:
64,192,68594,1,0,0:0:0:0:
192,192,68906,1,0,0:0:0:0:
64,192,68906,1,0,0:0:0:0:
448,192,69062,1,0,0:0:0:0:
192,192,69219,1,0,0:0:0:0:
320,192,69219,1,0,0:0:0:0:
320,192,69531,1,0,0:0:0:0:
64,192,69844,1,0,0:0:0:0:
448,192,70000,1,0,0:0:0:0:
320,192,70000,1,0,0:0:0:0:
192,192,70156,1,0,0:0:0:0:
64,192,70156,1,0,0:0:0:0:
320,192,70312,1,0,0:0:0:0:
448,192,70469,1,0,0:0:0:0:
64,192,70469,1,0,0:0:0:0:
192,192,70625,1,0,0:0:0:0:
448,192,70781,1,0,0:0:0:0:
320,192,70781,1,0,0:0:0:0:
64,192,71094,128,0,71250:0:0:0:0:
320,192,71406,1,0,0:0:0:0:
192,192,71562,1,0,0:0:0:0:
448,192,71719,1,0,0:0:0:0:
64,192,71719,1,0,0:0:0:0:
448,192,72031,1,0,0:0:0:0:
320,192,72344,1,0,0:0:0:0:
192,192,72500,1,0,0:0:0:0:
64,192,72500,1,0,0:0:0:0:
448,192,72656,1,0,0:0:0:0:
320,192,72656,1,0,0:0:0:0:
64,192,72812,1,0,0:0:0:0:
192,192,72969,1,0,0:0:0:0:
320,192,72969,1,0,0:0:0:0:
192,192,73281,1,0,0:0:0:0:
64,192,73594,1,0,0:0:0:0:
448,192,73594,1,0,0:0:0:0:
64,192,73906,1,0,0:0:0:0:
448,192,73906,1,0,0:0:0:0:
192,192,74062,1,0,0:0:0:0:
64,192,74219,1,0,0:0:0:0:
320,192,74219,1,0,0:0:0:0:
320,192,74531,1,0,0:0:0:0:
448,192,74844,1,0,0:0:0:0:
64,192,75000,1,0,0:0:0:0:
320,192,75000,1,0,0:0:0:0:
192,192,75156,1,0,0:0:0:0:
448,192,75156,1,0,0:0:0:0:
320,192,75312,1,0,0:0:0:0:
64,192,75469,1,0,0:0:0:0:
192,192,75469,1,0,0:0:0:0:
448,192,75625,1,0,0:0:0:0:
64,192,75781,1,0,0:0:0:0:
192,192,76094,1,0,0:0:0:0:
448,192,76094,1,0,0:0:0:0:
448,192,76406,1,0,0:0:0:0:
64,192,76562,1,0,0:0:0:0:
192,192,76719,1,0,0:0:0:0:
320,192,76719,1,0,0:0:0:0:
320,192,77031,1,0,0:0:0:0:
64,192,77344,1,0,0:0:0:0:
320,192,77500,1,0,0:0:0:0:
448,192,77500,1,0,0:0:0:0:
64,192,77656,1,0,0:0:0:0:
192,192,77656,1,0,0:0:0:0:
320,192,77812,1,0,0:0:0:0:
448,192,77969,1,0,0:0:0:0:
64,192,77969,1,0,0:0:0:0:
448,192,78281,1,0,0:0:0:0:
192,192,78594,1,0,0:0:0:0:
64,192,78594,1,0,0:0:0:0:
192,192,78906,1,0,0:0:0:0:
64,192,78906,1,0,0:0:0:0:
448,192,79062,1,0,0:0:0:0:
320,192,79219,1,0,0:0:0:0:
192,192,79219,1,0,0:0:0:0:
320,192,79531,1,0,0:0:0:0:
448,192,79844,1,0,0:0:0:0:
192,192,80000,1,0,0:0:0:0:
64,192,80000,1,0,0:0:0:0:
448,192,80156,1,0,0:0:0:0:
320,192,80156,1,0,0:0:0:0:
192,192,80312,1,0,0:0:0:0:
64,192,80469,1,0,0:0:0:0:
448,192,80469,1,0,0:0:0:0:
192,192,80625,1,0,0:0:0:0:
320,192,80781,1,0,0:0:0:0:
64,192,81094,128,0,81250:0:0:0:0:
448,192,81406,128,0,81562:0:0:0:0:
320,192,81562,1,0,0:0:0:0:
192,192,81719,1,0,0:0:0:0:
64,192,81719,1,0,0:0:0:0:
192,192,82031,1,0,0:0:0:0:
448,192,82344,1,0,0:0:0:0:
64,192,82500,1,0,0:0:0:0:
192,192,82500,1,0,0:0:0:0:
448,192,82656,1,0,0:0:0:0:
320,192,82656,1,0,0:0:0:0:
64,192,82812,1,0,0:0:0:0:
320,192,82969,1,0,0:0:0:0:
192,192,82969,1,0,0:0:0:0:
192,192,83281,1,0,0:0:0:0:
64,192,83594,128,0,83750:0:0:0:0:
448,192,83594,1,0,0:0:0:0:
192,192,83906,128,0,84062:0:0:0:0:
448,192,84062,1,0,0:0:0:0:
320,192,84219,128,0,84375:0:0:0:0:
64,192,84219,1,0,0:0:0:0:
192,192,84531,1,0,0:0:0:0:
448,192,84531,128,0,84687:0:0:0:0:
64,192,84844,128,0,85000:0:0:0:0:
320,192,85000,1,0,0:0:0:0:
192,192,85156,128,0,85312:0:0:0:0:
448,192,85156,1,0,0:0:0:0:
64,192,85469,1,0,0:0:0:0:
320,192,85469,128,0,85625:0:0:0:0:
192,192,85781,1,0,0:0:0:0:
448,192,85937,1,0,0:0:0:0:
64,192,86094,1,0,0:0:0:0:
320,192,86094,128,0,86250:0:0:0:0:
448,192,86406,1,0,0:0:0:0:
320,192,86562,1,0,0:0:0:0:
64,192,86719,1,0,0:0:0:0:
192,192,86719,128,0,86875:0:0:0:0:
320,192,87031,1,0,0:0:0:0:
192,192,87187,1,0,0:0:0:0:
448,192,87344,128,0,87500:0:0:0:0:
64,192,87344,1,0,0:0:0:0:
192,192,87656,1,0,0:0:0:0:
64,192,87812,1,0,0:0:0:0:
320,192,87969,128,0,88125:0:0:0:0:
448,192,87969,1,0,0:0:0:0:
192,192,88125,1,0,0:0:0:0:
320,192,88281,1,0,0:0:0:0:
448,192,88437,1,0,0:0:0:0:
64,192,88594,128,0,88750:0:0:0:0:
192,192,88594,1,0,0:0:0:0:
320,192,88906,1,0,0:0:0:0:
192,192,89062,1,0,0:0:0:0:
448,192,89219,128,0,89375:0:0:0:0:
64,192,89219,1,0,0:0:0:0:
320,192,89531,128,0,89687:0:0:0:0:
192,192,89844,128,0,90156:0:0:0:0:
64,192,89844,1,0,0:0:0:0:
320,192,90156,1,0,0:0:0:0:
448,192,90469,1,0,0:0:0:0:
64,192,90469,1,0,0:0:0:0:
64,192,90781,1,0,0:0:0:0:
448,192,90937,1,0,0:0:0:0:
320,192,91094,1,0,0:0:0:0:
192,192,91094,128,0,91250:0:0:0:0:
64,192,91406,1,0,0:0:0:0:
192,192,91562,1,0,0:0:0:0:
448,192,91719,1,0,0:0:0:0:
320,192,91719,128,0,91875:0:0:0:0:
192,192,92031,1,0,0:0:0:0:
320,192,92187,1,0,0:0:0:0:
448,192,92344,128,0,92500:0:0:0:0:
64,192,92344,1,0,0:0:0:0:
320,192,92656,1,0,0:0:0:0:
448,192,92812,1,0,0:0:0:0:
64,192,92969,1,0,0:0:0:0:
192,192,92969,1,0,0:0:0:0:
320,192,93125,1,0,0:0:0:0:
64,192,93281,1,0,0:0:0:0:
192,192,93437,1,0,0:0:0:0:
320,192,93594,128,0,93750:0:0:0:0:
448,192,93594,1,0,0:0:0:0:
64,192,93906,1,0,0:0:0:0:
192,192,94062,1,0,0:0:0:0:
320,192,94219,128,0,94375:0:0:0:0:
448,192,94219,1,0,0:0:0:0:
192,192,94531,128,0,94687:0:0:0:0:
448,192,94844,1,0,0:0:0:0:
448,192,95156,128,0,95312:0:0:0:0:
320,192,95156,1,0,0:0:0:0:
320,192,95469,128,0,95625:0:0:0:0:
192,192,95469,1,0,0:0:0:0:
64,192,95781,1,0,0:0:0:0:
192,192,95781,128,0,95937:0:0:0:0:
448,192,96094,128,0,96250:0:0:0:0:
64,192,96094,1,0,0:0:0:0:
448,192,96406,1,0,0:0:0:0:
320,192,96562,1,0,0:0:0:0:
64,192,96719,128,0,96875:0:0:0:0:
192,192,96719,1,0,0:0:0:0:
320,192,97031,1,0,0:0:0:0:
192,192,97187,1,0,0:0:0:0:
448,192,97344,1,0,0:0:0:0:
64,192,97344,128,0,97500:0:0:0:0:
192,192,97656,1,0,0:0:0:0:
64,192,97812,1,0,0:0:0:0:
448,192,97969,1,0,0:0:0:0:
320,192,97969,128,0,98125:0:0:0:0:
192,192,98125,1,0,0:0:0:0:
320,192,98281,1,0,0:0:0:0:
64,192,98437,1,0,0:0:0:0:
192,192,98594,128,0,98750:0:0:0:0:
448,192,98594,1,0,0:0:0:0:
64,192,98906,1,0,0:0:0:0:
320,192,99062,1,0,0:0:0:0:
192,192,99219,1,0,0:0:0:0:
448,192,99219,128,0,99375:0:0:0:0:
320,192,99531,128,0,99687:0:0:0:0:
64,192,99844,1,0,0:0:0:0:
192,192,99844,128,0,100156:0:0:0:0:
320,192,100156,1,0,0:0:0:0:
448,192,100469,1,0,0:0:0:0:
64,192,100469,1,0,0:0:0:0:
64,192,100781,1,0,0:0:0:0:
448,192,100937,1,0,0:0:0:0:
192,192,101094,128,0,101250:0:0:0:0:
320,192,101094,1,0,0:0:0:0:
64,192,101406,1,0,0:0:0:0:
192,192,101562,1,0,0:0:0:0:
320,192,101719,128,0,101875:0:0:0:0:
448,192,101719,1,0,0:0:0:0:
192,192,102031,1,0,0:0:0:0:
320,192,102187,1,0,0:0:0:0:
448,192,102344,1,0,0:0:0:0:
64,192,102344,128,0,102500:0:0:0:0:
320,192,102656,1,0,0:0:0:0:
448,192,102812,1,0,0:0:0:0:
192,192,102969,1,0,0:0:0:0:
64,192,102969,1,0,0:0:0:0:
320,192,103125,1,0,0:0:0:0:
192,192,103281,1,0,0:0:0:0:
448,192,103437,1,0,0:0:0:0:
64,192,103594,128,0,103750:0:0:0:0:
320,192,103594,1,0,0:0:0:0:
192,192,103906,128,0,104062:0:0:0:0:
448,192,104062,1,0,0:0:0:0:
320,192,104219,128,0,104375:0:0:0:0:
64,192,104219,1,0,0:0:0:0:
192,192,104531,1,0,0:0:0:0:
448,192,104531,128,0,104687:0:0:0:0:
64,192,104844,128,0,105000:0:0:0:0:
320,192,105000,1,0,0:0:0:0:
192,192,105156,128,0,105312:0:0:0:0:
448,192,105156,1,0,0:0:0:0:
320,192,105469,128,0,105781:0:0:0:0:
64,192,106074,1,0,0:0:0:0:
192,192,106191,1,0,0:0:0:0:
320,192,106308,1,0,0:0:0:0:
