osu file format v14

[General]
AudioFilename: audio.mp3
AudioLeadIn: 0
PreviewTime: 35781
Countdown: 0
SampleSet: Soft
StackLeniency: 0.7
Mode: 3
LetterboxInBreaks: 0
SpecialStyle: 0
WidescreenStoryboard: 0

[Editor]
DistanceSpacing: 0.6
BeatDivisor: 4
GridSize: 8
TimelineZoom: 3.099999

[Metadata]
Title:Yang Guang Cai Hong Xiao Bai Ma (Cut Ver.)
TitleUnicode:阳光彩虹小白马 (Cut Ver.)
Artist:Wowkie Zhang
ArtistUnicode:大张伟
Creator:Carpihat
Version:Dramatic
Source:
Tags:大張偉 陽光彩虹小白馬 da zhang wei Chinese male vocal pop Cpop c-pop rainbow sunshine white pony 人間精品 人间精品 botique in the world 太合音樂 太合音乐 taihe music lovely_hyahya hyahya sanae [GB]Sanae Flade
BeatmapID:4474834
BeatmapSetID:2128378

[Difficulty]
HPDrainRate:8
CircleSize:4
OverallDifficulty:8
ApproachRate:5
SliderMultiplier:1.4
SliderTickRate:1

[Events]
//Background and Video events
0,0,"T3qX9Nm.jpg",0,0
//Break Periods
//Storyboard Layer 0 (Background)
//Storyboard Layer 1 (Fail)
//Storyboard Layer 2 (Pass)
//Storyboard Layer 3 (Foreground)
//Storyboard Layer 4 (Overlay)
//Storyboard Sound Samples

[TimingPoints]
16094,312.5,4,2,1,40,1,0
36094,-100,4,2,1,40,0,1
56094,-100,4,2,1,40,0,0
86094,-100,4,2,1,40,0,1
94844,-100,4,2,1,40,0,0
96094,-100,4,2,1,40,0,1
103594,-100,4,2,1,40,0,0

[HitObjects]
320,192,13594,5,0,0:0:0:0:
192,192,13906,1,0,0:0:0:0:
320,192,14062,1,0,0:0:0:0:
320,192,14219,1,0,0:0:0:0:
448,192,14531,1,0,0:0:0:0:
64,192,14687,1,0,0:0:0:0:
192,192,14765,1,0,0:0:0:0:
320,192,14844,1,0,0:0:0:0:
192,192,15000,1,0,0:0:0:0:
448,192,15156,128,0,15469:0:0:0:0:
192,192,15312,1,0,0:0:0:0:
320,192,15469,128,0,15781:0:0:0:0:
64,192,15469,1,0,0:0:0:0:
192,192,15781,128,0,16094:0:0:0:0:
64,192,16094,128,0,16406:0:0:0:0:
320,192,16094,128,0,16250:0:0:0:0:
448,192,16406,128,0,17344:0:0:0:0:
192,192,16719,1,0,0:0:0:0:
320,192,16719,1,0,0:0:0:0:
192,192,16875,1,0,0:0:0:0:
64,192,17031,1,0,0:0:0:0:
320,192,17031,128,0,17187:0:0:0:0:
64,192,17187,1,0,0:0:0:0:
320,192,17656,128,0,17969:0:0:0:0:
64,192,17656,128,0,17812:0:0:0:0:
192,192,17969,128,0,18281:0:0:0:0:
448,192,17969,1,0,0:0:0:0:
448,192,18125,1,0,0:0:0:0:
64,192,18281,128,0,18594:0:0:0:0:
448,192,18359,1,0,0:0:0:0:
320,192,18437,1,0,0:0:0:0:
192,192,18515,1,0,0:0:0:0:
320,192,18594,128,0,18906:0:0:0:0:
448,192,18594,128,0,18750:0:0:0:0:
448,192,18906,128,0,19844:0:0:0:0:
192,192,19062,128,0,19219:0:0:0:0:
64,192,19219,1,0,0:0:0:0:
320,192,19219,1,0,0:0:0:0:
64,192,19375,1,0,0:0:0:0:
192,192,19531,1,0,0:0:0:0:
320,192,19531,128,0,19844:0:0:0:0:
192,192,19687,1,0,0:0:0:0:
448,192,20156,128,0,20469:0:0:0:0:
64,192,20156,1,0,0:0:0:0:
64,192,20312,1,0,0:0:0:0:
320,192,20469,128,0,20781:0:0:0:0:
192,192,20469,1,0,0:0:0:0:
192,192,20625,1,0,0:0:0:0:
448,192,20781,128,0,21094:0:0:0:0:
320,192,20859,1,0,0:0:0:0:
192,192,20937,1,0,0:0:0:0:
64,192,21015,1,0,0:0:0:0:
320,192,21094,128,0,21406:0:0:0:0:
192,192,21094,128,0,21250:0:0:0:0:
192,192,21406,128,0,22344:0:0:0:0:
448,192,21426,1,0,0:0:0:0:
320,192,21719,1,0,0:0:0:0:
448,192,21738,1,0,0:0:0:0:
320,192,21875,1,0,0:0:0:0:
64,192,22031,1,0,0:0:0:0:
448,192,22051,1,0,0:0:0:0:
64,192,22187,1,0,0:0:0:0:
320,192,22344,1,0,0:0:0:0:
448,192,22363,1,0,0:0:0:0:
64,192,22500,1,0,0:0:0:0:
192,192,22656,128,0,22969:0:0:0:0:
448,192,22656,1,0,0:0:0:0:
448,192,22812,1,0,0:0:0:0:
320,192,22969,128,0,23281:0:0:0:0:
64,192,22969,1,0,0:0:0:0:
64,192,23281,128,0,23594:0:0:0:0:
448,192,23359,1,0,0:0:0:0:
320,192,23437,1,0,0:0:0:0:
192,192,23515,1,0,0:0:0:0:
448,192,23594,128,0,23906:0:0:0:0:
320,192,23594,128,0,23750:0:0:0:0:
192,192,23906,128,0,24844:0:0:0:0:
64,192,24062,128,0,24219:0:0:0:0:
320,192,24219,1,0,0:0:0:0:
448,192,24219,1,0,0:0:0:0:
448,192,24375,1,0,0:0:0:0:
64,192,24531,1,0,0:0:0:0:
320,192,24531,128,0,24687:0:0:0:0:
64,192,25156,128,0,25469:0:0:0:0:
448,192,25156,1,0,0:0:0:0:
448,192,25312,1,0,0:0:0:0:
320,192,25469,128,0,25781:0:0:0:0:
192,192,25469,1,0,0:0:0:0:
448,192,25781,128,0,26094:0:0:0:0:
64,192,25859,1,0,0:0:0:0:
192,192,25937,1,0,0:0:0:0:
320,192,26015,1,0,0:0:0:0:
192,192,26094,128,0,26406:0:0:0:0:
64,192,26094,128,0,26250:0:0:0:0:
64,192,26406,128,0,27344:0:0:0:0:
320,192,26719,1,0,0:0:0:0:
448,192,26719,1,0,0:0:0:0:
320,192,26875,1,0,0:0:0:0:
448,192,27031,1,0,0:0:0:0:
192,192,27031,128,0,27187:0:0:0:0:
448,192,27187,1,0,0:0:0:0:
448,192,27656,128,0,27969:0:0:0:0:
64,192,27656,1,0,0:0:0:0:
64,192,27812,1,0,0:0:0:0:
320,192,27969,128,0,28281:0:0:0:0:
192,192,27969,1,0,0:0:0:0:
192,192,28125,1,0,0:0:0:0:
64,192,28281,128,0,28594:0:0:0:0:
192,192,28359,1,0,0:0:0:0:
320,192,28437,1,0,0:0:0:0:
448,192,28515,1,0,0:0:0:0:
192,192,28594,128,0,28906:0:0:0:0:
320,192,28594,128,0,28750:0:0:0:0:
320,192,28906,128,0,29844:0:0:0:0:
64,192,29062,128,0,29219:0:0:0:0:
192,192,29219,1,0,0:0:0:0:
448,192,29219,1,0,0:0:0:0:
192,192,29375,1,0,0:0:0:0:
64,192,29531,1,0,0:0:0:0:
448,192,29531,128,0,29844:0:0:0:0:
64,192,29687,1,0,0:0:0:0:
64,192,30156,128,0,30469:0:0:0:0:
448,192,30156,1,0,0:0:0:0:
448,192,30312,1,0,0:0:0:0:
192,192,30469,128,0,30781:0:0:0:0:
320,192,30469,1,0,0:0:0:0:
320,192,30625,1,0,0:0:0:0:
64,192,30781,128,0,31094:0:0:0:0:
192,192,30859,1,0,0:0:0:0:
320,192,30937,1,0,0:0:0:0:
448,192,31015,1,0,0:0:0:0:
192,192,31094,128,0,31406:0:0:0:0:
320,192,31094,128,0,31406:0:0:0:0:
448,192,31406,128,0,32344:0:0:0:0:
64,192,31426,1,0,0:0:0:0:
192,192,31719,1,0,0:0:0:0:
64,192,31738,1,0,0:0:0:0:
192,192,31875,1,0,0:0:0:0:
320,192,32031,1,0,0:0:0:0:
64,192,32051,1,0,0:0:0:0:
320,192,32187,1,0,0:0:0:0:
192,192,32344,1,0,0:0:0:0:
64,192,32363,1,0,0:0:0:0:
320,192,32500,1,0,0:0:0:0:
192,192,32656,128,0,32969:0:0:0:0:
448,192,32656,1,0,0:0:0:0:
448,192,32812,1,0,0:0:0:0:
320,192,32969,128,0,33281:0:0:0:0:
64,192,32969,1,0,0:0:0:0:
64,192,33281,128,0,33594:0:0:0:0:
448,192,33359,1,0,0:0:0:0:
320,192,33437,1,0,0:0:0:0:
192,192,33515,1,0,0:0:0:0:
448,192,33594,128,0,33906:0:0:0:0:
320,192,33594,128,0,33750:0:0:0:0:
192,192,33906,128,0,34844:0:0:0:0:
64,192,34062,128,0,34219:0:0:0:0:
320,192,34219,1,0,0:0:0:0:
448,192,34219,1,0,0:0:0:0:
448,192,34375,1,0,0:0:0:0:
64,192,34531,1,0,0:0:0:0:
320,192,34531,128,0,34687:0:0:0:0:
448,192,34844,1,0,0:0:0:0:
64,192,35000,1,0,0:0:0:0:
192,192,35078,1,0,0:0:0:0:
448,192,35156,1,0,0:0:0:0:
320,192,35156,1,0,0:0:0:0:
448,192,35312,1,0,0:0:0:0:
64,192,35312,1,0,0:0:0:0:
192,192,35469,1,0,0:0:0:0:
64,192,35469,1,0,0:0:0:0:
320,192,35469,1,0,0:0:0:0:
64,192,35781,128,0,35937:0:0:0:0:
320,192,35781,128,0,35937:0:0:0:0:
192,192,35937,128,0,36094:0:0:0:0:
64,192,36094,128,0,36406:0:0:0:0:
320,192,36094,128,0,36250:0:0:0:0:
448,192,36094,128,0,36250:0:0:0:0:
320,192,36406,128,0,36562:0:0:0:0:
448,192,36406,128,0,36562:0:0:0:0:
64,192,36562,128,0,36719:0:0:0:0:
320,192,36719,128,0,36875:0:0:0:0:
448,192,36719,128,0,36875:0:0:0:0:
192,192,36719,1,0,0:0:0:0:
320,192,37031,128,0,37187:0:0:0:0:
448,192,37031,128,0,37187:0:0:0:0:
64,192,37031,128,0,37344:0:0:0:0:
448,192,37344,128,0,37500:0:0:0:0:
192,192,37344,128,0,37422:0:0:0:0:
64,192,37500,128,0,37578:0:0:0:0:
192,192,37500,128,0,37578:0:0:0:0:
320,192,37656,128,0,37734:0:0:0:0:
64,192,37656,128,0,37812:0:0:0:0:
192,192,37656,1,0,0:0:0:0:
320,192,37812,128,0,37890:0:0:0:0:
448,192,37812,128,0,37890:0:0:0:0:
64,192,37969,128,0,38125:0:0:0:0:
320,192,37969,128,0,38125:0:0:0:0:
448,192,37969,1,0,0:0:0:0:
192,192,38281,128,0,38437:0:0:0:0:
448,192,38281,128,0,38437:0:0:0:0:
320,192,38359,1,0,0:0:0:0:
64,192,38437,1,0,0:0:0:0:
320,192,38515,1,0,0:0:0:0:
64,192,38594,128,0,38750:0:0:0:0:
192,192,38594,128,0,38750:0:0:0:0:
448,192,38594,128,0,38906:0:0:0:0:
64,192,38906,128,0,39062:0:0:0:0:
192,192,38906,128,0,39062:0:0:0:0:
448,192,39062,128,0,39219:0:0:0:0:
320,192,39219,1,0,0:0:0:0:
64,192,39219,128,0,39375:0:0:0:0:
192,192,39219,128,0,39375:0:0:0:0:
448,192,39531,128,0,39844:0:0:0:0:
64,192,39531,128,0,39687:0:0:0:0:
192,192,39531,128,0,39687:0:0:0:0:
320,192,39844,128,0,39922:0:0:0:0:
64,192,39844,128,0,40000:0:0:0:0:
320,192,40000,128,0,40078:0:0:0:0:
448,192,40000,128,0,40078:0:0:0:0:
320,192,40156,1,0,0:0:0:0:
448,192,40156,128,0,40312:0:0:0:0:
192,192,40156,128,0,40234:0:0:0:0:
64,192,40312,128,0,40390:0:0:0:0:
192,192,40312,128,0,40390:0:0:0:0:
64,192,40469,1,0,0:0:0:0:
192,192,40469,128,0,40625:0:0:0:0:
448,192,40469,128,0,40625:0:0:0:0:
64,192,40781,128,0,40937:0:0:0:0:
320,192,40781,128,0,40937:0:0:0:0:
448,192,41094,128,0,41406:0:0:0:0:
192,192,41094,128,0,41250:0:0:0:0:
320,192,41406,128,0,41719:0:0:0:0:
64,192,41406,128,0,41562:0:0:0:0:
192,192,41562,1,0,0:0:0:0:
192,192,41719,128,0,42031:0:0:0:0:
448,192,41719,1,0,0:0:0:0:
448,192,41875,1,0,0:0:0:0:
64,192,42031,128,0,42344:0:0:0:0:
320,192,42031,1,0,0:0:0:0:
320,192,42187,1,0,0:0:0:0:
192,192,42344,128,0,42656:0:0:0:0:
448,192,42344,128,0,42500:0:0:0:0:
320,192,42500,1,0,0:0:0:0:
320,192,42656,128,0,42969:0:0:0:0:
64,192,42656,1,0,0:0:0:0:
64,192,42812,1,0,0:0:0:0:
448,192,42969,128,0,43437:0:0:0:0:
192,192,42969,1,0,0:0:0:0:
192,192,43125,1,0,0:0:0:0:
64,192,43281,1,0,0:0:0:0:
192,192,43359,1,0,0:0:0:0:
320,192,43437,1,0,0:0:0:0:
192,192,43515,1,0,0:0:0:0:
64,192,43594,128,0,43750:0:0:0:0:
448,192,43594,128,0,43750:0:0:0:0:
320,192,43594,1,0,0:0:0:0:
64,192,43906,128,0,44062:0:0:0:0:
448,192,43906,128,0,44062:0:0:0:0:
320,192,44062,128,0,44219:0:0:0:0:
64,192,44219,128,0,44375:0:0:0:0:
192,192,44219,1,0,0:0:0:0:
448,192,44219,128,0,44375:0:0:0:0:
320,192,44375,1,0,0:0:0:0:
320,192,44531,128,0,44687:0:0:0:0:
64,192,44531,128,0,44687:0:0:0:0:
448,192,44531,1,0,0:0:0:0:
192,192,44687,1,0,0:0:0:0:
192,192,44844,128,0,45156:0:0:0:0:
64,192,44844,128,0,45469:0:0:0:0:
320,192,45000,1,0,0:0:0:0:
448,192,45156,1,0,0:0:0:0:
320,192,45156,1,0,0:0:0:0:
192,192,45312,1,0,0:0:0:0:
448,192,45469,1,0,0:0:0:0:
320,192,45469,1,0,0:0:0:0:
192,192,45469,1,0,0:0:0:0:
64,192,45625,1,0,0:0:0:0:
64,192,45781,128,0,45937:0:0:0:0:
320,192,45781,128,0,45937:0:0:0:0:
192,192,45937,128,0,46094:0:0:0:0:
64,192,46094,128,0,46406:0:0:0:0:
320,192,46094,128,0,46250:0:0:0:0:
448,192,46094,128,0,46250:0:0:0:0:
320,192,46406,128,0,46562:0:0:0:0:
448,192,46406,128,0,46562:0:0:0:0:
64,192,46562,128,0,46719:0:0:0:0:
320,192,46719,128,0,46875:0:0:0:0:
448,192,46719,128,0,46875:0:0:0:0:
192,192,46719,1,0,0:0:0:0:
320,192,47031,128,0,47187:0:0:0:0:
448,192,47031,128,0,47187:0:0:0:0:
64,192,47031,128,0,47344:0:0:0:0:
448,192,47344,128,0,47500:0:0:0:0:
192,192,47344,128,0,47422:0:0:0:0:
64,192,47500,128,0,47578:0:0:0:0:
192,192,47500,128,0,47578:0:0:0:0:
320,192,47656,128,0,47734:0:0:0:0:
64,192,47656,128,0,47812:0:0:0:0:
192,192,47656,1,0,0:0:0:0:
320,192,47812,128,0,47890:0:0:0:0:
448,192,47812,128,0,47890:0:0:0:0:
64,192,47969,128,0,48125:0:0:0:0:
320,192,47969,128,0,48125:0:0:0:0:
448,192,47969,1,0,0:0:0:0:
192,192,48281,128,0,48437:0:0:0:0:
448,192,48281,128,0,48437:0:0:0:0:
320,192,48359,1,0,0:0:0:0:
64,192,48437,1,0,0:0:0:0:
320,192,48515,1,0,0:0:0:0:
64,192,48594,128,0,48750:0:0:0:0:
192,192,48594,128,0,48750:0:0:0:0:
448,192,48594,128,0,48906:0:0:0:0:
64,192,48906,128,0,49062:0:0:0:0:
192,192,48906,128,0,49062:0:0:0:0:
448,192,49062,128,0,49219:0:0:0:0:
320,192,49219,1,0,0:0:0:0:
64,192,49219,128,0,49375:0:0:0:0:
192,192,49219,128,0,49375:0:0:0:0:
448,192,49531,128,0,49844:0:0:0:0:
64,192,49531,128,0,49687:0:0:0:0:
192,192,49531,128,0,49687:0:0:0:0:
320,192,49844,128,0,49922:0:0:0:0:
64,192,49844,128,0,50000:0:0:0:0:
320,192,50000,128,0,50078:0:0:0:0:
448,192,50000,128,0,50078:0:0:0:0:
320,192,50156,1,0,0:0:0:0:
448,192,50156,128,0,50312:0:0:0:0:
192,192,50156,128,0,50234:0:0:0:0:
64,192,50312,128,0,50390:0:0:0:0:
192,192,50312,128,0,50390:0:0:0:0:
64,192,50469,1,0,0:0:0:0:
192,192,50469,128,0,50625:0:0:0:0:
448,192,50469,128,0,50625:0:0:0:0:
64,192,50781,128,0,50937:0:0:0:0:
320,192,50781,128,0,50937:0:0:0:0:
448,192,51094,128,0,51406:0:0:0:0:
192,192,51094,128,0,51250:0:0:0:0:
320,192,51406,128,0,51719:0:0:0:0:
64,192,51406,128,0,51562:0:0:0:0:
192,192,51562,1,0,0:0:0:0:
192,192,51719,128,0,52031:0:0:0:0:
448,192,51719,1,0,0:0:0:0:
448,192,51875,1,0,0:0:0:0:
64,192,52031,128,0,52344:0:0:0:0:
320,192,52031,1,0,0:0:0:0:
320,192,52187,1,0,0:0:0:0:
192,192,52344,128,0,52656:0:0:0:0:
448,192,52344,128,0,52500:0:0:0:0:
320,192,52500,1,0,0:0:0:0:
320,192,52656,128,0,52969:0:0:0:0:
64,192,52656,1,0,0:0:0:0:
64,192,52812,1,0,0:0:0:0:
448,192,52969,128,0,53437:0:0:0:0:
192,192,52969,1,0,0:0:0:0:
192,192,53125,1,0,0:0:0:0:
64,192,53281,1,0,0:0:0:0:
192,192,53359,1,0,0:0:0:0:
320,192,53437,1,0,0:0:0:0:
192,192,53515,1,0,0:0:0:0:
64,192,53594,128,0,53750:0:0:0:0:
448,192,53594,128,0,53750:0:0:0:0:
320,192,53594,1,0,0:0:0:0:
64,192,53906,128,0,54062:0:0:0:0:
448,192,53906,128,0,54062:0:0:0:0:
320,192,54062,128,0,54219:0:0:0:0:
64,192,54219,128,0,54375:0:0:0:0:
192,192,54219,1,0,0:0:0:0:
448,192,54219,128,0,54375:0:0:0:0:
320,192,54375,1,0,0:0:0:0:
320,192,54531,128,0,54687:0:0:0:0:
64,192,54531,128,0,54687:0:0:0:0:
448,192,54531,1,0,0:0:0:0:
192,192,54687,1,0,0:0:0:0:
192,192,54844,128,0,55156:0:0:0:0:
64,192,54844,128,0,55469:0:0:0:0:
320,192,55000,1,0,0:0:0:0:
448,192,55156,1,0,0:0:0:0:
320,192,55156,1,0,0:0:0:0:
192,192,55312,1,0,0:0:0:0:
320,192,55469,1,0,0:0:0:0:
192,192,55469,1,0,0:0:0:0:
448,192,55469,128,0,55781:0:0:0:0:
64,192,55781,128,0,56094:0:0:0:0:
320,192,56094,1,0,0:0:0:0:
192,192,56094,1,0,0:0:0:0:
448,192,56094,128,0,56250:0:0:0:0:
448,192,56406,128,0,56562:0:0:0:0:
64,192,56562,1,0,0:0:0:0:
320,192,56562,128,0,56719:0:0:0:0:
64,192,56719,1,0,0:0:0:0:
448,192,56719,128,0,56875:0:0:0:0:
64,192,57031,1,0,0:0:0:0:
320,192,57031,128,0,57187:0:0:0:0:
64,192,57187,1,0,0:0:0:0:
448,192,57344,128,0,57500:0:0:0:0:
64,192,57500,1,0,0:0:0:0:
320,192,57500,1,0,0:0:0:0:
448,192,57656,128,0,57812:0:0:0:0:
64,192,57656,1,0,0:0:0:0:
320,192,57812,128,0,57969:0:0:0:0:
448,192,57969,128,0,58125:0:0:0:0:
64,192,57969,1,0,0:0:0:0:
320,192,58281,128,0,58437:0:0:0:0:
64,192,58281,1,0,0:0:0:0:
192,192,58437,1,0,0:0:0:0:
320,192,58515,1,0,0:0:0:0:
192,192,58594,1,0,0:0:0:0:
64,192,58594,1,0,0:0:0:0:
448,192,58594,128,0,58750:0:0:0:0:
448,192,58906,128,0,59062:0:0:0:0:
320,192,59062,128,0,59219:0:0:0:0:
64,192,59062,1,0,0:0:0:0:
448,192,59219,128,0,59375:0:0:0:0:
64,192,59219,1,0,0:0:0:0:
448,192,59531,128,0,59687:0:0:0:0:
64,192,59531,1,0,0:0:0:0:
320,192,59844,128,0,60781:0:0:0:0:
192,192,60000,1,0,0:0:0:0:
64,192,60000,1,0,0:0:0:0:
64,192,60156,1,0,0:0:0:0:
192,192,60156,1,0,0:0:0:0:
448,192,60312,1,0,0:0:0:0:
192,192,60469,1,0,0:0:0:0:
64,192,60469,1,0,0:0:0:0:
192,192,60781,1,0,0:0:0:0:
448,192,60781,1,0,0:0:0:0:
192,192,60937,1,0,0:0:0:0:
448,192,60937,1,0,0:0:0:0:
64,192,61094,128,0,61250:0:0:0:0:
320,192,61094,1,0,0:0:0:0:
448,192,61094,1,0,0:0:0:0:
64,192,61406,128,0,61562:0:0:0:0:
192,192,61562,128,0,61719:0:0:0:0:
448,192,61562,1,0,0:0:0:0:
64,192,61719,128,0,61875:0:0:0:0:
320,192,61719,1,0,0:0:0:0:
448,192,61719,1,0,0:0:0:0:
192,192,62031,128,0,62187:0:0:0:0:
448,192,62031,1,0,0:0:0:0:
320,192,62187,1,0,0:0:0:0:
64,192,62344,128,0,62500:0:0:0:0:
448,192,62344,1,0,0:0:0:0:
320,192,62344,1,0,0:0:0:0:
64,192,62656,128,0,62812:0:0:0:0:
448,192,62656,1,0,0:0:0:0:
320,192,62656,1,0,0:0:0:0:
192,192,62812,128,0,62969:0:0:0:0:
64,192,62969,128,0,63125:0:0:0:0:
320,192,62969,1,0,0:0:0:0:
448,192,62969,1,0,0:0:0:0:
192,192,63281,128,0,63437:0:0:0:0:
320,192,63281,1,0,0:0:0:0:
448,192,63281,1,0,0:0:0:0:
64,192,63594,128,0,63750:0:0:0:0:
448,192,63594,1,0,0:0:0:0:
64,192,63906,128,0,64062:0:0:0:0:
192,192,64062,128,0,64219:0:0:0:0:
320,192,64062,1,0,0:0:0:0:
64,192,64219,128,0,64375:0:0:0:0:
64,192,64531,128,0,64687:0:0:0:0:
192,192,64531,1,0,0:0:0:0:
192,192,64844,128,0,65469:0:0:0:0:
64,192,64870,1,0,0:0:0:0:
320,192,65000,1,0,0:0:0:0:
64,192,65026,1,0,0:0:0:0:
448,192,65156,1,0,0:0:0:0:
64,192,65182,1,0,0:0:0:0:
448,192,65312,1,0,0:0:0:0:
320,192,65338,1,0,0:0:0:0:
320,192,65469,1,0,0:0:0:0:
448,192,65469,1,0,0:0:0:0:
64,192,65469,1,0,0:0:0:0:
192,192,65781,128,0,65937:0:0:0:0:
320,192,65937,128,0,66094:0:0:0:0:
448,192,66094,128,0,66250:0:0:0:0:
64,192,66094,128,0,66250:0:0:0:0:
192,192,66094,1,0,0:0:0:0:
448,192,66406,128,0,66562:0:0:0:0:
64,192,66406,128,0,66562:0:0:0:0:
320,192,66562,128,0,66640:0:0:0:0:
448,192,66719,128,0,66875:0:0:0:0:
64,192,66719,128,0,66875:0:0:0:0:
192,192,66719,1,0,0:0:0:0:
448,192,67031,128,0,67187:0:0:0:0:
64,192,67031,128,0,67187:0:0:0:0:
320,192,67187,1,0,0:0:0:0:
448,192,67344,128,0,67500:0:0:0:0:
64,192,67344,128,0,67500:0:0:0:0:
192,192,67500,128,0,67578:0:0:0:0:
320,192,67500,1,0,0:0:0:0:
448,192,67656,128,0,67812:0:0:0:0:
192,192,67656,128,0,67812:0:0:0:0:
64,192,67656,1,0,0:0:0:0:
320,192,67812,128,0,67890:0:0:0:0:
448,192,67969,128,0,68125:0:0:0:0:
64,192,67969,128,0,68125:0:0:0:0:
192,192,67969,1,0,0:0:0:0:
448,192,68281,128,0,68437:0:0:0:0:
64,192,68281,128,0,68437:0:0:0:0:
320,192,68359,1,0,0:0:0:0:
192,192,68437,1,0,0:0:0:0:
320,192,68515,1,0,0:0:0:0:
64,192,68594,128,0,68750:0:0:0:0:
448,192,68594,128,0,68750:0:0:0:0:
192,192,68594,1,0,0:0:0:0:
64,192,68906,128,0,69062:0:0:0:0:
448,192,68906,128,0,69062:0:0:0:0:
192,192,68906,1,0,0:0:0:0:
320,192,69062,128,0,69140:0:0:0:0:
64,192,69219,128,0,69375:0:0:0:0:
448,192,69219,128,0,69375:0:0:0:0:
192,192,69219,1,0,0:0:0:0:
448,192,69531,128,0,69687:0:0:0:0:
64,192,69531,128,0,69687:0:0:0:0:
192,192,69687,1,0,0:0:0:0:
64,192,69844,128,0,70000:0:0:0:0:
448,192,69844,128,0,70000:0:0:0:0:
320,192,70000,128,0,70078:0:0:0:0:
192,192,70000,1,0,0:0:0:0:
192,192,70156,128,0,70312:0:0:0:0:
448,192,70156,128,0,70312:0:0:0:0:
64,192,70156,1,0,0:0:0:0:
64,192,70312,128,0,70390:0:0:0:0:
320,192,70469,128,0,70625:0:0:0:0:
448,192,70469,128,0,70625:0:0:0:0:
192,192,70469,1,0,0:0:0:0:
192,192,70625,128,0,70703:0:0:0:0:
64,192,70781,128,0,70937:0:0:0:0:
320,192,70781,128,0,70937:0:0:0:0:
448,192,70859,1,0,0:0:0:0:
192,192,70937,1,0,0:0:0:0:
64,192,71015,1,0,0:0:0:0:
448,192,71094,1,0,0:0:0:0:
320,192,71133,1,0,0:0:0:0:
192,192,71172,1,0,0:0:0:0:
64,192,71211,1,0,0:0:0:0:
448,192,71250,1,0,0:0:0:0:
64,192,71406,128,0,71562:0:0:0:0:
192,192,71406,128,0,71562:0:0:0:0:
320,192,71562,128,0,71640:0:0:0:0:
64,192,71719,128,0,71875:0:0:0:0:
448,192,71719,128,0,71875:0:0:0:0:
320,192,71719,1,0,0:0:0:0:
192,192,71797,1,0,0:0:0:0:
320,192,71875,1,0,0:0:0:0:
192,192,71953,1,0,0:0:0:0:
448,192,72031,128,0,72187:0:0:0:0:
320,192,72031,128,0,72187:0:0:0:0:
64,192,72187,1,0,0:0:0:0:
320,192,72344,128,0,72500:0:0:0:0:
448,192,72344,128,0,72500:0:0:0:0:
192,192,72500,128,0,72578:0:0:0:0:
64,192,72500,1,0,0:0:0:0:
192,192,72656,128,0,72812:0:0:0:0:
448,192,72656,128,0,72812:0:0:0:0:
320,192,72656,1,0,0:0:0:0:
64,192,72812,128,0,72890:0:0:0:0:
64,192,72969,1,0,0:0:0:0:
320,192,72969,128,0,73125:0:0:0:0:
448,192,72969,128,0,73125:0:0:0:0:
320,192,73281,128,0,73437:0:0:0:0:
448,192,73281,128,0,73437:0:0:0:0:
320,192,73594,128,0,73750:0:0:0:0:
448,192,73594,128,0,73750:0:0:0:0:
64,192,73594,1,0,0:0:0:0:
320,192,73906,128,0,74062:0:0:0:0:
448,192,73906,128,0,74062:0:0:0:0:
64,192,73906,1,0,0:0:0:0:
192,192,74062,128,0,74140:0:0:0:0:
320,192,74219,128,0,74375:0:0:0:0:
448,192,74219,128,0,74375:0:0:0:0:
64,192,74219,1,0,0:0:0:0:
192,192,74375,1,0,0:0:0:0:
64,192,74453,1,0,0:0:0:0:
320,192,74531,128,0,74687:0:0:0:0:
448,192,74531,128,0,74687:0:0:0:0:
64,192,74687,1,0,0:0:0:0:
320,192,74844,128,0,75000:0:0:0:0:
448,192,74844,128,0,75000:0:0:0:0:
192,192,74922,1,0,0:0:0:0:
64,192,75000,128,0,75078:0:0:0:0:
320,192,75156,128,0,75312:0:0:0:0:
448,192,75156,128,0,75312:0:0:0:0:
64,192,75312,128,0,75390:0:0:0:0:
64,192,75469,128,0,75625:0:0:0:0:
320,192,75469,128,0,75625:0:0:0:0:
192,192,75469,1,0,0:0:0:0:
448,192,75547,1,0,0:0:0:0:
192,192,75625,128,0,75703:0:0:0:0:
320,192,75703,1,0,0:0:0:0:
192,192,75781,128,0,75937:0:0:0:0:
448,192,75781,128,0,75937:0:0:0:0:
448,192,76094,1,0,0:0:0:0:
192,192,76094,128,0,76250:0:0:0:0:
64,192,76094,128,0,76250:0:0:0:0:
192,192,76406,128,0,76562:0:0:0:0:
64,192,76406,128,0,76562:0:0:0:0:
320,192,76562,128,0,76640:0:0:0:0:
192,192,76719,128,0,76875:0:0:0:0:
64,192,76719,128,0,76875:0:0:0:0:
448,192,76719,1,0,0:0:0:0:
320,192,76875,1,0,0:0:0:0:
448,192,76953,1,0,0:0:0:0:
192,192,77031,128,0,77187:0:0:0:0:
64,192,77031,128,0,77187:0:0:0:0:
320,192,77187,1,0,0:0:0:0:
192,192,77344,128,0,77500:0:0:0:0:
64,192,77344,128,0,77500:0:0:0:0:
320,192,77500,128,0,77578:0:0:0:0:
448,192,77500,1,0,0:0:0:0:
320,192,77656,128,0,77812:0:0:0:0:
64,192,77656,128,0,77812:0:0:0:0:
192,192,77656,1,0,0:0:0:0:
448,192,77812,128,0,77890:0:0:0:0:
448,192,77969,128,0,78125:0:0:0:0:
64,192,77969,128,0,78125:0:0:0:0:
448,192,78281,128,0,78437:0:0:0:0:
64,192,78281,128,0,78437:0:0:0:0:
320,192,78359,1,0,0:0:0:0:
192,192,78437,1,0,0:0:0:0:
320,192,78515,1,0,0:0:0:0:
448,192,78594,1,0,0:0:0:0:
192,192,78594,128,0,78750:0:0:0:0:
64,192,78594,128,0,78750:0:0:0:0:
192,192,78906,128,0,79062:0:0:0:0:
64,192,78906,128,0,79062:0:0:0:0:
448,192,78906,1,0,0:0:0:0:
320,192,79062,128,0,79140:0:0:0:0:
448,192,79219,1,0,0:0:0:0:
192,192,79219,128,0,79375:0:0:0:0:
64,192,79219,128,0,79375:0:0:0:0:
192,192,79531,128,0,79687:0:0:0:0:
64,192,79531,128,0,79687:0:0:0:0:
320,192,79687,1,0,0:0:0:0:
192,192,79844,128,0,80000:0:0:0:0:
64,192,79844,128,0,80000:0:0:0:0:
320,192,80000,128,0,80078:0:0:0:0:
448,192,80000,1,0,0:0:0:0:
192,192,80156,128,0,80312:0:0:0:0:
320,192,80156,128,0,80312:0:0:0:0:
64,192,80156,1,0,0:0:0:0:
64,192,80312,128,0,80390:0:0:0:0:
320,192,80469,128,0,80625:0:0:0:0:
448,192,80469,128,0,80625:0:0:0:0:
192,192,80469,1,0,0:0:0:0:
192,192,80625,128,0,80703:0:0:0:0:
64,192,80781,128,0,80937:0:0:0:0:
448,192,80781,128,0,80937:0:0:0:0:
320,192,80859,1,0,0:0:0:0:
192,192,80937,1,0,0:0:0:0:
64,192,81015,1,0,0:0:0:0:
448,192,81094,1,0,0:0:0:0:
320,192,81146,1,0,0:0:0:0:
192,192,81198,1,0,0:0:0:0:
64,192,81250,1,0,0:0:0:0:
320,192,81302,1,0,0:0:0:0:
192,192,81354,1,0,0:0:0:0:
64,192,81406,128,0,81562:0:0:0:0:
448,192,81406,128,0,81562:0:0:0:0:
320,192,81562,128,0,81640:0:0:0:0:
64,192,81719,128,0,81875:0:0:0:0:
448,192,81719,128,0,81875:0:0:0:0:
192,192,81719,1,0,0:0:0:0:
320,192,81797,1,0,0:0:0:0:
192,192,81875,1,0,0:0:0:0:
320,192,81953,1,0,0:0:0:0:
64,192,82031,128,0,82187:0:0:0:0:
448,192,82031,128,0,82187:0:0:0:0:
192,192,82187,1,0,0:0:0:0:
64,192,82344,128,0,82500:0:0:0:0:
448,192,82344,128,0,82500:0:0:0:0:
320,192,82500,128,0,82578:0:0:0:0:
192,192,82500,1,0,0:0:0:0:
448,192,82656,128,0,82812:0:0:0:0:
192,192,82656,128,0,82812:0:0:0:0:
64,192,82656,1,0,0:0:0:0:
320,192,82812,128,0,82890:0:0:0:0:
448,192,82969,128,0,83125:0:0:0:0:
320,192,82969,128,0,83125:0:0:0:0:
64,192,82969,1,0,0:0:0:0:
320,192,83281,128,0,83437:0:0:0:0:
448,192,83281,128,0,83437:0:0:0:0:
192,192,83359,1,0,0:0:0:0:
64,192,83437,1,0,0:0:0:0:
192,192,83515,1,0,0:0:0:0:
448,192,83594,128,0,83906:0:0:0:0:
64,192,83594,1,0,0:0:0:0:
320,192,83594,1,0,0:0:0:0:
320,192,83906,128,0,84219:0:0:0:0:
192,192,84062,1,0,0:0:0:0:
64,192,84062,1,0,0:0:0:0:
192,192,84219,128,0,84531:0:0:0:0:
64,192,84219,1,0,0:0:0:0:
448,192,84219,1,0,0:0:0:0:
64,192,84531,128,0,84844:0:0:0:0:
320,192,84531,1,0,0:0:0:0:
448,192,84531,1,0,0:0:0:0:
192,192,84844,128,0,85156:0:0:0:0:
448,192,85000,1,0,0:0:0:0:
320,192,85156,128,0,85469:0:0:0:0:
448,192,85156,1,0,0:0:0:0:
64,192,85156,1,0,0:0:0:0:
448,192,85469,128,0,85781:0:0:0:0:
192,192,85469,1,0,0:0:0:0:
64,192,85469,1,0,0:0:0:0:
64,192,85781,128,0,85937:0:0:0:0:
320,192,85781,128,0,85937:0:0:0:0:
192,192,85937,128,0,86094:0:0:0:0:
320,192,86094,128,0,86250:0:0:0:0:
448,192,86094,128,0,86250:0:0:0:0:
64,192,86094,128,0,86406:0:0:0:0:
320,192,86406,1,0,0:0:0:0:
448,192,86406,128,0,86562:0:0:0:0:
192,192,86562,1,0,0:0:0:0:
320,192,86562,128,0,86719:0:0:0:0:
192,192,86719,128,0,86875:0:0:0:0:
64,192,86719,128,0,86875:0:0:0:0:
448,192,86719,128,0,87031:0:0:0:0:
192,192,87031,1,0,0:0:0:0:
64,192,87031,128,0,87187:0:0:0:0:
320,192,87187,1,0,0:0:0:0:
192,192,87187,128,0,87344:0:0:0:0:
64,192,87344,128,0,87656:0:0:0:0:
320,192,87344,128,0,87500:0:0:0:0:
448,192,87344,128,0,87500:0:0:0:0:
320,192,87656,1,0,0:0:0:0:
448,192,87656,128,0,87812:0:0:0:0:
192,192,87812,1,0,0:0:0:0:
320,192,87812,128,0,87969:0:0:0:0:
448,192,87969,1,0,0:0:0:0:
64,192,87969,128,0,88125:0:0:0:0:
192,192,87969,128,0,88125:0:0:0:0:
320,192,88125,1,0,0:0:0:0:
448,192,88125,128,0,88281:0:0:0:0:
192,192,88281,1,0,0:0:0:0:
320,192,88281,128,0,88437:0:0:0:0:
64,192,88437,1,0,0:0:0:0:
192,192,88437,128,0,88594:0:0:0:0:
64,192,88594,128,0,88906:0:0:0:0:
448,192,88594,128,0,88750:0:0:0:0:
320,192,88594,128,0,88750:0:0:0:0:
448,192,88906,1,0,0:0:0:0:
192,192,88906,128,0,89062:0:0:0:0:
64,192,89062,1,0,0:0:0:0:
320,192,89062,128,0,89219:0:0:0:0:
448,192,89219,128,0,89531:0:0:0:0:
64,192,89219,128,0,89375:0:0:0:0:
192,192,89219,128,0,89375:0:0:0:0:
192,192,89531,128,0,89687:0:0:0:0:
320,192,89531,128,0,89687:0:0:0:0:
320,192,89844,128,0,90156:0:0:0:0:
448,192,89844,128,0,90156:0:0:0:0:
64,192,89844,128,0,90156:0:0:0:0:
192,192,90156,128,0,90312:0:0:0:0:
320,192,90469,128,0,90625:0:0:0:0:
64,192,90469,1,0,0:0:0:0:
192,192,90469,1,0,0:0:0:0:
448,192,90781,128,0,90937:0:0:0:0:
64,192,90781,128,0,90937:0:0:0:0:
192,192,90937,128,0,91094:0:0:0:0:
320,192,91094,128,0,91250:0:0:0:0:
448,192,91094,128,0,91250:0:0:0:0:
64,192,91094,128,0,91406:0:0:0:0:
320,192,91406,1,0,0:0:0:0:
448,192,91406,128,0,91562:0:0:0:0:
192,192,91562,1,0,0:0:0:0:
320,192,91562,128,0,91719:0:0:0:0:
192,192,91719,128,0,91875:0:0:0:0:
64,192,91719,128,0,91875:0:0:0:0:
448,192,91719,128,0,92031:0:0:0:0:
192,192,92031,1,0,0:0:0:0:
64,192,92031,128,0,92187:0:0:0:0:
320,192,92187,1,0,0:0:0:0:
192,192,92187,128,0,92344:0:0:0:0:
64,192,92344,128,0,92656:0:0:0:0:
320,192,92344,128,0,92500:0:0:0:0:
448,192,92344,128,0,92500:0:0:0:0:
320,192,92656,1,0,0:0:0:0:
448,192,92656,128,0,92812:0:0:0:0:
192,192,92812,1,0,0:0:0:0:
320,192,92812,128,0,92969:0:0:0:0:
448,192,92969,1,0,0:0:0:0:
64,192,92969,128,0,93125:0:0:0:0:
192,192,92969,128,0,93125:0:0:0:0:
320,192,93125,1,0,0:0:0:0:
448,192,93125,128,0,93281:0:0:0:0:
192,192,93281,1,0,0:0:0:0:
320,192,93281,128,0,93437:0:0:0:0:
64,192,93437,1,0,0:0:0:0:
192,192,93437,128,0,93594:0:0:0:0:
64,192,93594,128,0,93906:0:0:0:0:
448,192,93594,128,0,93750:0:0:0:0:
320,192,93594,128,0,93750:0:0:0:0:
448,192,93906,1,0,0:0:0:0:
192,192,93906,128,0,94062:0:0:0:0:
64,192,94062,1,0,0:0:0:0:
320,192,94062,128,0,94219:0:0:0:0:
448,192,94219,128,0,94531:0:0:0:0:
64,192,94219,128,0,94375:0:0:0:0:
192,192,94219,128,0,94375:0:0:0:0:
192,192,94531,128,0,94687:0:0:0:0:
320,192,94531,128,0,94687:0:0:0:0:
64,192,94844,1,0,0:0:0:0:
192,192,94863,1,0,0:0:0:0:
320,192,94883,1,0,0:0:0:0:
192,192,95156,128,0,95312:0:0:0:0:
448,192,95156,128,0,95469:0:0:0:0:
64,192,95469,128,0,95625:0:0:0:0:
320,192,95469,128,0,95781:0:0:0:0:
192,192,95781,128,0,96094:0:0:0:0:
448,192,95781,128,0,95937:0:0:0:0:
64,192,96094,128,0,96406:0:0:0:0:
448,192,96094,128,0,96250:0:0:0:0:
320,192,96094,128,0,96250:0:0:0:0:
448,192,96406,128,0,96562:0:0:0:0:
320,192,96406,1,0,0:0:0:0:
320,192,96562,128,0,96719:0:0:0:0:
192,192,96562,1,0,0:0:0:0:
448,192,96719,128,0,97031:0:0:0:0:
64,192,96719,128,0,96875:0:0:0:0:
192,192,96719,128,0,96875:0:0:0:0:
64,192,97031,128,0,97187:0:0:0:0:
192,192,97031,1,0,0:0:0:0:
192,192,97187,128,0,97344:0:0:0:0:
320,192,97187,1,0,0:0:0:0:
448,192,97344,128,0,97500:0:0:0:0:
320,192,97344,128,0,97500:0:0:0:0:
64,192,97344,128,0,97656:0:0:0:0:
448,192,97656,128,0,97812:0:0:0:0:
320,192,97656,1,0,0:0:0:0:
320,192,97812,128,0,97969:0:0:0:0:
192,192,97812,1,0,0:0:0:0:
192,192,97969,128,0,98125:0:0:0:0:
64,192,97969,128,0,98125:0:0:0:0:
448,192,97969,1,0,0:0:0:0:
448,192,98125,128,0,98281:0:0:0:0:
320,192,98125,1,0,0:0:0:0:
320,192,98281,128,0,98437:0:0:0:0:
192,192,98281,1,0,0:0:0:0:
192,192,98437,128,0,98594:0:0:0:0:
64,192,98437,1,0,0:0:0:0:
320,192,98594,128,0,98750:0:0:0:0:
448,192,98594,128,0,98750:0:0:0:0:
64,192,98594,128,0,98906:0:0:0:0:
192,192,98906,128,0,99062:0:0:0:0:
448,192,98906,1,0,0:0:0:0:
320,192,99062,128,0,99219:0:0:0:0:
64,192,99062,1,0,0:0:0:0:
192,192,99219,128,0,99375:0:0:0:0:
64,192,99219,128,0,99375:0:0:0:0:
448,192,99219,128,0,99531:0:0:0:0:
320,192,99531,128,0,99687:0:0:0:0:
192,192,99531,128,0,99687:0:0:0:0:
64,192,99844,128,0,100156:0:0:0:0:
448,192,99844,128,0,100156:0:0:0:0:
320,192,99844,128,0,100156:0:0:0:0:
192,192,100156,128,0,100312:0:0:0:0:
192,192,100469,1,0,0:0:0:0:
64,192,100469,1,0,0:0:0:0:
320,192,100469,128,0,100625:0:0:0:0:
448,192,100781,128,0,100937:0:0:0:0:
64,192,100781,128,0,100937:0:0:0:0:
192,192,100937,128,0,101094:0:0:0:0:
320,192,101094,128,0,101250:0:0:0:0:
448,192,101094,128,0,101250:0:0:0:0:
64,192,101094,128,0,101406:0:0:0:0:
320,192,101406,1,0,0:0:0:0:
448,192,101406,128,0,101562:0:0:0:0:
192,192,101562,1,0,0:0:0:0:
320,192,101562,128,0,101719:0:0:0:0:
192,192,101719,128,0,101875:0:0:0:0:
64,192,101719,128,0,101875:0:0:0:0:
448,192,101719,128,0,102031:0:0:0:0:
192,192,102031,1,0,0:0:0:0:
64,192,102031,128,0,102187:0:0:0:0:
320,192,102187,1,0,0:0:0:0:
192,192,102187,128,0,102344:0:0:0:0:
64,192,102344,128,0,102656:0:0:0:0:
320,192,102344,128,0,102500:0:0:0:0:
448,192,102344,128,0,102500:0:0:0:0:
320,192,102656,1,0,0:0:0:0:
448,192,102656,128,0,102812:0:0:0:0:
192,192,102812,1,0,0:0:0:0:
320,192,102812,128,0,102969:0:0:0:0:
448,192,102969,1,0,0:0:0:0:
64,192,102969,128,0,103125:0:0:0:0:
192,192,102969,128,0,103125:0:0:0:0:
320,192,103125,1,0,0:0:0:0:
448,192,103125,128,0,103281:0:0:0:0:
192,192,103281,1,0,0:0:0:0:
320,192,103281,128,0,103437:0:0:0:0:
64,192,103437,1,0,0:0:0:0:
192,192,103437,128,0,103594:0:0:0:0:
64,192,103594,128,0,103906:0:0:0:0:
320,192,103594,128,0,103750:0:0:0:0:
192,192,103906,128,0,104219:0:0:0:0:
448,192,103906,128,0,104062:0:0:0:0:
320,192,104062,1,0,0:0:0:0:
320,192,104219,128,0,104531:0:0:0:0:
64,192,104219,128,0,104375:0:0:0:0:
448,192,104531,128,0,104844:0:0:0:0:
192,192,104531,128,0,104687:0:0:0:0:
64,192,104844,128,0,105156:0:0:0:0:
320,192,104844,128,0,105000:0:0:0:0:
192,192,105000,1,0,0:0:0:0:
192,192,105156,128,0,105469:0:0:0:0:
448,192,105156,128,0,105312:0:0:0:0:
64,192,105469,128,0,105937:0:0:0:0:
448,192,105469,128,0,105937:0:0:0:0:
64,192,106074,1,0,0:0:0:0:
192,192,106133,1,0,0:0:0:0:
448,192,106191,1,0,0:0:0:0:
64,192,106250,1,0,0:0:0:0:
320,192,106308,1,0,0:0:0:0:
448,192,106367,1,0,0:0:0:0:
