osu file format v14

[General]
AudioFilename: letter song.mp3
AudioLeadIn: 0
PreviewTime: 190849
Countdown: 0
SampleSet: Soft
StackLeniency: 0.7
Mode: 0
LetterboxInBreaks: 0
WidescreenStoryboard: 0

[Editor]
Bookmarks: 1054,34709,65549,96269,128945,191802,222278,254659,285135,302278,329105
DistanceSpacing: 0.8
BeatDivisor: 4
GridSize: 4
TimelineZoom: 1.800006

[Metadata]
Title:letter song
TitleUnicode:letter song
Artist:Wotamin
ArtistUnicode:ヲタみん
Creator:Lafayla
Version:Feelings
Source:
Tags:花束 ~the best of doriko~ 初音ミク Hatsune Miku japanese pop
BeatmapID:2153251
BeatmapSetID:1029750

[Difficulty]
HPDrainRate:5
CircleSize:6
OverallDifficulty:8
ApproachRate:8
SliderMultiplier:1.6
SliderTickRate:0.5

[Events]
//Background and Video events
0,0,"letter song bg.jpg",0,0
//Break Periods
//Storyboard Layer 0 (Background)
//Storyboard Layer 1 (Fail)
//Storyboard Layer 2 (Pass)
//Storyboard Layer 3 (Foreground)
//Storyboard Layer 4 (Overlay)
//Storyboard Sound Samples

[TimingPoints]
94,480,4,2,1,45,1,0
1054,-125,4,2,1,45,0,0
34205,480,4,2,1,45,1,0
34709,480,4,2,1,45,1,0
34709,-142.857142857143,4,2,1,45,0,0
48643,500,4,2,1,45,1,0
49143,508.474576271186,4,2,1,45,1,0
49651,538.116591928251,4,2,1,45,1,0
50189,480,4,2,1,45,1,0
50189,-142.857142857143,4,2,1,45,0,0
96269,-100,4,2,1,50,0,0
126029,-133.333333333333,4,2,1,50,0,0
127981,480,4,2,1,50,1,0
128461,-333.333333333334,4,2,1,55,0,0
128945,476.190476190476,4,2,1,60,1,0
191802,-83.3333333333333,4,2,1,70,0,1
222278,-100,4,2,1,75,0,0
224183,-76.9230769230769,4,2,1,80,0,0
254659,-76.9230769230769,4,2,1,80,0,1
285135,-90.9090909090909,4,2,1,80,0,0
302278,-125,4,2,1,45,0,0
327122,495.867768595041,4,2,1,45,1,0

[Colours]
Combo1 : 241,222,163
Combo2 : 168,217,236
Combo3 : 237,167,167
Combo4 : 187,206,217

[HitObjects]
294,77,1054,5,2,0:0:0:0:
294,77,1534,1,0,0:0:0:0:
294,77,2014,6,0,L|225:68,2,64,2|0|0,0:0|0:0|0:0,0:0:0:0:
398,118,2734,2,0,P|367:51|409:0,2,128,2|0|0,0:0|0:0|0:0,0:0:0:0:
502,182,3934,5,2,0:0:0:0:
370,323,4414,1,2,0:0:0:0:
370,323,4654,2,0,B|266:355|298:267|178:301,1,192,2|0,0:0|0:0,0:0:0:0:
93,328,5614,1,0,0:0:0:0:
0,234,5854,5,2,0:0:0:0:
0,234,6094,2,0,P|66:234|113:191,2,128,2|0|0,0:0|0:0|0:0,0:0:0:0:
22,70,7534,1,0,0:0:0:0:
22,70,7774,6,0,L|29:136,2,64,2|0|0,0:0|0:0|0:0,0:0:0:0:
108,0,8494,2,0,P|110:64|228:95,1,192,2|0,0:0|0:0,0:0:0:0:
316,43,9454,1,0,0:0:0:0:
316,43,9694,6,0,P|281:40|250:26,2,64,2|0|0,0:0|0:0|0:0,0:0:0:0:
395,104,10414,2,0,P|452:77|513:95,2,128,2|0|0,0:0|0:0|0:0,0:0:0:0:
340,198,11614,5,2,0:0:0:0:
471,348,12094,1,2,0:0:0:0:
471,348,12334,2,0,B|425:268|425:268|462:162,1,192,2|0,0:0|0:0,0:0:0:0:
511,94,13294,1,0,0:0:0:0:
364,53,13534,5,2,0:0:0:0:
364,53,13774,2,0,P|324:61|294:89,1,64,2|0,0:0|0:0,0:0:0:0:
157,117,14254,2,0,P|197:125|227:153,1,64,2|0,0:0|0:0,0:0:0:0:
376,172,14734,2,0,P|336:180|306:208,1,64,2|0,0:0|0:0,0:0:0:0:
224,293,15214,1,0,0:0:0:0:
118,318,15454,6,0,L|112:254,2,64,2|0|0,0:0|0:0|0:0,0:0:0:0:
18,263,16174,2,0,P|30:200|151:165,1,192,2|0,0:0|0:0,0:0:0:0:
258,206,17134,1,0,0:0:0:0:
258,206,17374,6,0,P|239:180|236:148,2,64,2|0|0,0:0|0:0|0:0,0:0:0:0:
353,297,18094,2,0,P|289:291|231:315,2,128,2|0|0,0:0|0:0|0:0,0:0:0:0:
450,335,19294,5,2,0:0:0:0:
512,148,19774,1,2,0:0:0:0:
512,148,20014,2,0,B|490:192|438:202|438:202|395:149|330:164,1,192,2|0,0:0|0:0,0:0:0:0:
251,182,20974,1,0,0:0:0:0:
155,100,21214,5,2,0:0:0:0:
155,100,21454,2,0,L|137:226,2,128,2|0|0,0:0|0:0|0:0,0:0:0:0:
45,239,22894,1,0,0:0:0:0:
45,239,23134,6,0,L|39:167,2,64,2|0|0,0:0|0:0|0:0,0:0:0:0:
0,365,23854,2,0,B|42:329|84:321|84:321|114:368|181:363,1,192,2|0,0:0|0:0,0:0:0:0:
296,316,24814,1,0,0:0:0:0:
296,316,25054,6,0,P|264:310|240:290,2,64,2|0|0,0:0|0:0|0:0,0:0:0:0:
400,250,25774,2,0,L|382:376,2,128,2|0|0,0:0|0:0|0:0,0:0:0:0:
298,168,26974,6,0,L|308:231,1,64,2|0,0:0|0:0,0:0:0:0:
344,82,27454,1,2,0:0:0:0:
344,82,27694,2,0,B|240:41|240:142|136:90,1,192,2|0,0:0|0:0,0:0:0:0:
0,217,28894,5,2,0:0:0:0:
0,217,29134,2,0,P|35:200|81:202,1,64,2|0,0:0|0:0,0:0:0:0:
88,310,29614,2,0,P|123:327|169:324,1,64,2|0,0:0|0:0,0:0:0:0:
217,235,30094,2,0,P|252:218|298:220,1,64,2|0,0:0|0:0,0:0:0:0:
405,238,30574,1,0,0:0:0:0:
488,203,30814,6,0,L|493:274,2,64,2|0|0,0:0|0:0|0:0,0:0:0:0:
454,75,31534,2,0,P|364:154|300:132,1,192,2|0,0:0|0:0,0:0:0:0:
126,38,32734,5,2,0:0:0:0:
166,103,32974,1,0,0:0:0:0:
63,150,33214,1,2,0:0:0:0:
23,215,33454,1,2,0:0:0:0:
16,239,34205,5,2,0:0:0:0:
16,239,34709,6,0,L|10:175,2,55.9999982910157,2|0|0,0:0|0:0|0:0,0:0:0:0:
79,310,35429,2,0,P|35:320|-1:377,2,111.999996582031,2|0|0,0:0|0:0|0:0,0:0:0:0:
168,327,36629,5,2,0:0:0:0:
271,194,37109,1,2,0:0:0:0:
271,194,37349,2,0,B|362:166|341:245|442:214,1,167.999994873047,2|0,0:0|0:0,0:0:0:0:
512,192,38309,1,0,0:0:0:0:
512,192,38549,6,0,L|507:136,2,55.9999982910157,2|0|0,0:0|0:0|0:0,0:0:0:0:
427,365,39509,1,2,0:0:0:0:
269,270,39989,1,2,0:0:0:0:
340,138,40469,6,0,L|395:142,2,55.9999982910157,2|0|0,0:0|0:0|0:0,0:0:0:0:
285,87,41189,2,0,P|211:156|88:132,1,223.999993164063,2|0,0:0|0:0,0:0:0:0:
97,139,42389,6,0,L|92:83,2,55.9999982910157,2|0|0,0:0|0:0|0:0,0:0:0:0:
53,222,43108,1,0,0:0:0:0:
53,222,43349,1,2,0:0:0:0:
191,107,43829,1,2,0:0:0:0:
309,250,44309,6,0,P|316:226|338:193,2,55.9999982910157,2|0|0,0:0|0:0|0:0,0:0:0:0:
279,330,45029,1,0,0:0:0:0:
279,330,45269,2,0,P|357:333|358:333,1,55.9999982910157,2|0,0:0|0:0,0:0:0:0:
409,366,45749,1,2,0:0:0:0:
512,208,46229,6,0,P|512:154|468:109,1,111.999996582031,2|0,0:0|0:0,0:0:0:0:
376,83,46949,1,2,0:0:0:0:
376,83,47189,2,0,B|324:87|285:132|285:132|257:66|181:59,1,223.999993164063,2|0,0:0|0:0,0:0:0:0:
113,76,48389,1,0,0:0:0:0:
113,76,48643,5,2,0:0:0:0:
205,206,49143,5,0,0:0:0:0:
104,298,49651,5,0,0:0:0:0:
92,319,50189,6,0,L|36:314,2,55.9999982910157,2|0|0,0:0|0:0|0:0,0:0:0:0:
167,286,50909,2,0,P|206:324|260:333,2,111.999996582031,2|0|0,0:0|0:0|0:0,0:0:0:0:
133,201,52109,5,2,0:0:0:0:
306,72,52589,1,2,0:0:0:0:
306,72,52829,2,0,B|272:112|244:116|244:116|214:75|158:72,1,167.999994873047,2|0,0:0|0:0,0:0:0:0:
76,85,53789,1,0,0:0:0:0:
76,85,54029,6,0,L|71:29,2,55.9999982910157,2|0|0,0:0|0:0|0:0,0:0:0:0:
0,239,54989,1,2,0:0:0:0:
170,299,55469,1,2,0:0:0:0:
283,162,55949,6,0,P|292:195|283:225,2,55.9999982910157,2|0|0,0:0|0:0|0:0,0:0:0:0:
257,57,56669,2,0,B|336:92|336:92|422:52,1,167.999994873047,2|0,0:0|0:0,0:0:0:0:
409,57,57869,6,0,L|404:1,2,55.9999982910157,2|0|0,0:0|0:0|0:0,0:0:0:0:
353,137,58588,1,0,0:0:0:0:
353,137,58829,2,0,P|408:141|451:176,1,111.999996582031,2|0,0:0|0:0,0:0:0:0:
436,325,59789,6,0,P|454:347|463:374,2,55.9999982910157,2|0|0,0:0|0:0|0:0,0:0:0:0:
398,256,60509,2,0,L|288:277,1,111.999996582031,2|0,0:0|0:0,0:0:0:0:
212,328,61228,1,0,0:0:0:0:
113,276,61469,1,0,0:0:0:0:
113,276,61709,6,0,L|118:336,2,55.9999982910157,2|0|0,0:0|0:0|0:0,0:0:0:0:
113,194,62429,1,2,0:0:0:0:
113,194,62669,1,2,0:0:0:0:
243,72,63149,6,0,L|298:76,2,55.9999982910157,2|0|0,0:0|0:0|0:0,0:0:0:0:
247,76,65069,1,0,0:0:0:0:
166,6,65309,1,0,0:0:0:0:
1,57,65549,6,0,P|60:54|114:102,1,111.999996582031,2|0,0:0|0:0,0:0:0:0:
194,109,66269,2,0,P|134:106|80:154,1,111.999996582031,2|0,0:0|0:0,0:0:0:0:
28,241,66989,1,0,0:0:0:0:
91,323,67229,1,0,0:0:0:0:
91,323,67469,6,0,L|146:315,1,55.9999982910157,2|0,0:0|0:0,0:0:0:0:
205,256,67949,2,0,L|260:263,1,55.9999982910157,2|0,0:0|0:0,0:0:0:0:
260,263,68429,1,2,0:0:0:0:
412,130,68909,1,0,0:0:0:0:
310,146,69149,1,0,0:0:0:0:
379,35,69389,6,0,P|433:29|493:81,1,111.999996582031,2|0,0:0|0:0,0:0:0:0:
478,201,70109,2,0,P|431:230|376:225,1,111.999996582031,2|0,0:0|0:0,0:0:0:0:
264,173,70829,1,0,0:0:0:0:
207,249,71069,1,0,0:0:0:0:
207,249,71309,6,0,P|181:260|153:262,1,55.9999982910157,2|0,0:0|0:0,0:0:0:0:
113,179,71789,2,0,P|87:167|59:165,1,55.9999982910157,2|0,0:0|0:0,0:0:0:0:
59,165,72269,1,2,0:0:0:0:
231,40,72749,1,0,0:0:0:0:
307,117,72989,1,0,0:0:0:0:
422,8,73229,6,0,L|404:132,1,111.999996582031,2|0,0:0|0:0,0:0:0:0:
431,217,73949,1,2,0:0:0:0:
431,217,74189,1,2,0:0:0:0:
293,165,74669,2,0,P|265:164|239:174,1,55.9999982910157
171,256,75149,6,0,P|197:265|224:265,1,55.9999982910157,2|0,0:0|0:0,0:0:0:0:
314,243,75629,1,0,0:0:0:0:
403,290,75869,1,0,0:0:0:0:
403,290,76109,2,0,L|397:344,1,55.9999982910157,2|0,0:0|0:0,0:0:0:0:
489,265,76589,2,0,L|483:210,1,55.9999982910157,2|0,0:0|0:0,0:0:0:0:
469,106,77069,6,0,P|423:151|364:152,1,111.999996582031,2|0,0:0|0:0,0:0:0:0:
290,106,77789,1,2,0:0:0:0:
290,106,78029,2,0,B|196:82|219:157|123:128,1,167.999994873047,2|0,0:0|0:0,0:0:0:0:
130,130,78989,6,0,P|137:156|131:183,1,55.9999982910157,2|0,0:0|0:0,0:0:0:0:
63,274,79469,1,2,0:0:0:0:
0,117,79949,1,2,0:0:0:0:
195,61,80429,1,0,0:0:0:0:
150,166,80669,1,0,0:0:0:0:
272,263,80909,6,0,P|277:207|255:156,1,111.999996582031,2|0,0:0|0:0,0:0:0:0:
378,57,81629,2,0,P|356:108|361:163,1,111.999996582031,2|0,0:0|0:0,0:0:0:0:
421,266,82349,1,0,0:0:0:0:
339,346,82589,1,0,0:0:0:0:
339,346,82829,6,0,P|312:336|284:336,1,55.9999982910157,2|0,0:0|0:0,0:0:0:0:
245,254,83309,2,0,P|217:258|193:272,1,55.9999982910157,2|0,0:0|0:0,0:0:0:0:
193,272,83789,1,2,0:0:0:0:
23,379,84269,1,0,0:0:0:0:
97,294,84509,1,0,0:0:0:0:
0,164,84749,6,0,P|43:205|112:189,1,111.999996582031,2|0,0:0|0:0,0:0:0:0:
109,95,85469,2,0,P|152:53|221:69,1,111.999996582031,2|0,0:0|0:0,0:0:0:0:
288,112,86189,1,0,0:0:0:0:
239,202,86429,1,0,0:0:0:0:
239,202,86669,6,0,P|244:233|258:268,1,55.9999982910157,2|0,0:0|0:0,0:0:0:0:
329,317,87149,2,0,P|337:290|342:262,1,55.9999982910157,2|0,0:0|0:0,0:0:0:0:
254,370,87629,2,0,P|198:370|148:347,1,111.999996582031,2|0,0:0|0:0,0:0:0:0:
0,250,88589,6,0,P|50:226|105:227,1,111.999996582031,2|0,0:0|0:0,0:0:0:0:
189,260,89309,1,2,0:0:0:0:
189,260,89549,1,2,0:0:0:0:
294,96,90029,1,0,0:0:0:0:
202,26,90269,1,0,0:0:0:0:
202,26,90509,6,0,P|185:48|179:77,1,55.9999982910157,2|0,0:0|0:0,0:0:0:0:
86,109,90989,1,0,0:0:0:0:
86,109,91229,2,0,P|102:130|109:158,1,55.9999982910157,2|0,0:0|0:0,0:0:0:0:
105,267,91708,1,0,0:0:0:0:
225,218,91949,1,2,0:0:0:0:
311,270,92189,1,0,0:0:0:0:
311,270,92429,6,0,P|318:242|397:220,1,111.999996582031,2|0,0:0|0:0,0:0:0:0:
485,141,93149,1,2,0:0:0:0:
485,141,93389,2,0,L|501:251,2,111.999996582031,2|0|0,0:0|0:0|0:0,0:0:0:0:
485,141,95309,5,2,0:0:0:0:
382,63,95549,1,0,0:0:0:0:
269,47,95789,1,2,0:0:0:0:
246,61,96269,6,0,P|232:135|295:176,1,160,2|0,0:0|0:0,0:0:0:0:
456,211,96989,2,0,P|416:215|386:240,1,80,2|0,0:0|0:0,0:0:0:0:
311,319,97469,2,0,P|271:314|241:289,1,80,2|0,0:0|0:0,0:0:0:0:
132,361,97949,1,0,0:0:0:0:
132,361,98189,6,0,P|116:273|156:214,1,160,2|0,0:0|0:0,0:0:0:0:
271,102,98909,2,0,B|146:150|163:37|36:86,1,240,2|0,0:0|0:0,0:0:0:0:
0,172,99869,1,0,0:0:0:0:
93,279,100109,5,2,0:0:0:0:
93,279,100349,2,0,L|106:181,1,80,2|0,0:0|0:0,0:0:0:0:
195,286,100829,2,0,L|208:382,1,80,2|0,0:0|0:0,0:0:0:0:
298,279,101309,2,0,L|311:182,1,80,2|0,0:0|0:0,0:0:0:0:
366,85,101789,1,0,0:0:0:0:
366,85,102029,6,0,P|332:105|292:103,1,80,2|0,0:0|0:0,0:0:0:0:
422,8,102509,1,2,0:0:0:0:
422,8,102749,2,0,B|495:1|531:63|531:63|454:79|451:151,1,240,2|0,0:0|0:0,0:0:0:0:
447,299,103709,1,0,0:0:0:0:
447,299,103949,6,0,P|428:225|341:214,1,160,2|0,0:0|0:0,0:0:0:0:
247,270,104669,2,0,B|259:191,1,80,2|0,0:0|0:0,0:0:0:0:
161,336,105149,2,0,B|148:257,1,80,2|0,0:0|0:0,0:0:0:0:
28,145,105629,1,0,0:0:0:0:
28,145,105869,6,0,B|102:178|102:178|186:145,1,160,2|0,0:0|0:0,0:0:0:0:
265,9,106589,2,0,P|247:42|375:141,1,240,2|0,0:0|0:0,0:0:0:0:
453,81,107549,1,0,0:0:0:0:
508,188,107789,5,2,0:0:0:0:
508,188,108029,2,0,P|507:227|487:261,1,80,2|0,0:0|0:0,0:0:0:0:
427,384,108509,2,0,P|426:344|406:310,1,80,2|0,0:0|0:0,0:0:0:0:
346,188,108989,2,0,P|345:227|325:261,1,80,2|0,0:0|0:0,0:0:0:0:
227,322,109469,1,0,0:0:0:0:
227,322,109709,6,0,L|131:311,1,80,2|0,0:0|0:0,0:0:0:0:
8,333,110189,1,0,0:0:0:0:
95,207,110429,1,2,0:0:0:0:
36,121,110669,1,2,0:0:0:0:
36,121,111149,1,0,0:0:0:0:
157,31,111389,1,2,0:0:0:0:
157,31,111629,6,0,B|254:12|218:87|323:63,1,160,2|0,0:0|0:0,0:0:0:0:
466,25,112349,2,0,P|435:59|427:101,1,80,2|0,0:0|0:0,0:0:0:0:
327,161,112829,2,0,P|357:195|365:237,1,80,2|0,0:0|0:0,0:0:0:0:
510,310,113309,1,0,0:0:0:0:
510,310,113549,6,0,B|472:280|439:281|439:281|402:330|350:309,1,160,2|0,0:0|0:0,0:0:0:0:
171,272,114269,2,0,P|211:277|292:121,1,240,2|0,0:0|0:0,0:0:0:0:
228,61,115229,1,0,0:0:0:0:
102,96,115469,5,2,0:0:0:0:
102,96,115709,2,0,P|79:146|90:191,1,80,2|0,0:0|0:0,0:0:0:0:
81,312,116189,2,0,P|49:267|4:254,1,80,2|0,0:0|0:0,0:0:0:0:
155,237,116669,2,0,P|209:231|243:199,1,80,2|0,0:0|0:0,0:0:0:0:
317,135,117149,1,0,0:0:0:0:
438,131,117389,5,2,0:0:0:0:
438,131,117629,2,0,P|460:180|452:218,1,80,2|0,0:0|0:0,0:0:0:0:
512,318,118109,2,0,B|387:257|404:398|266:327,1,240,2|0,0:0|0:0,0:0:0:0:
147,237,119069,1,0,0:0:0:0:
147,237,119309,6,0,B|220:265|220:265|294:232,1,160,2|0,0:0|0:0,0:0:0:0:
426,173,120029,2,0,L|338:160,1,80,2|0,0:0|0:0,0:0:0:0:
259,87,120509,1,0,0:0:0:0:
259,87,120749,2,0,L|338:75,1,80,2|0,0:0|0:0,0:0:0:0:
213,3,121229,6,0,P|166:65|184:140,1,160,2|0,0:0|0:0,0:0:0:0:
313,264,121949,2,0,B|260:238|200:255|174:304|174:304|188:247|161:221,1,240,2|0,0:0|0:0,0:0:0:0:
87,169,122909,1,0,0:0:0:0:
2,278,123149,5,2,0:0:0:0:
2,278,123389,2,0,L|81:268,1,80,2|0,0:0|0:0,0:0:0:0:
150,371,123869,2,0,L|71:362,1,80,2|0,0:0|0:0,0:0:0:0:
194,285,124349,2,0,L|273:275,1,80,2|0,0:0|0:0,0:0:0:0:
407,297,124829,1,0,0:0:0:0:
512,206,125069,5,2,0:0:0:0:
512,206,125309,2,0,P|479:181|435:181,1,80,2|0,0:0|0:0,0:0:0:0:
362,72,125789,1,2,0:0:0:0:
362,72,126029,2,0,L|335:261,1,180.000006866455,2|0,0:0|0:0,0:0:0:0:
344,258,127981,5,2,0:0:0:0:
344,258,128461,6,0,L|378:259,1,35.9999989013672,2|0,0:0|0:0,0:0:0:0:
379,259,128945,6,0,P|382:298|405:330,1,80,14|0,0:0|0:0,0:0:0:0:
486,250,129421,2,0,P|482:210|459:178,1,80,2|8,0:0|0:0,0:0:0:0:
363,33,129897,1,2,3:0:0:0:
363,33,130135,2,0,P|418:74|520:54,1,160,2|0,0:0|0:0,0:0:0:0:
345,152,130849,6,0,P|280:108|203:120,1,160,10|0,0:0|0:0,0:0:0:0:
203,119,131564,1,8,0:0:0:0:
123,16,131802,2,0,B|104:186,1,160,2|0,3:0|0:0,0:0:0:0:
61,306,132516,1,2,0:0:0:0:
56,293,132595,1,2,0:0:0:0:
48,282,132675,1,2,0:0:0:0:
38,273,132754,5,10,0:0:0:0:
126,366,132992,2,0,P|165:364|207:340,1,80,2|0,0:0|0:0,0:0:0:0:
307,250,133468,1,8,0:0:0:0:
458,306,133706,1,2,3:0:0:0:
458,306,133945,2,0,B|362:281|387:355|303:342,1,160,2|0,0:0|0:0,0:0:0:0:
183,250,134659,6,0,P|205:283|201:328,2,80,10|0|0,0:0|0:0|0:0,0:0:0:0:
183,250,135373,1,8,0:0:0:0:
54,153,135611,2,0,B|127:184|127:184|202:155,1,160,2|0,3:0|0:0,0:0:0:0:
347,53,136325,1,0,0:0:0:0:
347,53,136564,6,0,B|320:83|284:88|284:88|246:41|190:59,1,160,10|0,0:0|0:0,0:0:0:0:
86,90,137278,1,8,0:0:0:0:
0,210,137516,1,2,3:0:0:0:
0,210,137754,2,0,B|55:204|55:204|93:228|93:228|155:221,1,160,2|0,0:0|0:0,0:0:0:0:
152,222,138468,5,10,0:0:0:0:
250,46,138945,1,2,0:0:0:0:
316,116,139183,1,8,0:0:0:0:
507,44,139421,2,0,P|434:49|411:123,1,160,2|0,3:0|0:0,0:0:0:0:
459,269,140135,1,2,0:0:0:0:
451,256,140214,1,2,0:0:0:0:
443,245,140294,1,2,0:0:0:0:
433,235,140373,5,10,0:0:0:0:
307,176,140611,2,0,P|323:218|316:253,1,80,2|0,0:0|0:0,0:0:0:0:
232,352,141087,1,8,0:0:0:0:
30,339,141325,1,2,3:0:0:0:
30,339,141564,2,0,B|80:332|112:278|112:278|126:314|167:329,1,160,2|0,0:0|0:0,0:0:0:0:
271,267,142278,6,0,P|235:249|195:250,2,80,10|0|0,0:0|0:0|0:0,0:0:0:0:
349,358,142992,1,8,0:0:0:0:
495,376,143230,2,0,L|475:193,1,160,2|0,3:0|0:0,0:0:0:0:
342,107,143945,1,2,0:0:0:0:
342,107,144183,6,0,P|379:123|426:116,1,80,14|0,0:0|0:0,0:0:0:0:
341,6,144659,2,0,P|301:3|265:19,1,80,2|8,0:0|0:0,0:0:0:0:
126,133,145135,1,2,3:0:0:0:
173,30,145373,1,0,0:0:0:0:
173,30,145611,1,2,0:0:0:0:
291,140,145849,1,2,0:0:0:0:
291,140,146087,6,0,P|258:211|177:202,1,160,10|0,0:0|0:0,0:0:0:0:
185,208,146802,1,8,0:0:0:0:
33,300,147040,2,0,P|106:275|176:309,1,160,2|0,3:0|0:0,0:0:0:0:
319,373,147754,1,2,0:0:0:0:
315,358,147833,1,2,0:0:0:0:
313,346,147913,1,2,0:0:0:0:
312,334,147992,5,10,0:0:0:0:
383,228,148230,2,0,P|384:271|411:313,1,80,2|0,0:0|0:0,0:0:0:0:
499,285,148706,1,8,0:0:0:0:
405,145,148944,1,2,3:0:0:0:
405,145,149183,2,0,B|317:121|341:193|245:169,1,160,2|0,0:0|0:0,0:0:0:0:
134,79,149897,6,0,P|154:112|151:151,2,80,10|0|0,0:0|0:0|0:0,0:0:0:0:
24,58,150611,1,8,0:0:0:0:
17,225,150849,2,0,B|102:259|102:259|181:229,1,160,2|0,3:0|0:0,0:0:0:0:
320,78,151563,1,0,0:0:0:0:
320,78,151802,6,0,P|261:111|273:203,1,160,10|0,0:0|0:0,0:0:0:0:
359,272,152516,1,8,0:0:0:0:
504,168,152754,1,2,3:0:0:0:
504,168,152992,2,0,B|462:170|435:207|435:207|411:162|351:155,1,160,2|0,0:0|0:0,0:0:0:0:
375,159,153706,5,10,0:0:0:0:
272,17,154183,1,2,0:0:0:0:
207,95,154421,1,8,0:0:0:0:
34,43,154659,2,0,B|84:48|111:11|111:11|137:31|118:82,1,160,2|0,3:0|0:0,0:0:0:0:
102,187,155373,1,0,0:0:0:0:
201,298,155611,5,10,0:0:0:0:
201,298,155849,2,0,L|211:194,1,80,2|0,0:0|0:0,0:0:0:0:
280,129,156325,1,8,0:0:0:0:
438,211,156563,1,2,3:0:0:0:
438,211,156802,2,0,B|415:248|373:256|373:256|342:206|294:210,1,160,2|0,0:0|0:0,0:0:0:0:
179,148,157516,6,0,P|208:195|198:248,2,80,10|0|0,0:0|0:0|0:0,0:0:0:0:
92,87,158230,1,8,0:0:0:0:
257,24,158468,2,0,B|348:5|312:80|427:58,1,160,2|0,3:0|0:0,0:0:0:0:
406,62,159421,5,12,0:0:0:0:
500,123,159659,1,2,0:0:0:0:
493,136,159738,1,2,0:0:0:0:
487,146,159818,1,2,0:0:0:0:
480,156,159897,2,0,P|436:154|396:180,1,80,2|8,0:0|0:0,0:0:0:0:
309,299,160373,1,2,3:0:0:0:
408,259,160611,1,8,0:0:0:0:
277,157,160849,1,8,3:0:0:0:
160,152,161087,1,8,3:0:0:0:
147,156,161167,1,8,3:0:0:0:
136,163,161246,1,8,3:0:0:0:
127,171,161325,6,0,P|123:261|198:275,1,160,14|0,0:0|0:0,0:0:0:0:
311,264,162040,1,8,0:0:0:0:
435,352,162278,1,2,3:0:0:0:
435,352,162516,2,0,P|437:309|423:268,1,80,2|0,0:0|0:0,0:0:0:0:
294,156,162992,1,2,0:0:0:0:
294,156,163230,6,0,B|361:186|361:186|441:154,1,160,10|0,0:0|0:0,0:0:0:0:
326,56,163945,1,8,0:0:0:0:
326,56,164183,2,0,B|246:24|246:24|158:64,1,160,2|0,3:0|0:0,0:0:0:0:
178,54,164897,1,2,0:0:0:0:
76,121,165135,6,0,P|86:80|78:41,2,80,10|0|0,0:0|0:0|0:0,0:0:0:0:
0,223,165849,1,8,0:0:0:0:
18,328,166087,2,0,L|98:316,1,80,2|0,3:0|0:0,0:0:0:0:
198,233,166564,2,0,L|118:222,1,80,2|0,0:0|0:0,0:0:0:0:
257,306,167040,6,0,P|291:235|260:162,1,160,10|0,0:0|0:0,0:0:0:0:
353,3,167754,1,8,0:0:0:0:
353,3,167992,2,0,P|324:75|358:145,1,160,2|0,3:0|0:0,0:0:0:0:
475,249,168706,1,2,0:0:0:0:
484,244,168785,1,2,0:0:0:0:
496,240,168865,1,2,0:0:0:0:
506,238,168945,6,0,L|512:159,2,80,10|0|0,0:0|0:0|0:0,0:0:0:0:
509,363,169659,1,8,0:0:0:0:
394,267,169897,2,0,P|348:250|299:265,1,80,2|0,3:0|0:0,0:0:0:0:
215,297,170373,1,2,0:0:0:0:
51,211,170611,1,0,0:0:0:0:
51,211,170849,6,0,B|126:245|128:167|212:203,1,160,10|0,0:0|0:0,0:0:0:0:
301,267,171564,1,8,0:0:0:0:
435,152,171802,2,0,P|411:190|409:245,1,80,2|0,3:0|0:0,0:0:0:0:
292,98,172278,2,0,P|313:131|320:170,1,80,2|0,0:0|0:0,0:0:0:0:
315,339,172754,6,0,P|293:265|196:269,1,160,10|0,0:0|0:0,0:0:0:0:
113,299,173468,1,8,0:0:0:0:
0,170,173706,2,0,P|81:200|152:166,1,160,2|0,3:0|0:0,0:0:0:0:
237,82,174421,1,0,0:0:0:0:
345,146,174659,5,10,0:0:0:0:
345,146,174897,2,0,P|341:185|321:219,1,80,8|0,0:0|0:0,0:0:0:0:
321,219,175373,1,8,0:0:0:0:
443,329,175611,2,0,P|424:293|421:254,1,80,2|0,3:0|0:0,0:0:0:0:
446,113,176087,1,2,0:0:0:0:
319,25,176325,1,8,0:0:0:0:
319,25,176564,6,0,L|159:39,1,160,14|0,0:0|0:0,0:0:0:0:
32,128,177278,1,8,0:0:0:0:
32,128,177516,2,0,L|191:142,1,160,2|0,3:0|0:0,0:0:0:0:
191,142,178230,1,0,0:0:0:0:
337,203,178468,6,0,P|287:212|262:239,2,80,10|0|0,0:0|0:0|0:0,0:0:0:0:
492,246,179183,1,8,0:0:0:0:
492,246,179421,2,0,L|478:150,1,80,2|0,3:0|0:0,0:0:0:0:
415,46,179897,1,2,0:0:0:0:
242,37,180135,1,0,0:0:0:0:
242,37,180373,6,0,P|291:69|292:166,1,160,10|0,0:0|0:0,0:0:0:0:
156,277,181088,1,8,0:0:0:0:
156,277,181325,2,0,P|185:261|234:256,1,80,2|0,3:0|0:0,0:0:0:0:
371,282,181801,1,2,0:0:0:0:
485,225,182041,1,0,0:0:0:0:
485,225,182279,6,0,L|476:145,2,80,10|0|0,0:0|0:0|0:0,0:0:0:0:
509,379,182993,1,8,0:0:0:0:
509,379,183231,2,0,P|479:343|430:333,1,80,2|0,3:0|0:0,0:0:0:0:
321,318,183706,1,2,0:0:0:0:
172,378,183944,1,0,0:0:0:0:
172,378,184183,6,0,B|208:309|208:309|171:231,1,160,10|0,0:0|0:0,0:0:0:0:
76,139,184897,1,8,0:0:0:0:
76,139,185135,2,0,L|64:218,1,80,2|0,3:0|0:0,0:0:0:0:
168,118,185611,2,0,L|156:38,1,80,2|0,0:0|0:0,0:0:0:0:
250,169,186087,6,0,P|278:102|376:109,1,160,10|0,0:0|0:0,0:0:0:0:
512,157,186802,1,8,0:0:0:0:
512,157,187040,2,0,P|470:154|434:171,1,80,2|0,3:0|0:0,0:0:0:0:
350,245,187516,1,2,0:0:0:0:
508,331,187754,1,0,0:0:0:0:
508,331,187993,6,0,B|465:297|433:303|433:303|408:336|365:336,1,160,10|0,0:0|0:0,0:0:0:0:
234,263,188706,1,8,0:0:0:0:
234,263,188944,2,0,P|263:299|267:349,1,80,2|0,3:0|0:0,0:0:0:0:
132,244,189421,2,0,P|141:205|167:175,1,80,2|0,0:0|0:0,0:0:0:0:
229,148,189778,1,8,0:0:0:0:
229,148,189897,6,0,L|307:163,1,80,8|0,3:0|0:0,0:0:0:0:
358,214,190254,2,0,L|436:198,1,80,8|0,3:0|0:0,0:0:0:0:
500,196,190612,1,8,3:0:0:0:
350,47,190849,5,10,0:0:0:0:
212,135,191087,1,10,0:0:0:0:
212,135,191206,1,10,0:0:0:0:
212,135,191325,1,8,3:0:0:0:
222,169,191444,1,8,3:0:0:0:
246,198,191564,1,8,3:0:0:0:
278,214,191683,1,8,3:0:0:0:
278,214,191802,6,0,P|209:280|287:286,1,191.999994140625,14|0,0:0|0:0,0:0:0:0:
352,152,192516,2,0,P|311:121|256:115,1,95.9999970703126,8|2,0:0|3:0,0:0:0:0:
109,70,192992,2,0,P|150:39|205:33,1,95.9999970703126,2|0,0:0|0:0,0:0:0:0:
441,19,193468,1,2,0:0:0:0:
441,19,193706,6,0,B|388:122|492:110|439:213,1,191.999994140625,10|0,0:0|0:0,0:0:0:0:
369,344,194421,1,8,0:0:0:0:
438,369,194659,2,0,P|381:266|310:299,1,191.999994140625,2|0,3:0|0:0,0:0:0:0:
227,355,195373,1,2,0:0:0:0:
36,284,195611,5,10,0:0:0:0:
44,180,195849,2,0,P|97:211|104:246,1,95.9999970703126,2|0,0:0|0:0,0:0:0:0:
98,101,196325,2,0,P|98:38|125:15,1,95.9999970703126,8|2,0:0|3:0,0:0:0:0:
278,81,196802,2,0,P|223:112|189:99,1,95.9999970703126,2|0,0:0|0:0,0:0:0:0:
298,4,197278,1,2,0:0:0:0:
475,41,197516,5,10,0:0:0:0:
475,41,197754,2,0,P|428:34|397:68,1,95.9999970703126,8|0,0:0|0:0,0:0:0:0:
376,263,198230,1,8,0:0:0:0:
412,183,198468,2,0,B|309:145|330:245|218:214,1,191.999994140625,2|0,3:0|0:0,0:0:0:0:
97,10,199183,1,2,0:0:0:0:
115,6,199302,1,2,0:0:0:0:
136,7,199421,6,0,B|182:26|191:77|191:77|132:95|131:152,1,191.999994140625,14|0,0:0|0:0,0:0:0:0:
74,315,200135,2,0,B|94:271|94:271|74:226,1,95.9999970703126,8|2,0:0|3:0,0:0:0:0:
190,376,200611,2,0,B|171:332|171:332|191:288,1,95.9999970703126,2|0,0:0|0:0,0:0:0:0:
396,194,201087,1,2,0:0:0:0:
396,194,201325,6,0,P|300:221|208:172,1,191.999994140625,10|0,0:0|0:0,0:0:0:0:
103,32,202040,1,8,0:0:0:0:
67,108,202278,2,0,B|136:115|136:115|184:83|184:83|248:89,1,191.999994140625,2|0,3:0|0:0,0:0:0:0:
370,57,202992,1,2,0:0:0:0:
512,237,203230,5,10,0:0:0:0:
414,267,203468,2,0,L|424:167,1,95.9999970703126,2|0,0:0|0:0,0:0:0:0:
325,289,203944,2,0,L|335:387,1,95.9999970703126,8|2,0:0|3:0,0:0:0:0:
237,267,204421,2,0,L|247:167,1,95.9999970703126,2|0,0:0|0:0,0:0:0:0:
189,24,204897,1,0,0:0:0:0:
37,78,205135,5,10,0:0:0:0:
37,78,205373,2,0,P|73:106|119:99,1,95.9999970703126,8|0,0:0|0:0,0:0:0:0:
287,15,205849,1,8,0:0:0:0:
335,117,206087,1,2,3:0:0:0:
182,265,206325,1,8,3:0:0:0:
231,163,206564,1,2,0:0:0:0:
436,99,206802,1,2,0:0:0:0:
457,100,206921,1,2,0:0:0:0:
475,106,207040,6,0,B|522:132|529:188|529:188|479:155|421:183,1,191.999994140625,14|0,0:0|0:0,0:0:0:0:
340,282,207754,2,0,P|383:255|430:254,1,95.9999970703126,8|2,0:0|3:0,0:0:0:0:
308,363,208230,2,0,P|264:336|217:335,1,95.9999970703126,2|0,0:0|0:0,0:0:0:0:
30,373,208706,1,2,0:0:0:0:
30,373,208944,6,0,B|71:335|63:287|63:287|12:245|40:186,1,191.999994140625,10|0,0:0|0:0,0:0:0:0:
131,39,209659,1,8,0:0:0:0:
190,91,209897,2,0,B|170:136|114:151|114:151|84:99|20:109,1,191.999994140625,2|0,3:0|0:0,0:0:0:0:
109,222,210611,1,2,0:0:0:0:
274,130,210849,5,10,0:0:0:0:
352,153,211087,2,0,P|377:208|353:251,1,95.9999970703126,2|0,0:0|0:0,0:0:0:0:
509,136,211564,2,0,P|462:137|428:105,1,95.9999970703126,8|2,0:0|3:0,0:0:0:0:
445,280,212041,2,0,P|467:238|512:225,1,95.9999970703126,2|0,0:0|0:0,0:0:0:0:
407,358,212516,1,2,0:0:0:0:
278,301,212754,5,10,0:0:0:0:
278,301,212992,2,0,P|226:286|183:286,1,95.9999970703126,8|0,0:0|0:0,0:0:0:0:
19,324,213468,1,8,0:0:0:0:
87,369,213706,2,0,B|136:268|21:281|79:170,1,191.999994140625,2|0,3:0|0:0,0:0:0:0:
269,16,214421,1,2,0:0:0:0:
279,34,214540,1,2,0:0:0:0:
282,56,214659,6,0,P|252:121|135:87,1,191.999994140625,14|0,0:0|0:0,0:0:0:0:
228,220,215373,2,0,P|232:266|205:314,1,95.9999970703126,8|2,0:0|3:0,0:0:0:0:
351,383,215849,1,2,0:0:0:0:
351,383,216087,2,0,P|328:341|333:294,1,95.9999970703126,2|0,0:0|0:0,0:0:0:0:
512,177,216563,6,0,B|400:209|400:209|322:163,1,191.999994140625,10|0,0:0|0:0,2:0:0:0:
179,37,217278,1,8,0:0:0:0:
135,102,217516,2,0,B|205:136|249:75|249:75|230:111|246:144,1,191.999994140625,2|0,3:0|0:0,0:0:0:0:
283,279,218230,1,2,0:0:0:0:
475,346,218468,5,10,0:0:0:0:
404,289,218706,2,0,L|392:384,1,95.9999970703126,2|0,0:0|0:0,0:0:0:0:
493,255,219183,2,0,L|481:159,1,95.9999970703126,8|2,0:0|3:0,0:0:0:0:
502,9,219659,1,0,0:0:0:0:
365,85,219897,1,2,0:0:0:0:
365,85,220135,1,0,0:0:0:0:
240,10,220373,5,10,0:0:0:0:
240,10,220611,2,0,P|267:47|262:94,1,95.9999970703126,8|0,0:0|0:0,0:0:0:0:
177,227,221087,1,8,0:0:0:0:
192,133,221325,1,2,3:0:0:0:
192,133,221802,1,0,0:0:0:0:
6,160,222040,1,2,0:0:0:0:
6,160,222159,1,2,0:0:0:0:
6,160,222278,1,6,0:0:0:0:
12,166,223230,5,14,0:0:0:0:
12,166,223349,1,8,3:0:0:0:
12,166,223468,1,10,0:0:0:0:
27,196,223587,1,8,3:0:0:0:
84,237,223706,1,14,0:0:0:0:
69,269,223825,1,8,3:0:0:0:
12,310,223944,1,14,0:0:0:0:
27,343,224063,1,8,3:0:0:0:
92,371,224183,6,0,B|208:395|178:295|290:327,1,207.999990478516,14|0,0:0|0:0,0:0:0:0:
447,307,224897,2,0,L|450:332,1,25.9999988098145,10|0,0:0|0:0,0:0:0:0:
469,284,225016,2,0,L|472:309,1,25.9999988098145,2|0,0:0|0:0,0:0:0:0:
489,259,225135,2,0,P|457:225|391:222,1,103.999995239258,2|0,3:0|0:0,0:0:0:0:
339,183,225492,2,0,P|307:217|241:220,1,103.999995239258,2|0,0:0|0:0,0:0:0:0:
192,207,225849,1,2,0:0:0:0:
120,22,226087,5,10,0:0:0:0:
11,92,226325,1,2,0:0:0:0:
11,92,226444,2,0,L|-1:200,1,103.999995239258,2|0,0:0|0:0,0:0:0:0:
0,259,226802,1,10,0:0:0:0:
111,364,227040,2,0,P|101:261|187:288,1,207.999990478516,2|0,3:0|0:0,0:0:0:0:
175,269,227754,1,2,0:0:0:0:
325,178,227992,5,10,0:0:0:0:
345,266,228230,1,0,0:0:0:0:
208,126,228468,1,2,0:0:0:0:
228,37,228706,1,10,0:0:0:0:
228,37,228944,2,0,P|277:12|333:38,1,103.999995239258,2|0,3:0|0:0,0:0:0:0:
435,177,229421,1,2,0:0:0:0:
488,93,229659,1,0,0:0:0:0:
309,133,229897,6,0,P|274:179|274:235,1,103.999995239258,10|0,0:0|0:0,0:0:0:0:
266,295,230254,2,0,P|260:243|228:204,1,103.999995239258,2|0,0:0|0:0,0:0:0:0:
170,179,230611,1,10,0:0:0:0:
37,351,230849,1,2,3:0:0:0:
37,351,231325,2,0,P|41:337|39:318,1,25.9999988098145,2|0,0:0|0:0,0:0:0:0:
69,350,231444,2,0,P|68:335|59:318,1,25.9999988098145,2|0,0:0|0:0,0:0:0:0:
99,338,231564,2,0,P|93:324|79:311,1,25.9999988098145,2|0,0:0|0:0,0:0:0:0:
0,186,231802,6,0,B|17:236|78:242|78:242|123:185|178:202,1,207.999990478516,14|0,0:0|0:0,0:0:0:0:
343,283,232516,2,0,L|340:258,1,25.9999988098145,10|0,0:0|0:0,0:0:0:0:
399,378,232754,2,0,P|405:327|444:294,1,103.999995239258,2|0,3:0|0:0,0:0:0:0:
509,288,233111,2,0,P|502:237|463:204,1,103.999995239258,2|0,0:0|0:0,0:0:0:0:
405,189,233468,1,2,0:0:0:0:
482,2,233706,5,10,0:0:0:0:
396,68,233944,1,0,0:0:0:0:
188,43,234183,1,2,0:0:0:0:
102,109,234421,1,10,0:0:0:0:
102,109,234659,2,0,L|88:-8,1,103.999995239258,2|0,3:0|0:0,0:0:0:0:
210,103,235135,2,0,L|196:220,1,103.999995239258,2|0,0:0|0:0,0:0:0:0:
38,369,235611,6,0,P|85:289|196:343,1,207.999990478516,10|0,0:0|0:0,0:0:0:0:
305,211,236325,2,0,L|302:186,1,25.9999988098145,10|0,0:0|0:0,0:0:0:0:
330,221,236444,2,0,L|327:196,1,25.9999988098145,2|0,0:0|0:0,0:0:0:0:
353,228,236564,2,0,P|445:199|498:280,2,207.999990478516,2|0|8,3:0|0:0|0:0,0:0:0:0:
353,228,237754,5,8,0:0:0:0:
293,26,237992,1,10,0:0:0:0:
170,69,238230,1,8,0:0:0:0:
170,69,238468,2,0,P|157:91|149:120,1,51.999997619629,12|0,0:0|0:0,0:0:0:0:
46,147,238706,2,0,P|53:172|55:201,1,51.999997619629,8|0,3:0|0:0,0:0:0:0:
38,364,238944,1,8,3:0:0:0:
98,333,239064,1,8,3:0:0:0:
154,370,239183,1,8,3:0:0:0:
215,339,239303,1,8,3:0:0:0:
215,339,239421,6,0,B|255:295|223:215|223:215|262:258|308:239,1,207.999990478516,14|0,0:0|0:0,0:0:0:0:
455,156,240135,2,0,L|458:181,1,25.9999988098145,10|0,0:0|0:0,0:0:0:0:
433,179,240254,2,0,L|436:204,1,25.9999988098145,2|0,0:0|0:0,0:0:0:0:
412,203,240373,2,0,P|407:253|437:295,1,103.999995239258,2|0,3:0|0:0,0:0:0:0:
492,342,240730,2,0,P|450:313|399:317,1,103.999995239258,2|0,2:0|2:0,2:0:0:0:
348,347,241087,1,2,0:0:0:0:
195,374,241325,6,0,L|213:271,1,103.999995239258,10|0,0:0|0:0,0:0:0:0:
146,276,241683,2,0,L|127:173,1,103.999995239258,2|0,0:0|0:0,0:0:0:0:
92,119,242039,1,2,0:0:0:0:
212,36,242278,2,0,P|156:3|101:14,1,103.999995239258,2|0,3:0|0:0,0:0:0:0:
258,114,242754,2,0,P|313:81|368:92,1,103.999995239258,2|0,0:0|0:0,0:0:0:0:
492,181,243230,5,10,0:0:0:0:
512,93,243468,1,0,0:0:0:0:
375,202,243706,1,2,0:0:0:0:
395,291,243944,1,10,0:0:0:0:
395,291,244183,2,0,B|443:272|443:272|496:292,1,103.999995239258,2|0,3:0|0:0,0:0:0:0:
328,360,244659,2,0,B|280:379|280:379|230:360,1,103.999995239258,2|0,0:0|0:0,0:0:0:0:
42,281,245135,5,10,0:0:0:0:
110,339,245373,1,8,0:0:0:0:
110,339,245492,2,0,P|129:291|126:239,1,103.999995239258,2|0,0:0|0:0,0:0:0:0:
106,185,245849,1,10,0:0:0:0:
280,290,246087,1,2,3:0:0:0:
280,290,246564,2,0,P|279:302|276:315,1,25.9999988098145,2|0,0:0|0:0,0:0:0:0:
306,268,246683,2,0,P|309:280|311:293,1,25.9999988098145,2|0,0:0|0:0,0:0:0:0:
379,261,246802,2,0,P|371:271|364:282,1,25.9999988098145,2|0,0:0|0:0,0:0:0:0:
394,289,246921,2,0,P|390:301|388:314,1,25.9999988098145,2|0,0:0|0:0,0:0:0:0:
457,248,247040,5,14,0:0:0:0:
471,212,247159,1,0,0:0:0:0:
466,173,247278,1,0,0:0:0:0:
436,147,247397,1,0,0:0:0:0:
397,145,247516,1,2,0:0:0:0:
368,119,247635,1,0,0:0:0:0:
362,80,247754,1,8,0:0:0:0:
377,44,247873,1,0,0:0:0:0:
377,44,247992,5,2,3:0:0:0:
334,66,248111,1,0,0:0:0:0:
287,73,248230,1,0,0:0:0:0:
240,62,248349,1,0,0:0:0:0:
203,31,248468,1,2,0:0:0:0:
156,21,248587,1,0,0:0:0:0:
108,26,248706,1,0,0:0:0:0:
66,49,248825,1,0,0:0:0:0:
66,49,248944,6,0,P|86:95|72:144,1,103.999995239258,10|0,0:0|0:0,0:0:0:0:
33,193,249302,1,2,0:0:0:0:
33,193,249421,1,2,0:0:0:0:
16,338,249659,1,10,0:0:0:0:
28,314,249778,1,2,0:0:0:0:
47,300,249897,2,0,L|150:290,1,103.999995239258,2|0,3:0|0:0,0:0:0:0:
209,308,250254,1,2,0:0:0:0:
209,308,250373,1,2,0:0:0:0:
350,368,250611,5,2,0:0:0:0:
367,361,250730,1,2,0:0:0:0:
380,344,250849,2,0,P|388:323|389:283,3,51.999997619629,14|0|0|0,0:0|0:0|0:0|0:0,0:0:0:0:
452,280,251325,2,0,P|443:259|443:219,3,51.999997619629,2|0|8|0,0:0|0:0|0:0|0:0,0:0:0:0:
387,203,251802,2,0,P|395:182|396:142,3,51.999997619629,2|0|0|0,3:0|0:0|0:0|0:0,0:0:0:0:
432,94,252278,2,0,P|385:67|331:77,1,103.999995239258,10|0,0:0|0:0,0:0:0:0:
219,119,252635,2,0,L|222:94,1,25.9999988098145,2|0,0:0|0:0,0:0:0:0:
198,109,252754,5,10,0:0:0:0:
249,221,252992,1,8,3:0:0:0:
251,230,253071,1,8,3:0:0:0:
253,239,253151,1,8,3:0:0:0:
254,248,253230,1,10,0:0:0:0:
190,363,253468,1,8,3:0:0:0:
26,328,253706,6,0,L|11:225,1,103.999995239258,10|0,0:0|0:0,0:0:0:0:
19,167,254064,1,2,0:0:0:0:
19,167,254183,1,10,0:0:0:0:
111,88,254341,1,8,3:0:0:0:
103,109,254421,1,8,3:0:0:0:
103,131,254500,1,4,3:0:0:0:
111,155,254579,1,4,3:0:0:0:
111,155,254659,6,0,B|131:201|189:219|189:219|218:159|283:161,1,207.999990478516,14|0,0:0|0:0,0:0:0:0:
453,208,255373,2,0,P|404:206|342:231,1,103.999995239258,8|2,0:0|3:0,0:0:0:0:
512,92,255849,2,0,P|462:94|401:68,1,103.999995239258,2|0,0:0|0:0,0:0:0:0:
220,2,256325,1,2,0:0:0:0:
144,2,256564,6,0,B|92:1|53:52|53:52|117:74|112:136,1,207.999990478516,10|0,0:0|0:0,0:0:0:0:
79,285,257278,1,8,0:0:0:0:
1,244,257516,2,0,P|5:192|24:144,2,103.999995239258,2|0|0,3:0|0:0|0:0,0:0:0:0:
23,347,258230,1,2,0:0:0:0:
179,207,258468,5,10,0:0:0:0:
248,164,258706,2,0,P|306:155|354:198,1,103.999995239258,2|0,0:0|0:0,0:0:0:0:
512,236,259183,2,0,P|467:261|417:254,1,103.999995239258,8|2,0:0|3:0,0:0:0:0:
232,292,259659,2,0,P|290:283|338:326,1,103.999995239258,2|0,0:0|0:0,0:0:0:0:
245,382,260135,1,2,0:0:0:0:
104,344,260373,5,10,0:0:0:0:
104,344,260611,2,0,L|93:241,1,103.999995239258,8|0,0:0|0:0,0:0:0:0:
89,64,261087,1,8,0:0:0:0:
0,63,261325,2,0,P|74:154|148:134,1,207.999990478516,2|0,3:0|0:0,0:0:0:0:
433,33,262040,1,2,0:0:0:0:
411,27,262159,1,2,0:0:0:0:
388,30,262278,6,0,B|287:74|371:131|269:186,1,207.999990478516,14|0,0:0|0:0,0:0:0:0:
83,250,262992,2,0,P|134:242|182:261,1,103.999995239258,8|2,0:0|3:0,0:0:0:0:
341,330,263468,2,0,P|291:322|243:341,1,103.999995239258,2|0,0:0|0:0,0:0:0:0:
463,308,263944,1,2,0:0:0:0:
512,249,264183,6,0,B|541:179|485:142|485:142|459:202|398:192,1,207.999990478516,10|0,0:0|0:0,0:0:0:0:
224,173,264897,1,8,0:0:0:0:
292,240,265135,2,0,P|308:293|287:342,1,103.999995239258,2|0,3:0|0:0,0:0:0:0:
291,336,265611,1,0,0:0:0:0:
173,383,265849,1,2,0:0:0:0:
36,242,266087,5,10,0:0:0:0:
59,175,266325,2,0,P|102:148|158:146,1,103.999995239258,2|0,0:0|0:0,0:0:0:0:
325,94,266802,2,0,P|282:67|226:65,1,103.999995239258,8|2,0:0|3:0,0:0:0:0:
293,177,267278,1,0,0:0:0:0:
412,107,267516,1,2,0:0:0:0:
412,107,267754,1,0,0:0:0:0:
512,237,267992,5,10,0:0:0:0:
512,237,268230,2,0,P|501:283|452:306,1,103.999995239258,8|0,0:0|0:0,0:0:0:0:
262,277,268706,1,8,0:0:0:0:
364,229,268944,1,2,3:0:0:0:
196,365,269182,1,8,3:0:0:0:
94,316,269421,1,2,0:0:0:0:
76,134,269659,1,2,0:0:0:0:
89,118,269778,1,2,0:0:0:0:
107,110,269897,6,0,B|224:68|194:173|338:109,1,207.999990478516,14|0,0:0|0:0,0:0:0:0:
445,8,270611,2,0,P|398:63|403:118,1,103.999995239258,8|2,0:0|3:0,0:0:0:0:
490,225,271087,2,0,P|496:174|472:129,1,103.999995239258,2|0,0:0|0:0,0:0:0:0:
388,289,271563,1,2,0:0:0:0:
407,361,271802,6,0,P|420:307|299:266,1,207.999990478516,10|0,0:0|0:0,0:0:0:0:
175,359,272516,1,8,0:0:0:0:
91,293,272754,2,0,L|100:189,2,103.999995239258,2|0|0,3:0|0:0|0:0,0:0:0:0:
5,170,273468,1,2,0:0:0:0:
142,46,273706,5,10,0:0:0:0:
205,22,273944,2,0,P|253:25|287:70,1,103.999995239258,2|0,0:0|0:0,0:0:0:0:
448,70,274421,2,0,P|399:73|365:118,1,103.999995239258,8|2,0:0|3:0,0:0:0:0:
357,237,274897,1,0,0:0:0:0:
216,139,275135,1,2,0:0:0:0:
216,139,275373,1,0,0:0:0:0:
114,214,275611,5,10,2:0:0:0:
114,214,275849,2,0,P|106:155|58:137,1,103.999995239258,8|0,2:0|2:0,2:0:0:0:
105,320,276325,1,8,0:0:0:0:
185,281,276563,2,0,B|224:262|261:287|261:287|280:275|294:259|294:259|338:298|391:270,1,207.999990478516,2|0,3:0|0:0,0:0:0:0:
512,95,277278,1,2,0:0:0:0:
490,93,277397,1,2,0:0:0:0:
467,98,277516,6,0,B|416:118|410:181|410:181|383:118|303:116,1,207.999990478516,14|0,0:0|0:0,0:0:0:0:
172,72,278230,2,0,P|212:83|271:45,1,103.999995239258,8|2,0:0|3:0,0:0:0:0:
125,149,278706,2,0,P|81:122|32:132,1,103.999995239258,2|0,0:0|0:0,0:0:0:0:
131,308,279182,1,2,0:0:0:0:
202,300,279421,6,0,B|267:270|241:186|241:186|277:224|326:215,1,207.999990478516,10|0,0:0|0:0,0:0:0:0:
477,178,280135,1,8,0:0:0:0:
402,126,280373,2,0,L|389:248,1,103.999995239258,2|0,3:0|0:0,0:0:0:0:
390,229,280849,1,0,0:0:0:0:
469,326,281087,1,2,0:0:0:0:
270,378,281325,5,10,0:0:0:0:
193,352,281564,2,0,P|173:279|215:239,1,103.999995239258,2|0,2:0|0:0,2:0:0:0:
368,187,282040,2,0,P|342:229|293:240,1,103.999995239258,8|2,2:0|3:0,2:0:0:0:
139,117,282516,2,0,P|189:119|223:156,1,103.999995239258,2|0,2:0|2:0,2:0:0:0:
263,310,282992,1,0,0:0:0:0:
432,371,283230,5,10,0:0:0:0:
432,371,283468,2,0,L|444:264,1,103.999995239258,8|0,0:0|0:0,0:0:0:0:
419,89,283944,1,8,0:0:0:0:
352,151,284183,2,0,P|435:179|496:131,1,155.999992858887,2|0,3:0|0:0,0:0:0:0:
508,89,284659,1,2,0:0:0:0:
355,20,284897,1,2,0:0:0:0:
355,20,285135,6,0,B|263:-3|273:95|170:61,1,176.000005371094,14|0,0:0|0:0,0:0:0:0:
5,47,285849,1,8,0:0:0:0:
5,47,286087,2,0,P|48:48|83:74,1,88.000002685547,2|0,3:0|0:0,0:0:0:0:
145,173,286564,1,2,0:0:0:0:
37,262,286802,1,0,0:0:0:0:
37,262,287040,6,0,L|48:150,1,88.000002685547,10|0,0:0|0:0,0:0:0:0:
138,320,287516,1,2,0:0:0:0:
29,361,287754,1,8,0:0:0:0:
173,223,287992,1,2,3:0:0:0:
282,264,288230,1,0,0:0:0:0:
363,126,288468,1,2,0:0:0:0:
512,211,288706,1,2,0:0:0:0:
512,211,288825,1,2,0:0:0:0:
512,211,288944,6,0,B|480:175|442:170|442:170|410:222|346:209,1,176.000005371094,10|0,0:0|0:0,0:0:0:0:
188,175,289658,1,8,0:0:0:0:
188,175,289897,2,0,P|225:153|269:154,1,88.000002685547,2|0,3:0|0:0,0:0:0:0:
378,234,290373,1,2,0:0:0:0:
269,326,290611,1,0,0:0:0:0:
269,326,290849,6,0,L|181:313,1,88.000002685547,10|8,0:0|0:0,0:0:0:0:
39,240,291325,2,0,L|126:227,1,88.000002685547,2|8,0:0|0:0,0:0:0:0:
269,154,291802,2,0,L|181:141,1,88.000002685547,2|0,3:0|0:0,0:0:0:0:
275,240,292278,1,2,0:0:0:0:
421,182,292515,1,2,0:0:0:0:
421,182,292595,1,2,0:0:0:0:
421,182,292675,1,2,0:0:0:0:
421,182,292754,6,0,P|413:95|313:103,1,176.000005371094,14|0,0:0|0:0,0:0:0:0:
164,49,293468,1,8,0:0:0:0:
164,49,293706,2,0,P|207:57|265:28,1,88.000002685547,2|0,3:0|0:0,0:0:0:0:
135,143,294183,1,2,0:0:0:0:
36,66,294421,1,0,0:0:0:0:
36,66,294659,6,0,L|26:153,1,88.000002685547,10|0,0:0|0:0,0:0:0:0:
0,288,295135,1,2,0:0:0:0:
146,202,295373,1,8,0:0:0:0:
241,176,295611,2,0,L|250:263,1,88.000002685547,4|0,0:0|0:0,0:0:0:0:
361,378,296087,1,8,3:0:0:0:
361,378,296206,1,8,3:0:0:0:
361,378,296325,1,8,3:0:0:0:
512,295,296563,6,0,B|418:259|418:259|336:296,1,176.000005371094,14|0,0:0|0:0,0:0:0:0:
225,354,297277,1,2,0:0:0:0:
97,298,297516,2,0,P|101:246|133:221,1,88.000002685547,2|0,3:0|0:0,0:0:0:0:
181,183,297873,2,0,P|177:131|145:106,1,88.000002685547,8|0,3:0|0:0,0:0:0:0:
99,82,298230,1,8,3:0:0:0:
260,147,298468,6,0,B|358:179|335:86|441:112,1,176.000005371094,14|0,0:0|0:0,0:0:0:0:
512,176,299183,1,0,0:0:0:0:
464,253,299421,1,2,0:0:0:0:
294,324,299897,5,2,0:0:0:0:
246,247,300135,1,0,0:0:0:0:
246,247,300373,1,2,0:0:0:0:
246,247,302278,5,2,0:0:0:0:
202,184,302516,1,0,0:0:0:0:
128,163,302754,1,0,0:0:0:0:
56,183,302992,1,2,0:0:0:0:
212,337,304183,1,2,0:0:0:0:
284,357,304421,1,0,0:0:0:0:
358,336,304659,1,0,0:0:0:0:
402,273,304897,1,2,0:0:0:0:
402,273,306087,5,2,0:0:0:0:
391,200,306325,1,0,0:0:0:0:
382,126,306564,1,0,0:0:0:0:
372,53,306802,1,2,0:0:0:0:
159,4,307992,1,2,0:0:0:0:
149,77,308230,1,0,0:0:0:0:
140,151,308469,1,0,0:0:0:0:
129,224,308707,1,2,0:0:0:0:
129,224,309897,5,2,0:0:0:0:
196,257,310135,1,0,0:0:0:0:
256,210,310373,1,0,0:0:0:0:
324,243,310611,1,2,0:0:0:0:
512,104,311802,1,2,0:0:0:0:
445,137,312040,1,0,0:0:0:0:
385,90,312278,1,0,0:0:0:0:
317,123,312516,1,2,0:0:0:0:
317,123,313706,5,2,0:0:0:0:
378,170,313944,1,0,0:0:0:0:
399,244,314182,1,0,0:0:0:0:
379,316,314420,1,2,0:0:0:0:
91,376,315611,1,2,0:0:0:0:
71,304,315849,1,0,0:0:0:0:
92,230,316087,1,0,0:0:0:0:
153,183,316325,1,2,0:0:0:0:
153,183,317516,6,0,L|144:106,2,64,2|0|0,0:0|0:0|0:0,0:0:0:0:
203,241,318230,1,2,0:0:0:0:
303,292,319421,2,0,L|294:369,2,64,2|0|0,0:0|0:0|0:0,0:0:0:0:
353,234,320135,1,2,0:0:0:0:
353,234,321325,6,0,P|384:243|430:243,2,64,2|0|0,0:0|0:0|0:0,0:0:0:0:
279,202,322039,1,2,0:0:0:0:
164,119,323230,2,0,P|132:128|87:128,2,64,2|0|0,0:0|0:0|0:0,0:0:0:0:
238,87,323944,1,2,0:0:0:0:
238,87,325135,5,2,0:0:0:0:
260,178,327122,5,2,0:0:0:0:
282,269,329105,5,2,0:0:0:0:
