osu file format v14

[General]
AudioFilename: audio.mp3
AudioLeadIn: 0
PreviewTime: 57194
Countdown: 0
SampleSet: None
StackLeniency: 0.7
Mode: 0
LetterboxInBreaks: 0
WidescreenStoryboard: 1

[Editor]
Bookmarks: 13377,24411,46480,57538,68549,123722,154067,200963,211998,281136
DistanceSpacing: 1
BeatDivisor: 4
GridSize: 4
TimelineZoom: 2.1

[Metadata]
Title:Cat Food
TitleUnicode:Cat Food
Artist:Wotamin
ArtistUnicode:Wotamin
Creator:_Asymmetry_
Version:Tuna
Source:doriko
Tags:hatsune miku wotamin vocaloid cat food rock
BeatmapID:1739256
BeatmapSetID:830095

[Difficulty]
HPDrainRate:6.5
CircleSize:4
OverallDifficulty:9
ApproachRate:9.2
SliderMultiplier:1.4
SliderTickRate:1

[Events]
//Background and Video events
//Break Periods
2,149784,153497
2,155302,199014
2,211508,280566
//Storyboard Layer 0 (Background)
//Storyboard Layer 1 (Fail)
//Storyboard Layer 2 (Pass)
//Storyboard Layer 3 (Foreground)
//Storyboard Sound Samples

[TimingPoints]
2343.02204185684,344.827586206897,4,2,0,100,1,0
13377,-57.1428571428571,4,3,0,100,0,0
13477,-57.1428571428571,4,3,0,100,0,0
14411,-68.9655172413793,4,2,0,100,0,0
16136,-55.5555555555556,4,2,0,100,0,0
17343,-74.0740740740741,4,2,0,100,0,0
19584,-50,4,2,0,100,0,0
20101,-66.6666666666667,4,2,0,100,0,0
23894,-200,4,2,0,100,0,0
24594,-200,4,3,0,100,0,0
24756,-200,4,3,0,100,0,0
26653,-62.5,4,3,0,100,0,0
35446,-55.5555555555556,4,3,0,100,0,0
36136,-62.5,4,3,0,100,0,0
36480,-71.4285714285714,4,3,0,100,0,0
37687,-58.8235294117647,4,3,0,100,0,0
39411,-62.5,4,3,0,100,0,0
49584,-71.4285714285714,4,3,0,100,0,0
51308,-57.1428571428571,4,3,0,100,0,0
55791,-76.9230769230769,4,3,0,100,0,0
57170,-133.333333333333,4,3,0,100,0,0
57515,-68.9655172413793,4,3,0,100,0,1
58375,-62.5,4,3,0,100,0,1
59239,-71.4285714285714,4,3,0,100,0,1
79608,-71.4285714285714,4,2,1,100,0,1
85101,-142.857142857143,4,3,0,100,0,1
88205,-105.263157894737,4,3,0,100,0,1
91308,-71.4285714285714,4,3,0,100,0,1
94584,-68.9655172413793,4,3,0,100,0,1
96653,-68.9655172413793,4,3,0,5,0,1
96825,-68.9655172413793,4,3,0,100,0,1
97170,-74.0740740740741,4,3,0,5,0,1
97343,-68.9655172413793,4,3,0,100,0,1
101653,-68.9655172413793,4,3,0,100,0,0
101998,-200,4,3,0,100,0,0
104067,-64.5161290322581,4,3,0,100,0,0
108549,-68.9655172413793,4,3,0,50,0,0
123377,-117.647058823529,4,3,0,100,0,0
126825,-68.9655172413793,4,3,0,100,0,0
134411,-68.9655172413793,4,3,0,100,0,0
134756,-68.9655172413793,4,3,0,100,0,0
205446,-51.2820512820513,4,3,0,100,0,0

[Colours]
Combo1 : 64,0,128
Combo2 : 255,0,0
Combo3 : 0,128,0
Combo4 : 0,0,128

[HitObjects]
256,192,7860,12,0,11825,0:0:0:0:
160,216,11998,5,0,0:0:0:0:
276,253,12170,1,0,0:0:0:0:
39,193,12342,1,0,0:0:0:0:
399,209,12515,2,0,B|391:185|391:185|411:173|411:173|391:157|391:157|411:145|411:145|391:129|391:129|411:117|411:117|391:101|391:101|411:85|411:85|407:65,1,210
232,68,13205,5,0,0:0:0:0:
232,68,13291,1,0,0:0:0:0:
232,68,13377,2,0,P|291:77|334:119,1,122.500001168251,12|0,0:0|0:0,0:0:0:0:
304,323,13722,1,0,0:0:0:0:
132,169,13894,1,0,0:0:0:0:
368,100,14067,1,0,0:0:0:0:
372,96,14153,1,0,0:0:0:0:
376,92,14239,1,0,0:0:0:0:
306,228,14411,2,0,P|281:239|248:238,1,50.7500015487671
184,72,14584,6,0,B|137:39|137:39|107:83|107:83|32:90|12:159,1,203.000006195069,4|0,0:0|0:0,0:0:0:0:
89,229,15101,1,0,0:0:0:0:
227,158,15273,1,0,0:0:0:0:
373,282,15446,1,0,0:0:0:0:
80,200,15791,1,0,0:0:0:0:
279,131,16136,6,0,B|342:91|398:143,1,125.999996154785,4|0,0:0|0:0,0:0:0:0:
420,214,16480,1,0,0:0:0:0:
236,53,16653,2,0,B|164:48|140:119,1,125.999996154785,4|0,0:0|0:0,0:0:0:0:
176,225,16998,1,0,0:0:0:0:
60,316,17170,1,0,0:0:0:0:
43,90,17342,6,0,B|127:54|127:54|295:74,1,251.999992309571,4|0,0:0|0:0,0:0:0:0:
440,136,17860,1,0,0:0:0:0:
149,212,18032,1,0,0:0:0:0:
440,136,18204,1,4,0:0:0:0:
120,300,18549,1,4,0:0:0:0:
104,304,18636,1,0,0:0:0:0:
88,308,18722,1,0,0:0:0:0:
76,312,18808,1,0,0:0:0:0:
60,315,18894,6,4,B|48:264|104:208,1,94.5000003604889
372,237,19239,1,0,0:0:0:0:
376,233,19325,1,0,0:0:0:0:
380,229,19411,1,0,0:0:0:0:
272,40,19584,2,0,B|208:8|136:48,1,140
130,225,19929,1,0,0:0:0:0:
271,276,20101,2,4,B|329:293|329:293|477:190,1,210.000008010865,4|0,0:0|0:0,0:0:0:0:
324,180,20618,1,0,0:0:0:0:
324,180,20705,1,0,0:0:0:0:
324,180,20791,1,0,0:0:0:0:
82,131,20963,5,0,0:0:0:0:
425,336,21308,5,0,0:0:0:0:
388,128,21653,6,0,P|332:108|288:116,1,105.000004005432
206,334,21998,1,0,0:0:0:0:
314,38,22170,2,0,P|262:45|222:78,1,105.000004005432
95,175,22515,1,0,0:0:0:0:
240,295,22687,1,0,0:0:0:0:
245,65,22860,2,0,B|286:55|286:55|352:79,1,105.000004005432
345,76,23205,5,0,0:0:0:0:
75,222,23377,5,0,0:0:0:0:
318,351,23549,6,0,B|302:332|302:332|282:328|282:328|283:311|283:311|263:313|263:313|259:290,1,105.000004005432
455,146,23894,2,0,P|453:173|401:162,1,87.5
384,84,24411,5,0,0:0:0:0:
384,84,24584,1,0,0:0:0:0:
336,180,24756,2,0,B|312:168|312:168|292:184|292:184|268:168|268:168|240:188|240:188|208:168,1,140
144,72,26136,1,0,0:0:0:0:
220,244,26653,2,0,B|280:232|280:232|332:260,1,112
321,255,26998,1,0,0:0:0:0:
404,344,27170,5,0,0:0:0:0:
404,344,27343,1,0,0:0:0:0:
480,224,27515,1,0,0:0:0:0:
128,68,28205,1,0,0:0:0:0:
492,164,28894,1,0,0:0:0:0:
120,360,29584,2,0,P|184:356|228:316,1,112
228,124,29929,5,0,0:0:0:0:
228,124,30101,1,0,0:0:0:0:
388,344,30274,1,0,0:0:0:0:
328,24,30963,1,0,0:0:0:0:
504,196,31653,1,0,0:0:0:0:
360,260,31825,1,4,0:0:0:0:
360,260,31911,1,4,0:0:0:0:
360,260,31998,2,4,P|304:244|224:260,1,112,4|0,0:0|0:0,0:0:0:0:
504,196,32343,2,4,P|448:180|368:196,1,112,4|0,0:0|0:0,0:0:0:0:
308,191,32687,5,0,0:0:0:0:
308,191,32860,1,0,0:0:0:0:
56,40,33205,5,0,0:0:0:0:
496,236,33549,5,0,0:0:0:0:
76,356,33894,5,0,0:0:0:0:
256,192,33980,12,0,34929,0:0:0:0:
304,80,35101,5,0,0:0:0:0:
360,96,35187,1,0,0:0:0:0:
408,128,35274,1,0,0:0:0:0:
440,176,35360,1,0,0:0:0:0:
388,200,35446,2,0,P|328:176|248:208,1,125.999996154785
100,280,35791,1,0,0:0:0:0:
144,140,35963,1,0,0:0:0:0:
144,140,36049,1,0,0:0:0:0:
144,140,36136,2,0,P|192:168|255:170,1,112
356,127,36480,5,0,0:0:0:0:
435,296,36653,2,0,P|442:247|426:202,2,97.9999970092774
248,239,37170,1,0,0:0:0:0:
377,126,37343,1,0,0:0:0:0:
331,307,37515,1,0,0:0:0:0:
169,130,37687,2,0,P|217:102|280:100,1,112
380,130,38032,1,0,0:0:0:0:
271,300,38205,5,0,0:0:0:0:
169,175,38377,1,0,0:0:0:0:
332,220,38549,1,0,0:0:0:0:
222,58,38722,1,0,0:0:0:0:
222,58,38808,1,0,0:0:0:0:
222,58,38894,1,0,0:0:0:0:
231,237,39067,1,0,0:0:0:0:
310,109,39239,1,0,0:0:0:0:
53,212,39411,6,0,B|57:232|57:232|93:228|93:228|97:228|97:228|105:272|197:296,1,168
181,296,39756,1,0,0:0:0:0:
181,296,39843,1,0,0:0:0:0:
181,296,39929,1,0,0:0:0:0:
370,259,40101,1,0,0:0:0:0:
394,83,40274,2,0,P|331:58|266:61,1,112
287,57,40618,1,0,0:0:0:0:
208,147,40963,5,0,0:0:0:0:
353,231,41136,1,0,0:0:0:0:
160,52,41308,2,0,B|138:108|188:152,1,112
362,143,41653,2,0,B|384:199|334:243,1,112
176,313,41998,1,0,0:0:0:0:
196,92,42170,2,0,B|252:70|296:120,1,112
349,188,42515,1,0,0:0:0:0:
166,169,42687,1,0,0:0:0:0:
304,24,42860,1,0,0:0:0:0:
355,184,43032,1,0,0:0:0:0:
289,28,43205,1,0,0:0:0:0:
236,246,43377,5,0,0:0:0:0:
204,291,43463,1,0,0:0:0:0:
159,325,43549,1,0,0:0:0:0:
106,343,43635,1,0,0:0:0:0:
51,343,43721,1,0,0:0:0:0:
51,343,43894,1,0,0:0:0:0:
226,107,44239,1,0,0:0:0:0:
226,107,44411,1,0,0:0:0:0:
488,248,44756,1,0,0:0:0:0:
488,248,44929,6,0,B|436:280|436:280|348:309,1,112
208,324,45274,1,0,0:0:0:0:
40,128,45446,1,0,0:0:0:0:
87,272,45618,1,0,0:0:0:0:
153,32,45791,1,0,0:0:0:0:
420,72,46136,5,0,0:0:0:0:
412,80,46222,1,0,0:0:0:0:
404,88,46308,1,0,0:0:0:0:
396,96,46394,1,0,0:0:0:0:
388,104,46480,5,0,0:0:0:0:
96,328,46653,1,0,0:0:0:0:
120,92,46825,1,0,0:0:0:0:
332,304,46998,1,0,0:0:0:0:
48,192,47170,1,0,0:0:0:0:
300,64,47343,1,0,0:0:0:0:
200,336,47515,1,0,0:0:0:0:
128,28,47687,1,0,0:0:0:0:
312,336,47860,5,0,0:0:0:0:
352,40,48032,1,0,0:0:0:0:
104,296,48205,1,0,0:0:0:0:
424,132,48377,1,0,0:0:0:0:
128,60,48549,1,0,0:0:0:0:
324,352,48722,1,0,0:0:0:0:
288,36,48894,1,0,0:0:0:0:
152,344,49067,1,0,0:0:0:0:
380,280,49239,5,0,0:0:0:0:
380,280,49325,1,0,0:0:0:0:
380,280,49411,1,0,0:0:0:0:
332,68,49584,2,8,P|280:56|228:72,1,97.9999970092774
112,236,49929,1,0,0:0:0:0:
304,336,50101,1,0,0:0:0:0:
424,160,50274,2,0,B|412:100|412:100|372:68,1,97.9999970092774,8|0,0:0|0:0,0:0:0:0:
280,256,50618,1,0,0:0:0:0:
92,72,50791,5,0,0:0:0:0:
92,72,50877,1,0,0:0:0:0:
92,72,50963,1,8,0:0:0:0:
324,16,51136,1,8,0:0:0:0:
208,208,51308,2,0,B|244:216|268:192|268:192|292:264|344:276,1,183.750001752377
280,324,51653,1,8,0:0:0:0:
276,328,51739,1,0,0:0:0:0:
272,332,51825,1,0,0:0:0:0:
268,336,51911,1,0,0:0:0:0:
264,340,51998,5,0,0:0:0:0:
328,76,52170,1,0,0:0:0:0:
288,292,52343,1,0,0:0:0:0:
168,28,52515,1,0,0:0:0:0:
448,160,52687,1,0,0:0:0:0:
144,340,52860,1,0,0:0:0:0:
172,16,53032,1,0,0:0:0:0:
408,288,53205,1,0,0:0:0:0:
80,100,53377,5,0,0:0:0:0:
432,196,53550,1,0,0:0:0:0:
156,320,53722,1,0,0:0:0:0:
372,64,53895,1,0,0:0:0:0:
68,136,54067,1,0,0:0:0:0:
293,354,54240,1,0,0:0:0:0:
400,36,54412,1,0,0:0:0:0:
76,264,54585,1,0,0:0:0:0:
144,80,54756,5,0,0:0:0:0:
144,80,54929,1,0,0:0:0:0:
440,344,55446,1,0,0:0:0:0:
440,344,55618,1,0,0:0:0:0:
360,44,55963,2,0,B|296:24|296:24|184:52,1,181.999991668702
72,88,56480,1,0,0:0:0:0:
320,156,56653,1,0,0:0:0:0:
44,196,56825,1,0,0:0:0:0:
240,332,57170,2,0,L|240:388,1,52.5000020027161
461,76,57515,6,0,B|472:81|427:53|377:89|377:89|261:54,1,203.000006195069,0|8,0:0|0:0,0:0:0:0:
172,48,58032,1,8,0:0:0:0:
160,276,58205,1,0,0:0:0:0:
108,80,58377,1,8,0:0:0:0:
280,176,58549,1,0,0:0:0:0:
400,36,58722,2,8,B|452:60|452:60|472:112|472:112|456:172|456:172|384:216,1,224,8|0,0:0|0:0,0:0:0:0:
184,188,59239,2,0,P|148:140|104:112,1,97.9999970092774
344,68,59584,2,0,P|296:28|264:-8,1,97.9999970092774
116,312,59929,1,0,0:0:0:0:
328,256,60101,1,0,0:0:0:0:
224,68,60274,6,0,B|272:20|272:20|348:-4|348:-4|424:8,1,195.999994018555
488,184,60791,1,0,0:0:0:0:
188,72,60963,1,0,0:0:0:0:
408,24,61136,1,0,0:0:0:0:
368,328,61308,1,0,0:0:0:0:
72,112,61480,6,0,B|120:60|120:60|178:51|178:51|218:46|218:46|201:67,1,195.999994018555
444,60,61998,1,0,0:0:0:0:
336,296,62170,1,0,0:0:0:0:
336,296,62256,1,0,0:0:0:0:
336,296,62343,1,0,0:0:0:0:
68,92,62515,1,0,0:0:0:0:
444,116,62687,1,0,0:0:0:0:
424,104,63032,6,0,B|400:52|320:32,1,97.9999970092774
84,24,63377,1,0,0:0:0:0:
316,120,63549,1,0,0:0:0:0:
180,316,63722,2,0,P|228:276|284:276,1,97.9999970092774
392,156,64067,1,0,0:0:0:0:
144,272,64239,1,0,0:0:0:0:
320,44,64411,1,0,0:0:0:0:
320,44,64584,2,0,B|256:16|256:16|120:44,1,195.999994018555
16,248,65101,1,0,0:0:0:0:
124,352,65274,1,0,0:0:0:0:
32,64,65446,2,0,P|80:24|156:24,1,97.9999970092774
200,200,65791,6,0,P|136:176|84:184,1,97.9999970092774
476,292,66136,1,0,0:0:0:0:
476,292,66308,1,0,0:0:0:0:
52,220,66653,1,0,0:0:0:0:
224,40,66998,2,0,B|180:0|92:4,1,97.9999970092774
0,4,67343,1,0,0:0:0:0:
148,144,67515,2,0,P|204:144|252:168,1,97.9999970092774
72,300,67860,5,0,0:0:0:0:
132,328,67946,1,0,0:0:0:0:
196,336,68032,1,0,0:0:0:0:
260,328,68118,1,0,0:0:0:0:
320,312,68205,1,0,0:0:0:0:
376,280,68291,1,0,0:0:0:0:
412,228,68377,1,0,0:0:0:0:
436,168,68463,1,0,0:0:0:0:
448,108,68549,6,0,P|380:48|300:32,1,146.999995513916
164,36,68894,1,0,0:0:0:0:
284,280,69067,1,0,0:0:0:0:
323,32,69239,1,0,0:0:0:0:
192,280,69411,1,0,0:0:0:0:
160,32,69584,1,0,0:0:0:0:
332,332,69756,2,0,B|376:300|376:300|408:260|408:260|408:208|408:208|400:172,1,146.999995513916
384,132,70101,1,0,0:0:0:0:
112,96,70274,2,0,P|140:136|148:188,1,97.9999970092774
304,104,70618,2,0,P|276:64|268:12,1,97.9999970092774
236,316,70963,2,0,P|184:292|136:288,1,97.9999970092774
408,352,71308,6,0,B|452:312|464:280|448:200|408:168,1,195.999994018555
240,40,71825,1,0,0:0:0:0:
416,196,71998,1,0,0:0:0:0:
224,152,72170,1,0,0:0:0:0:
440,76,72343,1,0,0:0:0:0:
400,304,72515,2,0,B|352:308|352:308|360:360|304:360|304:360|224:324,1,195.999994018555
32,212,73032,1,0,0:0:0:0:
128,352,73205,5,0,0:0:0:0:
128,352,73291,1,0,0:0:0:0:
128,352,73377,1,0,0:0:0:0:
320,20,73722,1,0,0:0:0:0:
288,64,74067,5,0,0:0:0:0:
424,320,74239,1,0,0:0:0:0:
428,68,74411,1,0,0:0:0:0:
292,320,74584,1,0,0:0:0:0:
372,64,74756,1,0,0:0:0:0:
284,336,74928,1,0,0:0:0:0:
458,172,75100,1,0,0:0:0:0:
178,229,75273,1,0,0:0:0:0:
140,84,75446,6,0,P|191:96|224:127,1,97.9999970092774
308,292,75791,2,0,P|274:327|228:341,1,97.9999970092774
360,56,76136,2,0,P|360:108|338:148,1,97.9999970092774
148,280,76481,2,0,P|105:255|80:214,1,97.9999970092774
376,140,76825,5,0,0:0:0:0:
376,140,76998,1,0,0:0:0:0:
40,112,77170,1,0,0:0:0:0:
388,144,77343,5,0,0:0:0:0:
388,144,77516,1,0,0:0:0:0:
32,108,77688,1,0,0:0:0:0:
352,272,77860,1,0,0:0:0:0:
416,184,78032,6,0,B|360:164|360:164|345:93|290:84|290:84|248:84,1,195.999994018555
64,228,78549,2,0,L|180:256,1,97.9999970092774
300,208,78894,1,0,0:0:0:0:
304,192,78980,1,0,0:0:0:0:
308,176,79067,1,0,0:0:0:0:
312,160,79153,1,0,0:0:0:0:
320,112,79239,1,0,0:0:0:0:
296,76,79325,1,0,0:0:0:0:
256,48,79411,1,0,0:0:0:0:
204,40,79497,1,0,0:0:0:0:
155,47,79584,6,0,L|131:143,1,97.9999970092774
416,144,79929,1,2,0:0:0:0:
416,144,80101,1,2,0:0:0:0:
176,312,80274,6,0,L|152:216,1,97.9999970092774,0|2,0:0|0:0,0:0:0:0:
448,248,80618,1,0,0:0:0:0:
152,148,80791,2,0,B|180:108|214:98|252:96|252:96|252:144|252:144|300:156,1,195.999994018555
400,88,81308,1,2,0:0:0:0:
400,88,81480,1,2,0:0:0:0:
392,248,81653,2,0,P|336:280|276:264,1,97.9999970092774,0|2,0:0|0:0,0:0:0:0:
120,236,81998,1,0,0:0:0:0:
408,200,82170,1,0,0:0:0:0:
296,300,82343,6,0,B|256:340|256:340|216:304|216:304|160:324|116:264,1,195.999994018555,0|2,0:0|0:0,0:0:0:0:
48,192,82860,1,2,0:0:0:0:
340,68,83032,1,0,0:0:0:0:
280,332,83205,1,2,0:0:0:0:
36,160,83377,1,0,0:0:0:0:
384,76,83549,2,2,B|416:94|446:78|446:78|488:128|436:204,1,195.999994018555
360,304,84067,1,0,0:0:0:0:
104,96,84239,5,0,0:0:0:0:
104,96,84325,1,0,0:0:0:0:
104,96,84411,1,0,0:0:0:0:
132,328,84584,5,0,0:0:0:0:
132,328,84670,1,0,0:0:0:0:
132,328,84756,1,0,0:0:0:0:
396,88,84929,5,0,0:0:0:0:
396,88,85015,1,0,0:0:0:0:
396,88,85101,2,0,P|424:140|412:176,1,97.9999970092774
112,84,85791,1,0,0:0:0:0:
236,324,86136,1,0,0:0:0:0:
460,120,86480,2,0,P|417:141|372:126,1,97.9999970092774
324,220,86998,6,0,L|324:252,1,24.4999992523194
244,328,87170,1,0,0:0:0:0:
360,152,87515,2,0,L|384:152,4,24.4999992523194
216,228,88205,2,0,P|256:240|284:232,1,66.4999982242585
455,176,88549,5,0,0:0:0:0:
431,143,88635,1,0,0:0:0:0:
404,116,88721,1,0,0:0:0:0:
372,92,88807,1,0,0:0:0:0:
338,75,88893,1,0,0:0:0:0:
300,61,88980,1,0,0:0:0:0:
261,56,89066,1,0,0:0:0:0:
222,56,89152,1,0,0:0:0:0:
185,67,89239,1,0,0:0:0:0:
440,232,90101,6,0,B|416:240|416:240|404:220|404:220|388:240|388:240|376:220|376:220|360:240|360:240|348:220|348:220|332:240|332:240|316:220|316:220|300:224,1,199.499994672775
108,132,90963,5,0,0:0:0:0:
108,132,91049,1,0,0:0:0:0:
108,132,91136,1,0,0:0:0:0:
148,280,91308,2,0,P|204:304|252:296,1,97.9999970092774
435,245,91653,1,0,0:0:0:0:
332,92,91825,2,0,B|295:87|248:40|248:40|216:88|172:96,1,195.999994018555
364,344,92343,2,0,P|412:324|457:278,2,97.9999970092774
412,36,93032,1,0,0:0:0:0:
111,78,93376,5,0,0:0:0:0:
28,272,93549,1,0,0:0:0:0:
116,72,93722,1,0,0:0:0:0:
181,338,93894,1,0,0:0:0:0:
280,108,94067,1,0,0:0:0:0:
176,344,94239,1,0,0:0:0:0:
448,152,94411,1,0,0:0:0:0:
48,260,94584,2,0,B|64:312|64:312|156:348|156:348|216:324,1,203.000006195069,8|0,0:0|0:0,0:0:0:0:
136,72,95101,1,0,0:0:0:0:
276,328,95274,1,0,0:0:0:0:
128,56,95446,1,0,0:0:0:0:
144,308,95791,1,0,0:0:0:0:
144,308,95877,1,0,0:0:0:0:
144,308,95963,1,0,0:0:0:0:
144,308,96049,1,0,0:0:0:0:
144,308,96136,6,0,B|228:304|264:276|292:232,1,152.250004646301
312,208,96480,1,8,0:0:0:0:
128,32,96653,1,0,0:0:0:0:
72,280,96825,1,0,0:0:0:0:
140,24,96998,1,8,0:0:0:0:
52,276,97170,1,0,0:0:0:0:
228,60,97343,2,8,B|280:36|280:36|420:76,1,203.000006195069,8|0,0:0|0:0,0:0:0:0:
344,312,97860,1,0,0:0:0:0:
292,132,98032,1,0,0:0:0:0:
64,56,98205,1,0,0:0:0:0:
456,16,98549,1,0,0:0:0:0:
104,152,98894,6,0,L|104:256,2,101.500003097534
276,308,99411,6,0,L|276:206,2,101.500003097534
468,152,99929,1,0,0:0:0:0:
356,84,100101,2,0,B|300:44|264:40|256:40,1,101.500003097534
68,132,100446,5,0,0:0:0:0:
456,232,100618,5,0,0:0:0:0:
120,324,100791,5,0,0:0:0:0:
384,152,101136,2,0,B|340:112|340:112|308:132|308:132|272:136|256:104|256:104|244:88|240:64|256:20|312:40,1,253.750007743836
296,40,101653,5,0,0:0:0:0:
296,40,101825,1,0,0:0:0:0:
384,152,101998,2,0,B|336:160|336:160|296:144|296:144|248:156|248:156,1,140
56,92,103377,5,0,0:0:0:0:
240,352,103894,1,0,0:0:0:0:
312,264,104067,2,0,P|344:240|408:248,1,108.500000827789
416,140,104411,5,0,0:0:0:0:
416,140,104584,1,0,0:0:0:0:
176,224,104756,1,0,0:0:0:0:
424,68,105446,5,0,0:0:0:0:
324,324,106136,5,0,0:0:0:0:
144,64,106825,2,0,P|224:32|276:52,1,108.500000827789
428,84,107170,5,0,0:0:0:0:
428,84,107342,1,0,0:0:0:0:
244,200,107515,1,0,0:0:0:0:
104,52,108205,5,0,0:0:0:0:
144,216,108377,1,0,0:0:0:0:
144,216,108463,1,0,0:0:0:0:
144,216,108549,2,0,B|188:184|240:184|276:208,1,101.500003097534
360,228,108894,2,0,B|361:282|332:325|292:341,1,101.500003097534
336,120,109239,2,0,B|368:76|418:61|459:73,1,101.500003097534
288,236,109584,2,0,B|260:256|260:256|240:240|240:240|220:256|220:256|200:240|200:240|180:256|180:256|176:248,1,101.500003097534
80,188,109929,5,0,0:0:0:0:
80,188,110101,1,0,0:0:0:0:
408,64,110446,5,0,0:0:0:0:
288,328,110791,1,0,0:0:0:0:
124,72,111136,2,0,B|112:132|112:132|164:120|228:132|240:176|240:176|204:220|152:240|148:296|192:344|192:344|284:352|332:304|340:248,1,609.000018585206
352,88,112343,1,0,0:0:0:0:
332,72,112429,1,0,0:0:0:0:
288,60,112515,1,0,0:0:0:0:
232,56,112601,1,0,0:0:0:0:
164,68,112687,6,0,B|116:104|116:104|120:160,1,101.500003097534
111,295,113032,1,0,0:0:0:0:
360,144,113205,1,0,0:0:0:0:
174,184,113377,1,0,0:0:0:0:
298,347,113549,1,0,0:0:0:0:
236,85,113722,1,0,0:0:0:0:
116,264,113894,6,0,B|160:320|160:320|312:264,1,203.000006195069
308,264,114325,1,0,0:0:0:0:
308,264,114411,1,0,0:0:0:0:
392,112,114584,1,0,0:0:0:0:
392,112,114670,2,0,L|340:80,1,50.7500015487671
184,4,114929,1,0,0:0:0:0:
240,176,115101,1,0,0:0:0:0:
456,80,115274,1,0,0:0:0:0:
376,312,115446,5,0,0:0:0:0:
380,20,115618,1,0,0:0:0:0:
208,64,115791,2,0,P|176:108|176:160,3,101.500003097534
360,300,116653,1,0,0:0:0:0:
300,80,116998,1,0,0:0:0:0:
124,200,117170,2,0,P|147:255|194:276,1,101.500003097534
436,192,117515,2,0,P|467:152|474:102,2,101.500003097534
36,176,118205,5,0,0:0:0:0:
36,176,118377,1,0,0:0:0:0:
288,84,118549,2,0,P|338:82|380:109,3,101.500003097534
460,248,119239,1,0,0:0:0:0:
192,144,119411,2,0,P|112:144|72:188,1,101.500003097534
296,300,119756,2,0,P|246:309|200:289,1,101.500003097534
408,144,120101,2,0,P|328:144|288:188,1,101.500003097534
348,280,120446,1,8,0:0:0:0:
298,269,120532,1,8,0:0:0:0:
256,241,120618,1,0,0:0:0:0:
232,197,120704,1,0,0:0:0:0:
228,146,120790,1,0,0:0:0:0:
245,99,120877,1,0,0:0:0:0:
281,64,120963,5,0,0:0:0:0:
281,64,121136,1,0,0:0:0:0:
436,288,121480,1,0,0:0:0:0:
435,287,121653,1,0,0:0:0:0:
124,100,121998,1,0,0:0:0:0:
120,96,122170,2,0,B|80:136|80:136|136:204,1,101.500003097534
200,300,122515,1,0,0:0:0:0:
436,160,122688,1,0,0:0:0:0:
148,40,122860,1,0,0:0:0:0:
436,264,123033,1,0,0:0:0:0:
336,96,123377,2,0,L|380:128,3,29.7500005674362
253,78,123722,5,0,0:0:0:0:
248,303,123894,1,0,0:0:0:0:
338,107,124067,1,0,0:0:0:0:
175,261,124239,1,0,0:0:0:0:
369,188,124411,5,0,0:0:0:0:
144,188,124583,1,0,0:0:0:0:
332,264,124756,1,0,0:0:0:0:
164,104,124928,1,0,0:0:0:0:
250,353,125101,5,0,0:0:0:0:
250,28,125273,1,0,0:0:0:0:
137,302,125446,1,0,0:0:0:0:
367,72,125618,1,0,0:0:0:0:
94,186,125791,5,0,0:0:0:0:
419,186,125963,1,0,0:0:0:0:
145,73,126136,1,0,0:0:0:0:
375,303,126308,1,0,0:0:0:0:
424,96,126480,5,0,0:0:0:0:
424,96,126653,1,0,0:0:0:0:
164,248,126825,2,0,P|188:200|240:168,1,101.500003097534
424,96,127170,1,0,0:0:0:0:
88,168,127343,1,0,0:0:0:0:
408,328,127515,1,0,0:0:0:0:
76,160,127687,6,0,B|112:144|96:108|96:108|168:72|260:148,1,203.000006195069
420,256,128205,1,0,0:0:0:0:
128,212,128377,1,0,0:0:0:0:
420,256,128549,1,0,0:0:0:0:
152,76,128894,1,0,0:0:0:0:
152,76,129067,1,0,0:0:0:0:
105,339,129239,5,0,0:0:0:0:
28,112,129411,1,0,0:0:0:0:
180,296,129584,1,0,0:0:0:0:
149,61,129756,1,0,0:0:0:0:
265,296,129929,5,0,0:0:0:0:
296,61,130101,1,0,0:0:0:0:
340,339,130274,5,0,0:0:0:0:
417,112,130446,1,0,0:0:0:0:
126,176,130618,5,0,0:0:0:0:
433,167,130791,1,0,0:0:0:0:
264,19,130963,1,0,0:0:0:0:
295,324,131136,1,0,0:0:0:0:
126,184,131308,5,0,0:0:0:0:
433,159,131481,1,0,0:0:0:0:
256,20,131653,1,0,0:0:0:0:
303,323,131826,1,0,0:0:0:0:
152,76,131998,1,0,0:0:0:0:
152,76,132170,1,0,0:0:0:0:
460,128,132688,5,0,0:0:0:0:
460,128,132860,1,0,0:0:0:0:
408,36,133205,2,0,B|344:13|344:13|231:37,1,181.999991668702
104,152,133722,1,0,0:0:0:0:
428,256,133895,1,0,0:0:0:0:
36,288,134067,1,0,0:0:0:0:
236,332,134239,1,0,0:0:0:0:
236,332,134325,1,0,0:0:0:0:
236,332,134411,5,0,0:0:0:0:
436,272,134584,1,0,0:0:0:0:
436,272,134670,1,0,0:0:0:0:
436,272,134756,2,0,B|452:192|452:192|388:72,1,203.000006195069
132,48,135274,1,0,0:0:0:0:
172,280,135446,1,0,0:0:0:0:
432,168,135618,1,0,0:0:0:0:
128,44,135791,1,0,0:0:0:0:
96,292,135963,6,0,B|140:348|192:364|248:364|300:344,1,203.000006195069
444,240,136480,1,0,0:0:0:0:
304,68,136653,1,0,0:0:0:0:
444,240,136825,1,0,0:0:0:0:
304,68,136998,1,0,0:0:0:0:
88,184,137170,2,0,B|96:240|96:240|168:280,1,101.500003097534
424,328,137515,6,0,B|468:256|468:256|440:132,1,203.000006195069
296,36,138032,1,0,0:0:0:0:
76,232,138205,1,0,0:0:0:0:
384,312,138377,1,0,0:0:0:0:
288,44,138549,1,0,0:0:0:0:
140,84,138722,6,0,B|70:154|70:154|39:253,1,203.000006195069,0|0,3:0|3:0,3:0:0:0:
404,140,139239,1,0,0:0:0:0:
80,216,139411,1,0,0:0:0:0:
80,216,139498,1,0,0:0:0:0:
80,216,139584,2,0,L|188:236,1,101.500003097534
280,252,139929,1,0,0:0:0:0:
264,324,140274,5,0,0:0:0:0:
131,155,140446,1,0,0:0:0:0:
300,256,140618,1,0,0:0:0:0:
432,120,140790,1,0,0:0:0:0:
408,296,140963,1,0,0:0:0:0:
232,120,141136,2,0,B|172:116|124:156|100:212|124:272,1,203.000006195069
124,342,141653,5,0,0:0:0:0:
240,231,141825,1,0,0:0:0:0:
270,372,141998,1,0,0:0:0:0:
144,168,142170,2,0,B|219:119|284:126|343:167|364:206,1,203.000006195069
384,264,142687,1,0,0:0:0:0:
212,220,142860,1,0,0:0:0:0:
328,112,143032,2,0,L|228:60,1,101.500003097534
156,24,143376,1,0,0:0:0:0:
104,184,143549,5,0,0:0:0:0:
364,268,143894,1,0,0:0:0:0:
192,64,144239,6,0,B|240:44|304:48|364:80|380:112,1,203.000006195069
448,244,144756,1,0,0:0:0:0:
324,352,144929,1,0,0:0:0:0:
164,312,145101,1,0,0:0:0:0:
128,292,145187,1,0,0:0:0:0:
104,260,145274,1,0,0:0:0:0:
92,220,145360,1,0,0:0:0:0:
96,180,145446,1,0,0:0:0:0:
108,140,145532,1,0,0:0:0:0:
128,104,145618,1,0,0:0:0:0:
164,84,145705,1,0,0:0:0:0:
208,72,145791,6,0,B|280:76|280:76|416:164,1,203.000006195069
360,360,146308,1,0,0:0:0:0:
56,192,146480,1,0,0:0:0:0:
328,88,146653,1,0,0:0:0:0:
160,328,146825,1,0,0:0:0:0:
456,168,146998,6,0,B|401:85|401:85|301:55,1,203.000006195069
160,64,147515,1,0,0:0:0:0:
160,64,147687,1,0,0:0:0:0:
56,196,147860,1,0,0:0:0:0:
56,196,148032,1,0,0:0:0:0:
208,288,148205,1,0,0:0:0:0:
208,288,148377,1,0,0:0:0:0:
456,308,148549,6,0,P|400:264|344:252,1,101.500003097534
120,320,148894,1,0,0:0:0:0:
320,96,149067,1,0,0:0:0:0:
260,340,149239,1,0,0:0:0:0:
16,176,149411,1,0,0:0:0:0:
264,56,149584,1,0,0:0:0:0:
376,140,154067,5,0,0:0:0:0:
376,140,154240,1,0,0:0:0:0:
56,120,154412,1,0,0:0:0:0:
318,336,154585,1,0,0:0:0:0:
318,336,154756,1,0,0:0:0:0:
48,112,154930,1,0,0:0:0:0:
380,140,155102,1,0,0:0:0:0:
256,192,199584,12,0,200618,0:0:0:0:
60,88,200963,5,0,0:0:0:0:
64,140,201049,1,0,0:0:0:0:
72,192,201136,1,0,0:0:0:0:
96,236,201222,1,0,0:0:0:0:
136,268,201308,1,0,0:0:0:0:
184,280,201394,1,0,0:0:0:0:
236,276,201480,1,0,0:0:0:0:
284,256,201567,1,0,0:0:0:0:
320,220,201653,5,0,0:0:0:0:
340,172,201739,1,0,0:0:0:0:
340,120,201825,1,0,0:0:0:0:
328,72,201911,1,0,0:0:0:0:
284,44,201998,1,0,0:0:0:0:
232,44,202084,1,0,0:0:0:0:
196,76,202170,1,0,0:0:0:0:
180,124,202256,1,0,0:0:0:0:
200,172,202343,5,0,0:0:0:0:
244,200,202429,1,0,0:0:0:0:
296,208,202515,1,0,0:0:0:0:
344,196,202601,1,0,0:0:0:0:
384,164,202687,1,0,0:0:0:0:
408,120,202774,1,0,0:0:0:0:
408,68,202860,1,0,0:0:0:0:
384,24,202946,1,0,0:0:0:0:
336,16,203032,5,0,0:0:0:0:
288,36,203118,1,0,0:0:0:0:
268,84,203205,1,0,0:0:0:0:
288,132,203291,1,0,0:0:0:0:
308,180,203377,1,0,0:0:0:0:
328,228,203463,1,0,0:0:0:0:
320,276,203549,1,0,0:0:0:0:
284,312,203636,1,0,0:0:0:0:
236,328,203722,6,0,B|180:317|180:317|201:283|201:283|158:284|158:284|176:247|176:247|91:227|91:227|58:158|129:105|179:115,1,406.000012390137
472,280,204584,1,0,0:0:0:0:
56,209,204756,1,0,0:0:0:0:
372,8,204929,1,0,0:0:0:0:
372,344,205101,1,0,0:0:0:0:
324,380,205188,1,0,0:0:0:0:
264,380,205274,1,0,0:0:0:0:
216,344,205360,1,0,0:0:0:0:
192,288,205446,2,0,P|236:268|328:280,1,136.500000520706
429,112,206480,5,0,0:0:0:0:
414,176,206567,1,0,0:0:0:0:
361,205,206653,1,0,0:0:0:0:
298,210,206739,1,0,0:0:0:0:
240,172,206825,5,0,0:0:0:0:
179,147,206911,1,0,0:0:0:0:
118,155,206997,1,0,0:0:0:0:
82,210,207084,1,0,0:0:0:0:
96,276,207170,5,0,0:0:0:0:
128,336,207257,1,0,0:0:0:0:
196,352,207343,1,0,0:0:0:0:
264,340,207429,1,0,0:0:0:0:
324,308,207515,5,0,0:0:0:0:
364,252,207601,1,0,0:0:0:0:
388,188,207687,1,0,0:0:0:0:
372,120,207774,1,0,0:0:0:0:
332,64,207860,1,0,0:0:0:0:
272,32,207946,1,0,0:0:0:0:
204,40,208032,1,0,0:0:0:0:
148,80,208118,1,0,0:0:0:0:
116,140,208205,5,0,0:0:0:0:
116,208,208291,1,0,0:0:0:0:
148,268,208377,1,0,0:0:0:0:
208,304,208463,1,0,0:0:0:0:
276,292,208549,6,0,B|304:277|304:277|314:294|314:294|323:263|323:263|353:284|353:284|357:243|357:243|392:272|392:272|404:204,1,273.000001041412
128,72,209239,5,0,0:0:0:0:
360,312,209411,1,0,0:0:0:0:
360,312,209498,1,0,0:0:0:0:
360,312,209584,1,0,0:0:0:0:
396,48,209756,1,0,0:0:0:0:
396,48,209843,1,0,0:0:0:0:
396,48,209929,5,0,0:0:0:0:
120,68,210101,1,0,0:0:0:0:
380,312,210274,1,0,0:0:0:0:
256,192,210446,12,0,211308,0:0:0:0:
408,136,281136,5,0,0:0:0:0:
380,120,281308,1,0,0:0:0:0:
316,96,281480,1,0,0:0:0:0:
209,87,281653,1,0,0:0:0:0:
48,127,281825,1,0,0:0:0:0:
428,316,281998,1,0,0:0:0:0:
256,192,282170,12,0,284929,0:0:0:0:
