osu file format v14

[General]
AudioFilename: audio.mp3
AudioLeadIn: 0
PreviewTime: 57194
Countdown: 0
SampleSet: None
StackLeniency: 0.7
Mode: 0
LetterboxInBreaks: 0
WidescreenStoryboard: 1

[Editor]
Bookmarks: 13377,24411,46480,57538,68549,123722,154067,200963,211998,281136
DistanceSpacing: 0.8
BeatDivisor: 4
GridSize: 4
TimelineZoom: 2.2

[Metadata]
Title:Cat Food
TitleUnicode:Cat Food
Artist:Wotamin
ArtistUnicode:Wotamin
Creator:_Asymmetry_
Version:Streams
Source:doriko
Tags:hatsune miku wotamin vocaloid cat food rock
BeatmapID:1739255
BeatmapSetID:830095

[Difficulty]
HPDrainRate:5
CircleSize:4
OverallDifficulty:8.5
ApproachRate:9.2
SliderMultiplier:1.4
SliderTickRate:1

[Events]
//Background and Video events
//Break Periods
//Storyboard Layer 0 (Background)
//Storyboard Layer 1 (Fail)
//Storyboard Layer 2 (Pass)
//Storyboard Layer 3 (Foreground)
//Storyboard Sound Samples

[TimingPoints]
2343.02204185684,344.827586206897,4,2,0,100,1,0
13377,-57.1428571428571,4,3,0,100,0,0
13477,-57.1428571428571,4,3,0,100,0,0
14411,-68.9655172413793,4,2,0,100,0,0
16136,-55.5555555555556,4,2,0,100,0,0
17343,-74.0740740740741,4,2,0,100,0,0
19584,-50,4,2,0,100,0,0
20101,-66.6666666666667,4,2,0,100,0,0
23894,-200,4,2,0,100,0,0
24594,-200,4,3,0,100,0,0
24756,-200,4,3,0,100,0,0
26653,-62.5,4,3,0,100,0,0
35446,-55.5555555555556,4,3,0,100,0,0
36136,-62.5,4,3,0,100,0,0
36480,-71.4285714285714,4,3,0,100,0,0
37687,-58.8235294117647,4,3,0,100,0,0
39411,-62.5,4,3,0,100,0,0
49584,-71.4285714285714,4,3,0,100,0,0
51308,-57.1428571428571,4,3,0,100,0,0
55791,-76.9230769230769,4,3,0,100,0,0
57170,-133.333333333333,4,3,0,100,0,0
57515,-68.9655172413793,4,3,0,100,0,1
58375,-62.5,4,3,0,100,0,1
59239,-71.4285714285714,4,3,0,100,0,1
79608,-71.4285714285714,4,2,1,100,0,1
85101,-142.857142857143,4,3,0,100,0,1
88205,-105.263157894737,4,3,0,100,0,1
91308,-71.4285714285714,4,3,0,100,0,1
94584,-68.9655172413793,4,3,0,100,0,1
96653,-68.9655172413793,4,3,0,5,0,1
96825,-68.9655172413793,4,3,0,100,0,1
97170,-74.0740740740741,4,3,0,5,0,1
97343,-68.9655172413793,4,3,0,100,0,1
101653,-68.9655172413793,4,3,0,100,0,0
101998,-200,4,3,0,100,0,0
104067,-64.5161290322581,4,3,0,100,0,0
108549,-68.9655172413793,4,3,0,50,0,0
123377,-117.647058823529,4,3,0,100,0,0
126825,-68.9655172413793,4,3,0,100,0,0
134411,-68.9655172413793,4,3,0,100,0,0
134756,-68.9655172413793,4,3,0,100,0,0
205446,-51.2820512820513,4,3,0,100,0,0

[Colours]
Combo1 : 64,0,128
Combo2 : 255,0,0
Combo3 : 0,128,0
Combo4 : 0,0,128

[HitObjects]
256,192,199584,12,0,200618,0:0:0:0:
60,88,200963,5,0,0:0:0:0:
64,140,201049,1,0,0:0:0:0:
72,192,201136,1,0,0:0:0:0:
96,236,201222,1,0,0:0:0:0:
136,268,201308,1,0,0:0:0:0:
184,280,201394,1,0,0:0:0:0:
236,276,201480,1,0,0:0:0:0:
284,256,201567,1,0,0:0:0:0:
320,220,201653,5,0,0:0:0:0:
340,172,201739,1,0,0:0:0:0:
340,120,201825,1,0,0:0:0:0:
328,72,201911,1,0,0:0:0:0:
284,44,201998,1,0,0:0:0:0:
232,44,202084,1,0,0:0:0:0:
196,76,202170,1,0,0:0:0:0:
180,124,202256,1,0,0:0:0:0:
200,172,202343,5,0,0:0:0:0:
244,200,202429,1,0,0:0:0:0:
296,208,202515,1,0,0:0:0:0:
344,196,202601,1,0,0:0:0:0:
384,164,202687,1,0,0:0:0:0:
408,120,202774,1,0,0:0:0:0:
408,68,202860,1,0,0:0:0:0:
384,24,202946,1,0,0:0:0:0:
336,16,203032,5,0,0:0:0:0:
288,36,203118,1,0,0:0:0:0:
268,84,203205,1,0,0:0:0:0:
288,132,203291,1,0,0:0:0:0:
308,180,203377,1,0,0:0:0:0:
328,228,203463,1,0,0:0:0:0:
320,276,203549,1,0,0:0:0:0:
284,312,203636,1,0,0:0:0:0:
236,328,203722,6,0,B|180:317|180:317|201:283|201:283|158:284|158:284|176:247|176:247|91:227|91:227|58:158|129:105|179:115,1,406.000012390137
360,268,204584,1,0,0:0:0:0:
56,209,204756,1,0,0:0:0:0:
264,96,204929,1,0,0:0:0:0:
372,344,205101,1,0,0:0:0:0:
324,380,205188,1,0,0:0:0:0:
264,380,205274,1,0,0:0:0:0:
216,344,205360,1,0,0:0:0:0:
192,288,205446,2,0,P|236:268|328:280,1,136.500000520706
429,112,206480,5,0,0:0:0:0:
414,176,206567,1,0,0:0:0:0:
361,205,206653,1,0,0:0:0:0:
298,210,206739,1,0,0:0:0:0:
240,172,206825,5,0,0:0:0:0:
179,147,206911,1,0,0:0:0:0:
118,155,206997,1,0,0:0:0:0:
82,210,207084,1,0,0:0:0:0:
96,276,207170,5,0,0:0:0:0:
128,336,207257,1,0,0:0:0:0:
196,352,207343,1,0,0:0:0:0:
264,340,207429,1,0,0:0:0:0:
324,308,207515,5,0,0:0:0:0:
364,252,207601,1,0,0:0:0:0:
388,188,207687,1,0,0:0:0:0:
372,120,207774,1,0,0:0:0:0:
332,64,207860,1,0,0:0:0:0:
272,32,207946,1,0,0:0:0:0:
204,40,208032,1,0,0:0:0:0:
148,80,208118,1,0,0:0:0:0:
116,140,208205,5,0,0:0:0:0:
116,208,208291,1,0,0:0:0:0:
148,268,208377,1,0,0:0:0:0:
208,304,208463,1,0,0:0:0:0:
276,292,208549,6,0,B|304:277|304:277|314:294|314:294|323:263|323:263|353:284|353:284|357:243|357:243|392:272|392:272|404:204,1,273.000001041412
128,72,209239,5,0,0:0:0:0:
360,312,209411,1,0,0:0:0:0:
360,312,209498,1,0,0:0:0:0:
360,312,209584,1,0,0:0:0:0:
396,48,209756,1,0,0:0:0:0:
396,48,209843,1,0,0:0:0:0:
396,48,209929,5,0,0:0:0:0:
120,68,210101,1,0,0:0:0:0:
380,312,210274,1,0,0:0:0:0:
256,192,210446,12,0,211308,0:0:0:0:
