osu file format v14

[General]
AudioFilename: audio.mp3
AudioLeadIn: 0
PreviewTime: 14187
Countdown: 0
SampleSet: Soft
StackLeniency: 0.7
Mode: 0
LetterboxInBreaks: 0
WidescreenStoryboard: 0

[Editor]
Bookmarks: 17155,42412,56530,70648
DistanceSpacing: 1.2
BeatDivisor: 8
GridSize: 4
TimelineZoom: 2.4

[Metadata]
Title:Winky Face
TitleUnicode:Winky Face
Artist:World of Wandag
ArtistUnicode:World of Wandag
Creator:Pereira006
Version:Insane
Source:HunieCam Studio
Tags:Trailer click cut version HuniePot clicker game HuniePop Soundtrack Ost worldofwandag
BeatmapID:945298
BeatmapSetID:439220

[Difficulty]
HPDrainRate:7
CircleSize:4.2
OverallDifficulty:7
ApproachRate:8.3
SliderMultiplier:1.8
SliderTickRate:1

[Events]
//Background and Video events
0,0,"background.jpg",0,0
//Break Periods
//Storyboard Layer 0 (Background)
//Storyboard Layer 1 (Fail)
//Storyboard Layer 2 (Pass)
//Storyboard Layer 3 (Foreground)
//Storyboard Sound Samples

[TimingPoints]
75,441.176470588235,4,2,0,70,1,0
7133,-100,4,2,0,50,0,0
8016,-100,4,2,0,55,0,0
8898,-100,4,2,0,60,0,0
9780,-100,4,2,0,65,0,0
10663,-100,4,2,0,70,0,0
11545,-100,4,2,0,75,0,0
12427,-100,4,2,0,80,0,0
20589,-100,4,1,0,30,0,0
20810,-100,4,2,0,70,0,0
20920,-100,4,1,0,30,0,0
21251,-100,4,2,0,70,0,0
27207,-100,4,1,0,30,0,0
27869,-100,4,2,0,70,0,0
28310,-100,4,2,0,70,0,0
34707,-100,4,1,0,30,0,0
34927,-100,4,2,0,70,0,0
35038,-100,4,1,0,30,0,0
35369,-100,4,2,0,70,0,0
41324,-100,4,1,0,30,0,0
41986,-100,4,2,0,70,0,0
42097,-100,4,1,0,30,0,0
42427,-100,4,2,0,60,0,0
83016,-100,4,1,0,30,0,0
83457,-100,4,2,0,70,0,0
83567,-100,4,1,0,30,0,0
84339,-100,4,2,0,70,0,0
84449,-100,4,1,0,30,0,0
84780,-100,4,2,0,70,0,1
91177,-100,4,1,0,30,0,1
91398,-100,4,2,0,70,0,1
91508,-100,4,1,0,30,0,1
91839,-100,4,2,0,70,0,1
97905,-100,4,1,0,30,0,1
98457,-100,4,2,0,70,0,1
98567,-100,4,1,0,30,0,1
98788,-100,4,1,0,30,0,0
98898,-100,4,2,0,70,0,1
105295,-100,4,1,0,30,0,1
105516,-100,4,2,0,70,0,1
105626,-100,4,1,0,30,0,1
105957,-100,4,2,0,70,0,1
111913,-100,4,1,0,30,0,1
112574,-100,4,2,0,70,0,1
112685,-100,4,1,0,30,0,1
113016,-100,4,2,0,70,0,0

[Colours]
Combo1 : 255,192,0
Combo2 : 0,187,187
Combo3 : 183,0,91
Combo4 : 168,0,0

[HitObjects]
256,192,7133,12,0,13751,0:0:0:0:
48,124,14192,5,4,0:2:0:0:
144,72,14413,2,0,L|120:32,2,45,0|0|8,0:0|0:0|0:1,0:0:0:0:
252,88,14854,1,0,0:0:0:0:
252,88,14964,1,0,0:0:0:0:
252,88,15074,1,2,0:0:0:0:
328,220,15295,1,0,0:0:0:0:
356,115,15516,1,8,0:1:0:0:
224,192,15737,1,0,0:0:0:0:
369,23,15957,6,0,P|433:63|435:164,1,180,2|8,0:0|0:1,0:0:0:0:
345,217,16619,1,0,0:0:0:0:
345,217,16729,1,0,0:0:0:0:
345,217,16839,2,0,P|358:260|354:307,1,90,2|0,0:0|0:0,0:0:0:0:
122,307,17280,2,0,P|118:262|131:219,1,90,8|0,0:1|0:0,0:0:0:0:
216,56,17722,6,0,P|304:72|380:120,1,180,2|8,0:0|0:1,0:0:0:0:
388,220,18383,1,0,0:0:0:0:
388,220,18494,1,0,0:0:0:0:
388,220,18604,1,2,0:0:0:0:
200,212,18824,1,0,0:0:0:0:
289,264,19045,1,8,0:1:0:0:
101,256,19265,1,0,0:0:0:0:
375,292,19486,6,0,P|311:355|230:333,1,180,2|8,0:0|0:1,0:0:0:0:
188,236,20148,2,0,L|184:192,2,45,0|0|2,0:0|0:0|0:0,0:0:0:0:
112,312,20589,1,0,0:0:0:0:
90,295,20699,1,0,0:0:0:0:
72,274,20810,1,8,1:1:0:0:
60,249,20920,1,0,0:0:0:0:
54,222,21030,1,0,0:0:0:0:
50,195,21141,1,0,0:0:0:0:
48,168,21251,6,0,P|84:84|164:52,1,180,4|8,0:0|0:1,0:0:0:0:
268,56,21913,1,0,0:0:0:0:
268,56,22023,1,0,0:0:0:0:
268,56,22133,1,2,0:0:0:0:
425,53,22354,1,0,0:0:0:0:
344,124,22574,1,8,0:1:0:0:
501,121,22795,1,0,0:0:0:0:
245,176,23016,6,0,P|169:224|140:307,1,180,2|8,0:0|0:1,0:0:0:0:
223,374,23677,1,0,0:0:0:0:
223,374,23788,1,0,0:0:0:0:
223,374,23898,2,0,P|269:374|311:363,1,90,2|0,0:0|0:0,0:0:0:0:
314,189,24339,2,0,P|270:177|225:177,1,90,8|0,0:1|0:0,0:0:0:0:
385,278,24780,6,0,P|426:197|401:113,1,180,2|8,0:0|0:1,0:0:0:0:
316,48,25442,1,0,0:0:0:0:
316,48,25552,1,0,0:0:0:0:
316,48,25663,1,2,0:0:0:0:
116,100,25883,1,0,0:0:0:0:
56,12,26104,1,8,0:1:0:0:
224,100,26324,1,0,0:0:0:0:
48,184,26545,6,0,P|80:272|148:328,1,180,2|8,0:0|0:1,0:0:0:0:
248,300,27207,1,0,0:0:0:0:
248,272,27317,1,0,0:0:0:0:
248,244,27427,1,2,0:2:0:0:
248,216,27538,1,0,0:0:0:0:
252,188,27648,1,0,0:0:0:0:
256,160,27758,1,0,0:0:0:0:
263,133,27869,2,0,L|272:112,6,22.5,2|0|0|0|0|0|0,0:0|0:0|0:0|0:0|0:0|0:0|0:0,0:0:0:0:
284,88,28310,6,0,P|373:77|449:122,1,180,4|8,0:0|0:1,0:0:0:0:
464,244,28972,1,0,0:0:0:0:
464,244,29082,1,0,0:0:0:0:
464,244,29192,1,2,0:0:0:0:
275,188,29413,1,0,0:0:0:0:
331,95,29633,1,8,0:1:0:0:
356,260,29854,1,0,0:0:0:0:
188,352,30074,6,0,P|96:348|44:280,1,180,2|8,0:0|0:1,0:0:0:0:
44,176,30736,1,0,0:0:0:0:
44,176,30847,1,0,0:0:0:0:
44,176,30957,2,0,P|88:168|132:152,1,90,2|0,0:0|0:3,0:3:0:0:
250,28,31398,2,0,P|206:36|164:51,1,90,8|0,0:1|0:0,0:0:0:0:
316,116,31839,6,0,P|408:116|476:180,1,180,0|8,0:0|0:1,0:0:0:0:
444,276,32501,1,0,0:0:0:0:
444,276,32611,1,0,0:0:0:0:
444,276,32722,1,2,0:0:0:0:
244,284,32942,1,0,0:0:0:0:
168,360,33163,1,8,0:1:0:0:
172,204,33383,1,0,0:0:0:0:
316,356,33604,6,0,L|347:272,1,90,2|0,0:0|0:0,0:0:0:0:
291,124,34045,2,0,L|260:208,1,90,8|0,0:1|0:0,0:0:0:0:
400,136,34486,2,0,L|431:52,1,90,2|0,0:0|0:0,0:0:0:0:
432,24,34817,1,0,0:0:0:0:
408,12,34927,1,8,0:1:0:0:
380,8,35038,1,0,0:0:0:0:
352,8,35148,1,0,0:0:0:0:
324,16,35258,1,0,0:0:0:0:
300,28,35369,6,0,P|228:80|132:76,1,180,4|8,0:0|0:1,0:0:0:0:
44,28,36030,1,0,0:0:0:0:
44,28,36141,1,0,0:0:0:0:
44,28,36251,1,2,0:0:0:0:
80,220,36472,1,0,0:0:0:0:
20,132,36692,1,8,0:1:0:0:
12,304,36913,1,0,0:0:0:0:
128,132,37133,6,0,P|173:133|217:142,1,90,2|0,0:0|0:0,0:0:0:0:
316,185,37574,1,8,0:1:0:0:
375,313,37795,2,0,P|343:344|299:355,1,90,0|2,0:0|0:0,0:0:0:0:
192,356,38236,1,0,0:0:0:0:
40,236,38457,1,8,0:1:0:0:
88,332,38677,1,0,0:0:0:0:
88,332,38788,1,0,0:0:0:0:
88,332,38898,6,0,P|139:257|117:168,1,180,2|8,0:0|0:1,0:0:0:0:
28,108,39560,1,0,0:0:0:0:
28,108,39670,1,0,0:0:0:0:
28,108,39780,1,2,0:0:0:0:
228,28,40001,1,0,0:0:0:0:
120,20,40222,1,8,0:1:0:0:
316,88,40442,1,0,0:0:0:0:
124,120,40663,6,0,P|144:212|204:272,1,180,2|8,0:0|0:1,0:0:0:0:
312,268,41324,1,0,0:0:0:0:
340,264,41435,1,0,0:0:0:0:
364,252,41545,2,0,L|385:230,6,22.5,2|0|0|0|0|0|0,0:0|0:0|0:0|0:0|0:0|0:0|0:0,0:0:0:0:
395,219,41986,2,0,L|406:199,6,22.5,2|0|0|0|0|0|0,0:0|0:0|0:0|0:0|0:0|0:0|0:0,0:0:0:0:
422,177,42427,6,0,P|405:90|326:47,1,180,4|8,0:0|0:0,0:0:0:0:
164,196,43089,1,0,0:0:0:0:
152,88,43310,1,2,0:0:0:0:
76,256,43530,1,0,0:0:0:0:
256,140,43751,1,8,0:0:0:0:
64,148,43972,1,0,0:0:0:0:
252,256,44192,6,0,P|336:280|412:232,1,180,2|8,0:0|0:0,0:0:0:0:
248,92,44854,1,0,0:0:0:0:
332,24,45074,1,2,0:0:0:0:
332,160,45295,1,0,0:0:0:0:
88,96,45516,1,8,0:0:0:0:
168,24,45736,1,0,0:0:0:0:
168,168,45957,6,0,P|168:264|216:328,1,180,2|8,0:0|0:0,0:0:0:0:
400,244,46619,1,0,0:0:0:0:
324,320,46839,1,2,0:0:0:0:
476,168,47060,1,0,0:0:0:0:
320,168,47280,1,8,0:0:0:0:
476,324,47501,1,0,0:0:0:0:
400,92,47722,6,0,P|360:64|320:56,1,90,2|0,0:0|0:0,0:0:0:0:
148,76,48163,2,0,P|184:102|228:112,1,90,8|0,0:0|0:0,0:0:0:0:
284,116,48494,1,0,0:0:0:0:
336,132,48604,2,0,P|372:164|388:208,1,90,2|0,0:0|0:0,0:0:0:0:
340,328,49045,1,8,0:0:0:0:
212,368,49266,1,8,0:0:0:0:
52,304,49486,6,0,P|28:216|72:140,1,180,4|8,0:0|0:0,0:0:0:0:
288,116,50148,1,0,0:0:0:0:
228,28,50369,1,2,0:0:0:0:
220,200,50589,1,0,0:0:0:0:
368,40,50810,1,8,0:0:0:0:
172,104,51030,1,0,0:0:0:0:
360,196,51251,6,0,P|344:288|272:344,1,180,2|8,0:0|0:0,0:0:0:0:
88,272,51913,1,0,0:0:0:0:
12,192,52133,1,2,0:0:0:0:
184,220,52354,1,0,0:0:0:0:
4,340,52574,1,8,0:0:0:0:
172,340,52795,1,0,0:0:0:0:
108,140,53016,6,0,P|168:72|252:64,1,180,2|8,0:0|0:0,0:0:0:0:
376,196,53677,1,0,0:0:0:0:
464,108,53898,1,2,0:0:0:0:
272,164,54119,1,0,0:0:0:0:
452,272,54339,1,8,0:0:0:0:
356,88,54560,1,0,0:0:0:0:
300,268,54780,5,2,0:0:0:0:
300,268,54891,1,0,0:0:0:0:
300,268,55001,1,0,0:0:0:0:
193,287,55222,1,8,0:0:0:0:
193,287,55332,1,0,0:0:0:0:
193,287,55442,1,0,0:0:0:0:
85,274,55663,1,2,0:0:0:0:
61,261,55773,1,0,0:0:0:0:
44,239,55883,1,0,0:0:0:0:
28,216,55994,1,0,0:0:0:0:
15,182,56104,2,0,L|9:160,6,22.5,2|0|0|0|0|0|0,0:0|0:0|0:0|0:0|0:0|0:0|0:0,0:0:0:0:
6,133,56545,6,0,P|75:79|163:87,1,180,4|8,0:0|0:0,0:0:0:0:
255,252,57207,2,0,P|203:260|159:256,1,90,0|2,0:0|0:0,0:0:0:0:
95,176,57648,1,0,0:0:0:0:
127,356,57869,1,8,0:0:0:0:
199,156,58089,1,0,0:0:0:0:
51,276,58310,5,2,0:0:0:0:
315,312,58530,1,0,0:0:0:0:
259,228,58751,1,8,0:0:0:0:
227,376,58972,1,0,0:0:0:0:
411,380,59192,2,0,P|431:340|435:296,1,90,2|0,0:0|0:0,0:0:0:0:
407,192,59633,1,8,0:0:0:0:
435,296,59854,1,0,0:0:0:0:
324,108,60074,6,0,P|248:76|164:120,1,180,2|8,0:0|0:0,0:0:0:0:
1,233,60736,2,0,P|83:265|160:224,1,180,2|0,0:0|0:0,0:0:0:0:
165,117,61398,1,8,0:0:0:0:
160,332,61619,6,0,P|248:352|332:328,1,180,2|0,0:0|0:0,0:0:0:0:
268,240,62280,1,8,0:0:0:0:
428,276,62501,2,0,P|440:228|440:188,1,90,0|2,0:0|0:0,0:0:0:0:
396,88,62942,1,8,0:0:0:0:
296,48,63163,1,0,0:0:0:0:
188,60,63383,1,0,0:0:0:0:
188,60,63494,1,0,0:0:0:0:
188,60,63604,1,2,0:0:0:0:
60,232,63824,5,0,0:0:0:0:
256,144,64045,1,8,0:0:0:0:
56,60,64266,1,0,0:0:0:0:
192,228,64486,1,2,0:0:0:0:
188,60,64707,1,0,0:0:0:0:
84,148,64927,1,8,0:0:0:0:
332,80,65148,2,0,P|356:124|360:164,1,90,0|2,0:0|0:0,0:0:0:0:
368,272,65589,5,0,0:0:0:0:
368,272,65699,1,0,0:0:0:0:
368,272,65810,1,8,0:0:0:0:
132,316,66030,1,0,0:0:0:0:
200,232,66251,1,2,0:0:0:0:
40,376,66472,1,0,0:0:0:0:
44,268,66692,1,8,0:0:0:0:
232,352,66913,2,0,P|272:332|304:300,1,90,0|2,0:0|0:0,0:0:0:0:
348,200,67354,5,0,0:0:0:0:
348,200,67464,1,0,0:0:0:0:
348,200,67574,1,8,0:0:0:0:
112,112,67795,1,0,0:0:0:0:
212,76,68016,1,2,0:0:0:0:
40,180,68236,1,0,0:0:0:0:
12,76,68457,1,8,0:0:0:0:
184,180,68677,2,0,P|164:220|160:264,1,90,0|2,0:0|0:0,0:0:0:0:
322,341,69119,6,0,P|278:351|236:340,1,90,0|8,0:0|0:0,0:0:0:0:
400,268,69560,2,0,P|396:223|376:183,1,90,0|2,0:0|0:0,0:0:0:0:
288,124,70001,2,0,L|258:116,3,30,0|0|0|2,0:0|0:0|0:0|0:0,0:0:0:0:
209,94,70332,2,0,L|177:62,1,45
356,48,70663,6,0,P|436:88|472:168,1,180,4|8,0:0|0:0,0:0:0:0:
369,284,71324,2,0,P|414:287|456:272,1,90,0|2,0:0|0:0,0:0:0:0:
284,152,71766,1,0,0:0:0:0:
264,260,71986,1,8,0:0:0:0:
188,76,72207,1,0,0:0:0:0:
384,188,72427,5,2,0:0:0:0:
284,24,72648,1,0,0:0:0:0:
188,184,72869,1,8,0:0:0:0:
360,100,73089,1,0,0:0:0:0:
80,84,73310,2,0,P|52:124|44:168,1,90,2|0,0:0|0:0,0:0:0:0:
204,244,73751,1,8,0:0:0:0:
96,244,73972,1,0,0:0:0:0:
269,154,74192,5,2,0:0:0:0:
433,130,74413,1,0,0:0:0:0:
337,94,74633,1,4,0:0:0:0:
448,220,74854,2,0,P|448:264|436:320,1,90,0|2,0:0|0:0,0:0:0:0:
248,236,75295,1,0,0:0:0:0:
352,212,75516,1,8,0:0:0:0:
256,344,75736,2,0,P|200:344|160:328,1,90,0|2,0:0|0:0,0:0:0:0:
64,188,76177,6,0,P|62:233|75:276,1,90,0|8,0:0|0:0,0:0:0:0:
176,240,76619,1,0,0:0:0:0:
220,140,76839,1,2,0:0:0:0:
232,116,76949,1,0,0:0:0:0:
245,92,77060,1,0,0:0:0:0:
263,72,77170,1,0,0:0:0:0:
285,57,77280,1,8,0:0:0:0:
311,49,77391,1,0,0:0:0:0:
337,45,77501,1,0,0:0:0:0:
363,44,77611,1,0,0:0:0:0:
390,44,77722,5,4,0:0:0:0:
452,192,77942,1,0,0:0:0:0:
300,280,78163,1,8,0:0:0:0:
488,88,78383,1,0,0:0:0:0:
256,192,78604,1,2,0:0:0:0:
408,280,78824,1,0,0:0:0:0:
356,112,79045,1,8,0:0:0:0:
356,356,79266,2,0,P|312:360|264:360,1,90,0|2,0:0|0:0,0:0:0:0:
160,332,79707,5,0,0:0:0:0:
160,332,79817,1,0,0:0:0:0:
160,332,79927,1,8,0:0:0:0:
92,88,80148,1,0,0:0:0:0:
280,184,80369,1,2,0:0:0:0:
72,192,80589,1,0,0:0:0:0:
244,84,80810,1,8,0:0:0:0:
176,208,81030,2,0,P|184:252|212:292,1,90,0|2,0:0|0:0,0:0:0:0:
312,324,81472,5,0,0:0:0:0:
312,324,81582,1,0,0:0:0:0:
312,324,81692,1,8,0:0:0:0:
372,136,81913,1,0,0:0:0:0:
448,60,82133,1,2,0:0:0:0:
304,220,82354,1,0,0:0:0:0:
288,68,82574,1,8,0:0:0:0:
432,224,82795,1,0,0:0:0:0:
212,144,83016,6,0,L|168:124,3,45,2|0|0|0,0:0|0:0|0:0|0:0,0:0:0:0:
144,124,83457,2,0,L|96:152,3,45,8|0|0|0,0:0|0:0|0:0|0:0,0:0:0:0:
84,164,83898,1,2,0:0:0:0:
68,188,84008,1,0,0:0:0:0:
56,212,84119,1,0,0:0:0:0:
48,240,84229,1,0,0:0:0:0:
44,268,84339,1,2,0:0:0:0:
48,296,84449,1,0,0:0:0:0:
60,320,84560,1,0,0:0:0:0:
72,344,84670,1,0,0:0:0:0:
92,360,84780,6,0,P|184:372|264:344,1,180,4|8,0:0|0:1,0:0:0:0:
252,236,85442,1,0,0:0:0:0:
252,236,85552,1,0,0:0:0:0:
252,236,85663,1,2,0:0:0:0:
192,28,85883,1,0,0:0:0:0:
84,28,86104,1,8,0:1:0:0:
236,128,86324,1,0,0:0:0:0:
44,128,86545,6,0,P|24:216|48:304,1,180,2|8,0:0|0:1,0:0:0:0:
144,348,87207,1,0,0:0:0:0:
144,348,87317,1,0,0:0:0:0:
144,348,87427,2,0,P|192:356|232:352,1,90,2|0,0:0|0:0,0:0:0:0:
388,260,87869,2,0,P|344:268|300:264,1,90,8|0,0:1|0:0,0:0:0:0:
55,154,88310,6,0,P|135:193|224:188,1,180,2|8,0:0|0:1,0:0:0:0:
288,100,88972,1,0,0:0:0:0:
288,100,89082,1,0,0:0:0:0:
288,100,89192,1,2,0:0:0:0:
480,84,89413,1,0,0:0:0:0:
480,192,89633,1,8,0:1:0:0:
380,44,89854,1,0,0:0:0:0:
388,248,90074,6,0,P|300:272|216:252,1,180,2|8,0:0|0:1,0:0:0:0:
192,144,90736,2,0,L|232:124,2,45,0|0|2,0:0|0:0|0:0,0:0:0:0:
88,120,91177,1,0,0:0:0:0:
63,131,91288,1,0,0:0:0:0:
43,149,91398,1,0,0:0:0:0:
29,172,91508,1,0,0:0:0:0:
17,196,91619,1,0,0:0:0:0:
12,222,91729,1,0,0:0:0:0:
16,248,91839,6,0,P|76:316|164:312,1,180,4|8,0:0|0:1,0:0:0:0:
244,248,92501,1,0,0:0:0:0:
244,248,92611,1,0,0:0:0:0:
244,248,92722,1,2,0:0:0:0:
344,328,92942,1,0,0:0:0:0:
348,220,93163,1,8,0:1:0:0:
240,352,93383,1,0,0:0:0:0:
232,140,93604,6,0,P|320:112|408:136,1,180,2|8,0:0|0:1,0:0:0:0:
432,236,94266,1,0,0:0:0:0:
432,236,94376,1,0,0:0:0:0:
432,236,94486,2,0,P|432:280|420:328,1,90,2|0,0:0|0:0,0:0:0:0:
242,263,94927,2,0,P|287:259|331:263,1,90,8|0,0:1|0:0,0:0:0:0:
156,328,95369,6,0,P|76:280|44:200,1,180,2|8,0:0|0:1,0:0:0:0:
52,96,96030,1,0,0:0:0:0:
52,96,96141,1,0,0:0:0:0:
52,96,96251,1,2,0:0:0:0:
184,172,96472,1,0,0:0:0:0:
156,68,96692,1,8,0:1:0:0:
136,268,96913,1,0,0:0:0:0:
260,96,97133,6,0,P|304:104|344:124,1,90,2|0,0:0|0:0,0:0:0:0:
344,264,97574,2,0,P|303:284|259:292,1,90,8|0,0:1|0:0,0:0:0:0:
232,295,97905,1,0,0:0:0:0:
204,295,98016,1,0,0:0:0:0:
177,289,98126,1,0,0:0:0:0:
152,278,98236,1,0,0:0:0:0:
128,264,98347,1,0,0:0:0:0:
107,246,98457,1,2,0:0:0:0:
93,222,98567,1,0,0:0:0:0:
78,189,98677,2,0,L|73:167,2,22.5
72,139,98898,6,0,P|129:71|217:56,1,180,4|8,0:0|0:1,0:0:0:0:
332,92,99560,1,0,0:0:0:0:
332,92,99670,1,0,0:0:0:0:
332,92,99780,1,2,0:0:0:0:
408,252,100001,1,0,0:0:0:0:
308,216,100222,1,8,0:1:0:0:
428,144,100442,1,0,0:0:0:0:
240,300,100663,6,0,P|196:312|148:308,1,90,2|0,0:0|0:0,0:0:0:0:
0,210,101104,2,0,P|43:222|88:220,1,90,8|0,0:1|0:0,0:0:0:0:
239,122,101545,2,0,P|196:134|152:132,1,90,2|0,0:0|0:0,0:0:0:0:
0,34,101986,2,0,P|43:46|88:43,1,90,8|0,0:1|0:0,0:0:0:0:
330,19,102427,6,0,P|410:59|446:139,1,180,2|8,0:0|0:1,0:0:0:0:
398,235,103089,1,0,0:0:0:0:
398,235,103199,1,0,0:0:0:0:
398,235,103310,1,2,0:0:0:0:
192,292,103530,1,0,0:0:0:0:
156,192,103751,1,8,0:1:0:0:
300,300,103972,1,0,0:0:0:0:
236,116,104192,6,0,P|168:63|83:82,1,180,2|8,0:0|0:1,0:0:0:0:
12,165,104854,1,0,0:0:0:0:
16,272,105074,2,0,P|32:316|76:344,1,90,2|0,0:0|0:0,0:0:0:0:
92,344,105405,1,0,0:0:0:0:
120,340,105516,1,8,1:1:0:0:
144,328,105626,1,0,0:0:0:0:
168,316,105736,1,0,0:0:0:0:
188,296,105847,1,0,0:0:0:0:
208,276,105957,6,0,P|204:224|220:184,1,90,4|0,0:0|0:0,0:0:0:0:
468,220,106398,2,0,P|472:272|456:312,1,90,8|0,0:1|0:0,0:0:0:0:
308,132,106839,2,0,P|360:128|400:144,1,90,2|0,0:0|0:0,0:0:0:0:
368,364,107280,2,0,P|316:368|276:352,1,90,8|0,0:1|0:0,0:0:0:0:
308,132,107722,6,0,P|228:80|144:76,1,180,2|8,0:0|0:1,0:0:0:0:
84,164,108383,1,0,0:0:0:0:
84,164,108494,1,0,0:0:0:0:
84,164,108604,2,0,P|76:208|84:256,1,90,2|0,0:0|0:0,0:0:0:0:
244,252,109045,2,0,P|250:207|242:163,1,90,8|0,0:1|0:0,0:0:0:0:
164,324,109486,6,0,P|248:356|332:324,1,180,2|8,0:0|0:1,0:0:0:0:
368,224,110148,1,0,0:0:0:0:
368,224,110258,1,0,0:0:0:0:
368,224,110369,1,2,0:0:0:0:
332,68,110589,1,0,0:0:0:0:
484,176,110810,1,8,0:1:0:0:
440,76,111030,1,0,0:0:0:0:
280,164,111251,6,0,P|231:166|191:143,1,90,2|0,0:0|0:0,0:0:0:0:
66,21,111692,2,0,P|110:13|155:21,1,90,8|0,0:1|0:0,0:0:0:0:
178,32,112023,1,0,0:0:0:0:
201,45,112133,1,2,0:0:0:0:
226,54,112244,1,0,0:0:0:0:
252,56,112354,1,0,0:0:0:0:
278,54,112464,1,0,0:0:0:0:
304,48,112574,1,2,0:0:0:0:
330,40,112685,1,0,0:0:0:0:
355,32,112795,1,0,0:0:0:0:
380,23,112905,1,0,0:0:0:0:
406,16,113016,5,4,0:0:0:0:
