osu file format v14

[General]
AudioFilename: audio.mp3
AudioLeadIn: 0
PreviewTime: 63054
Countdown: 0
SampleSet: Soft
StackLeniency: 0.7
Mode: 0
LetterboxInBreaks: 0
WidescreenStoryboard: 0

[Editor]
Bookmarks: 2999,8998,14998,20997,26996,38995,44994,50993,56992,62992,98025,98987
DistanceSpacing: 1
BeatDivisor: 4
GridSize: 4
TimelineZoom: 1.5

[Metadata]
Title:Final Boss 2
TitleUnicode:Final Boss 2
Artist:Woofle
ArtistUnicode:Woofle
Creator:Pereira006
Version:Normal
Source:Freedom Planet
Tags:galaxytrail フリーダム・プラネット Brevon
BeatmapID:994738
BeatmapSetID:461945

[Difficulty]
HPDrainRate:3
CircleSize:3
OverallDifficulty:4
ApproachRate:4.5
SliderMultiplier:1.2
SliderTickRate:1

[Events]
//Background and Video events
0,0,"brevon.jpg",0,0
//Break Periods
//Storyboard Layer 0 (Background)
//Storyboard Layer 1 (Fail)
//Storyboard Layer 2 (Pass)
//Storyboard Layer 3 (Foreground)
//Storyboard Sound Samples

[TimingPoints]
62,374.953130858643,4,2,0,60,1,0
63054,-100,4,2,0,60,0,0
66053,-100,4,2,0,70,0,1
78052,-100,4,2,0,60,0,0

[Colours]
Combo1 : 242,24,57
Combo2 : 0,202,0
Combo3 : 217,217,0
SliderBorder : 255,255,0

[HitObjects]
84,80,3061,5,4,0:0:0:0:
176,156,3436,1,8,0:0:0:0:
276,92,3811,1,0,0:0:0:0:
360,176,4186,1,8,0:0:0:0:
464,116,4561,2,0,P|440:88|412:72,2,60,2|0|8,0:0|0:0|0:0,0:0:0:0:
464,236,5311,2,0,P|440:264|420:276,2,60,0|0|8,0:0|0:0|0:0,0:0:0:0:
360,176,6061,5,2,0:0:0:0:
272,260,6436,1,8,0:0:0:0:
248,144,6811,1,0,0:0:0:0:
156,224,7186,1,8,0:0:0:0:
60,152,7561,2,0,P|28:164|4:188,2,60,2|0|8,0:0|0:0|0:0,0:0:0:0:
124,52,8310,2,0,P|92:40|68:16,2,60,0|0|8,0:0|0:0|0:0,0:0:0:0:
244,36,9060,5,2,0:0:0:0:
364,36,9435,1,8,0:0:0:0:
464,104,9810,2,0,P|480:164|476:224,1,120,0|8,0:0|0:0,0:0:0:0:
388,304,10560,1,2,0:0:0:0:
268,304,10935,1,8,0:0:0:0:
148,284,11310,2,0,P|144:224|160:166,1,120,0|8,0:0|0:0,0:0:0:0:
236,72,12060,6,0,P|180:48|120:44,1,120,2|8,0:0|0:0,0:0:0:0:
76,156,12810,2,0,L|16:156,2,60,0|0|8,0:0|0:0|0:0,0:0:0:0:
152,248,13560,2,0,P|208:272|268:276,1,120,2|8,0:0|0:0,0:0:0:0:
344,184,14310,2,0,L|396:216,2,60,0|0|8,0:0|0:0|0:0,0:0:0:0:
364,64,15060,5,4,0:0:0:0:
248,36,15435,1,8,0:0:0:0:
140,88,15810,1,0,0:0:0:0:
80,192,16184,1,8,0:0:0:0:
136,300,16559,2,0,L|104:356,2,60,2|0|8,0:0|0:0|0:0,0:0:0:0:
224,220,17309,2,0,L|256:164,2,60,0|0|8,0:0|0:0|0:0,0:0:0:0:
296,316,18059,5,2,0:0:0:0:
416,304,18434,1,8,0:0:0:0:
476,200,18809,1,0,0:0:0:0:
408,100,19184,1,8,0:0:0:0:
288,64,19559,2,0,L|264:8,2,60,2|0|8,0:0|0:0|0:0,0:0:0:0:
296,180,20309,2,0,L|272:236,2,60,0|0|8,0:0|0:0|0:0,0:0:0:0:
204,104,21059,5,2,0:0:0:0:
88,128,21434,1,8,0:0:0:0:
68,248,21809,2,0,P|120:276|184:276,1,120,0|8,0:0|0:0,0:0:0:0:
300,268,22559,1,2,0:0:0:0:
368,168,22934,1,8,0:0:0:0:
320,56,23309,2,0,P|260:56|204:80,1,120,0|8,0:0|0:0,0:0:0:0:
180,196,24059,6,0,P|117:185|64:156,1,120,2|8,0:0|0:0,0:0:0:0:
88,40,24808,2,0,L|24:28,2,60,0|0|8,0:0|0:0|0:0,0:0:0:0:
208,32,25558,2,0,P|270:42|324:72,1,120,2|8,0:0|0:0,0:0:0:0:
372,176,26308,2,0,L|432:156,2,60,0|0|8,0:0|0:0|0:0,0:0:0:0:
260,220,27058,6,0,P|200:228|132:216,1,120,4|8,0:0|0:0,0:0:0:0:
84,200,27621,2,0,P|60:180|48:144,1,60,0|2,0:0|0:0,0:0:0:0:
48,92,27996,1,0,0:0:0:0:
56,32,28183,1,8,0:0:0:0:
172,24,28558,2,0,P|232:24|292:40,1,120,2|8,0:0|0:0,0:0:0:0:
344,64,29120,2,0,P|372:72|404:92,1,60,0|2,0:0|0:0,0:0:0:0:
440,132,29495,1,0,0:0:0:0:
452,192,29683,1,8,0:0:0:0:
396,300,30058,5,2,0:0:0:0:
288,252,30433,2,0,L|288:192,2,60,8|0|0,0:0|0:0|0:0,0:0:0:0:
176,300,31183,1,8,0:0:0:0:
116,300,31370,2,0,P|40:248|24:164,1,180,2|8,0:0|0:0,0:0:0:0:
92,68,32307,2,0,P|148:40|204:36,1,120,0|8,0:0|0:0,0:0:0:0:
320,48,33057,6,0,P|352:104|356:160,1,120,4|8,0:0|0:0,0:0:0:0:
352,220,33620,2,0,P|344:248|324:276,1,60,0|2,0:0|0:0,0:0:0:0:
276,304,33995,1,0,0:0:0:0:
216,316,34182,1,8,0:0:0:0:
96,308,34557,2,0,P|65:256|59:197,1,120,2|8,0:0|0:0,0:0:0:0:
64,136,35120,2,0,P|68:100|84:80,1,60,0|2,0:0|0:0,0:0:0:0:
128,44,35495,1,0,0:0:0:0:
184,28,35682,1,8,0:0:0:0:
304,32,36057,5,2,0:0:0:0:
360,140,36432,2,0,P|392:124|412:104,2,60,8|0|0,0:0|0:0|0:0,0:0:0:0:
240,136,37182,1,8,0:0:0:0:
180,140,37369,2,0,P|92:160|48:236,1,180,2|8,0:0|0:0,0:0:0:0:
92,344,38307,2,0,P|152:352|212:336,1,120,0|8,0:0|0:0,0:0:0:0:
304,264,39057,5,4,0:0:0:0:
424,252,39432,1,8,0:0:0:0:
447,134,39807,1,0,0:0:0:0:
348,68,40181,1,8,0:0:0:0:
232,40,40556,2,0,L|172:24,2,60,2|0|8,0:0|0:0|0:0,0:0:0:0:
172,144,41306,2,0,L|112:164,2,60,0|0|8,0:0|0:0|0:0,0:0:0:0:
292,132,42056,5,2,0:0:0:0:
404,176,42431,1,8,0:0:0:0:
384,296,42806,1,0,0:0:0:0:
268,328,43181,1,8,0:0:0:0:
164,268,43556,2,0,L|112:304,2,60,2|0|8,0:0|0:0|0:0,0:0:0:0:
260,196,44306,2,0,L|312:160,2,60,0|0|8,0:0|0:0|0:0,0:0:0:0:
140,180,45056,5,2,0:0:0:0:
79,76,45431,1,8,0:0:0:0:
184,20,45806,2,0,P|244:24|300:48,1,120,0|8,0:0|0:0,0:0:0:0:
392,124,46556,1,2,0:0:0:0:
404,244,46931,1,8,0:0:0:0:
324,332,47306,2,0,P|264:328|209:304,1,120,0|8,0:0|0:0,0:0:0:0:
132,212,48056,6,0,P|112:156|112:96,1,120,2|8,0:0|0:0,0:0:0:0:
228,72,48805,2,0,L|228:136,2,60,0|0|8,0:0|0:0|0:0,0:0:0:0:
344,96,49555,2,0,P|344:155|323:211,1,120,2|8,0:0|0:0,0:0:0:0:
256,312,50305,2,0,L|256:372,2,60,0|0|8,0:0|0:0|0:0,0:0:0:0:
136,296,51055,5,4,0:0:0:0:
232,224,51430,1,8,0:0:0:0:
120,184,51805,1,0,0:0:0:0:
216,116,52180,1,8,0:0:0:0:
144,20,52555,2,0,P|104:16|72:20,2,60,2|0|8,0:0|0:0|0:0,0:0:0:0:
264,16,53305,2,0,P|304:12|336:16,2,60,0|0|8,0:0|0:0|0:0,0:0:0:0:
216,116,54055,5,2,0:0:0:0:
336,120,54430,1,8,0:0:0:0:
424,204,54805,1,0,0:0:0:0:
352,300,55180,1,8,0:0:0:0:
232,300,55555,2,0,L|232:232,2,60,2|0|8,0:0|0:0|0:0,0:0:0:0:
112,304,56304,2,0,L|112:372,2,60,0|0|8,0:0|0:0|0:0,0:0:0:0:
24,224,57054,5,2,0:0:0:0:
112,140,57429,1,8,0:0:0:0:
32,52,57804,2,0,P|88:24|144:27,1,120,0|8,0:0|0:0,0:0:0:0:
264,44,58554,1,2,0:0:0:0:
376,96,58929,1,8,0:0:0:0:
412,208,59304,2,0,P|356:232|296:232,1,120,0|8,0:0|0:0,0:0:0:0:
204,160,60054,6,0,P|144:160|89:184,1,120,2|8,0:0|0:0,0:0:0:0:
104,304,60804,2,0,L|52:332,2,60,0|0|8,0:0|0:0|0:0,0:0:0:0:
220,332,61554,2,0,P|279:331|334:307,1,120,2|8,0:0|0:0,0:0:0:0:
384,196,62304,2,0,L|436:168,2,60,0|0|8,0:0|0:0|0:0,0:0:0:0:
296,112,63054,5,2,0:0:0:0:
176,92,63429,1,2,0:0:0:0:
64,136,63804,1,2,0:0:0:0:
88,252,64178,2,0,P|148:260|208:252,1,120,2|2,0:0|3:0,0:0:0:0:
284,160,64928,2,0,P|344:152|404:160,1,120,2|2,0:0|3:0,0:0:0:0:
484,248,65678,1,2,0:0:0:0:
400,332,66053,6,0,P|340:348|280:348,1,120,4|8,0:0|0:0,0:0:0:0:
224,340,66616,2,0,P|192:336|160:328,1,60,0|2,0:0|0:0,0:0:0:0:
112,300,66991,1,0,0:0:0:0:
72,256,67178,1,8,0:0:0:0:
84,136,67553,2,0,P|141:120|201:119,1,120,2|8,0:0|0:0,0:0:0:0:
260,124,68115,2,0,P|292:128|320:136,1,60,0|2,0:0|0:0,0:0:0:0:
376,152,68490,1,0,0:0:0:0:
420,192,68678,1,8,0:0:0:0:
392,312,69053,5,2,0:0:0:0:
276,280,69428,2,0,L|276:216,2,60,8|0|0,0:0|0:0|0:0,0:0:0:0:
160,312,70178,1,8,0:0:0:0:
100,312,70365,2,0,P|36:248|36:164,1,180,2|8,0:0|0:0,0:0:0:0:
120,76,71303,2,0,P|176:56|236:64,1,120,0|8,0:0|0:0,0:0:0:0:
356,76,72053,6,0,P|384:128|388:188,1,120,4|8,0:0|0:0,0:0:0:0:
380,248,72615,2,0,P|372:280|352:300,1,60,0|2,0:0|0:0,0:0:0:0:
300,328,72990,1,0,0:0:0:0:
240,328,73177,1,8,0:0:0:0:
232,208,73552,2,0,P|228:148|199:96,1,120,2|8,0:0|0:0,0:0:0:0:
148,64,74115,2,0,P|120:52|88:52,1,60,0|2,0:0|0:0,0:0:0:0:
36,80,74490,1,0,0:0:0:0:
16,136,74677,1,8,0:0:0:0:
80,236,75052,5,2,0:0:0:0:
184,296,75427,2,0,L|184:356,2,60,8|0|0,0:0|0:0|0:0,0:0:0:0:
288,236,76177,1,8,0:0:0:0:
348,228,76364,2,0,P|384:176|360:64,1,180,2|8,0:0|0:0,0:0:0:0:
248,32,77302,2,0,P|184:28|128:48,1,120,0|8,0:0|0:0,0:0:0:0:
36,116,78052,5,4,0:0:0:0:
36,236,78427,1,8,0:0:0:0:
88,344,78802,2,0,P|152:356|208:344,1,120,2|8,0:0|0:0,0:0:0:0:
264,240,79552,1,2,0:0:0:0:
264,120,79927,1,8,0:0:0:0:
348,32,80301,2,0,P|412:20|468:32,1,120,2|8,0:0|0:0,0:0:0:0:
500,144,81051,5,2,0:0:0:0:
460,256,81426,1,8,0:0:0:0:
388,352,81801,2,0,P|328:348|276:320,1,120,2|8,0:0|0:0,0:0:0:0:
300,200,82551,1,2,0:0:0:0:
188,160,82926,1,8,0:0:0:0:
68,168,83301,2,0,P|84:228|128:268,1,120,2|8,0:0|0:0,0:0:0:0:
244,268,84051,5,2,0:0:0:0:
352,212,84426,1,8,0:0:0:0:
340,92,84801,2,0,P|288:64|228:60,1,120,2|8,0:0|0:0,0:0:0:0:
116,104,85551,1,2,0:0:0:0:
56,208,85926,1,8,0:0:0:0:
136,300,86301,2,0,P|188:328|248:332,1,120,2|8,0:0|0:0,0:0:0:0:
364,300,87051,5,2,0:0:0:0:
400,184,87426,1,8,0:0:0:0:
380,64,87801,2,0,P|320:56|260:64,1,120,2|8,0:0|0:0,0:0:0:0:
216,176,88550,1,2,0:0:0:0:
108,124,88925,1,8,0:0:0:0:
40,224,89300,2,0,P|88:263|145:269,1,120,2|8,0:0|0:0,0:0:0:0:
216,176,90050,6,0,P|252:124|304:100,1,120,2|8,0:0|0:0,0:0:0:0:
380,192,90800,2,0,P|344:244|292:268,1,120,2|8,0:0|0:0,0:0:0:0:
172,264,91550,1,2,0:0:0:0:
68,204,91925,1,8,0:0:0:0:
44,88,92300,2,0,P|100:64|160:68,1,120,2|8,0:0|0:0,0:0:0:0:
276,84,93050,5,2,0:0:0:0:
388,124,93425,1,8,0:0:0:0:
444,228,93800,2,0,P|400:272|340:284,1,120,2|8,0:0|0:0,0:0:0:0:
296,176,94550,1,2,0:0:0:0:
176,196,94925,1,8,0:0:0:0:
124,304,95300,2,0,P|67:286|25:244,1,120,2|8,0:0|0:0,0:0:0:0:
20,124,96050,6,0,P|64:80|120:64,1,120,2|2,0:0|0:0,0:0:0:0:
240,64,96799,2,0,P|296:81|338:123,1,120,2|2,0:0|0:0,0:0:0:0:
404,224,97549,1,2,0:0:0:0:
352,332,97924,1,8,0:0:0:0:
232,340,98299,2,0,P|172:324|128:288,1,120,2|8,0:0|0:0,0:0:0:0:
256,192,99049,12,0,100549,0:0:0:0:
