osu file format v14

[General]
AudioFilename: audio.mp3
AudioLeadIn: 0
PreviewTime: 63054
Countdown: 0
SampleSet: Soft
StackLeniency: 0.7
Mode: 0
LetterboxInBreaks: 0
WidescreenStoryboard: 0

[Editor]
Bookmarks: 2999,8998,14998,20997,26996,38995,44994,50993,56992,62992,98025,98987
DistanceSpacing: 1.5
BeatDivisor: 4
GridSize: 4
TimelineZoom: 2.3

[Metadata]
Title:Final Boss 2
TitleUnicode:Final Boss 2
Artist:Woofle
ArtistUnicode:Woofle
Creator:Pereira006
Version:Insane
Source:Freedom Planet
Tags:galaxytrail フリーダム・プラネット Brevon
BeatmapID:989232
BeatmapSetID:461945

[Difficulty]
HPDrainRate:7
CircleSize:4
OverallDifficulty:8
ApproachRate:9
SliderMultiplier:1.6
SliderTickRate:1

[Events]
//Background and Video events
0,0,"brevon.jpg",0,0
//Break Periods
//Storyboard Layer 0 (Background)
//Storyboard Layer 1 (Fail)
//Storyboard Layer 2 (Pass)
//Storyboard Layer 3 (Foreground)
//Storyboard Sound Samples

[TimingPoints]
62,374.953130858643,4,2,0,60,1,0
63054,-100,4,2,0,60,0,0
66053,-83.3333333333333,4,2,0,70,0,1
78052,-100,4,2,0,60,0,0

[Colours]
Combo1 : 242,24,57
Combo2 : 0,202,0
Combo3 : 217,217,0
SliderBorder : 255,255,0

[HitObjects]
34,102,3061,6,0,L|102:54,1,80,4|0,0:0|0:0,0:0:0:0:
259,23,3436,2,0,L|193:69,1,80,8|0,0:0|0:0,0:0:0:0:
96,208,3811,2,0,L|161:161,1,80
323,107,4186,2,0,L|257:153,1,80,8|0,0:0|0:0,0:0:0:0:
237,367,4561,5,2,0:0:0:0:
208,236,4748,1,0,0:0:0:0:
339,205,4936,1,8,0:0:0:0:
156,316,5123,1,0,0:0:0:0:
126,184,5311,1,0,0:0:0:0:
258,154,5498,1,0,0:0:0:0:
75,266,5686,1,8,0:0:0:0:
47,136,5873,1,0,0:0:0:0:
176,88,6061,6,0,P|205:61|244:52,1,80,2|0,0:0|0:0,0:0:0:0:
327,227,6436,2,0,P|298:253|259:262,1,80,8|0,0:0|0:0,0:0:0:0:
305,133,6811,2,0,P|334:106|373:97,1,80
456,272,7186,2,0,P|426:297|388:306,1,80,8|0,0:0|0:0,0:0:0:0:
232,280,7561,5,2,0:0:0:0:
181,171,7748,1,0,0:0:0:0:
282,123,7936,1,8,0:0:0:0:
333,232,8123,1,0,0:0:0:0:
205,266,8310,1,0,0:0:0:0:
195,147,8498,1,0,0:0:0:0:
307,136,8685,1,8,0:0:0:0:
318,256,8873,1,0,0:0:0:0:
124,152,9060,6,0,P|134:107|167:81,1,80,2|0,0:0|0:0,0:0:0:0:
272,48,9435,1,8,0:0:0:0:
392,88,9623,2,0,B|396:92|415:119|436:156|412:240,1,160
292,268,10185,1,8,0:0:0:0:
332,184,10373,1,0,0:0:0:0:
304,364,10560,6,0,P|260:360|228:344,1,80,2|0,0:0|0:0,0:0:0:0:
212,224,10935,1,8,0:0:0:0:
140,320,11123,2,0,P|60:308|24:240,1,160
60,112,11685,1,8,0:0:0:0:
112,192,11873,1,0,0:0:0:0:
13,55,12060,6,0,P|96:48|132:112,1,160,2|8,0:0|0:0,0:0:0:0:
208,276,12622,1,0,0:0:0:0:
320,144,12810,1,0,0:0:0:0:
144,204,12997,1,0,0:0:0:0:
308,248,13185,1,8,0:0:0:0:
216,112,13372,1,0,0:0:0:0:
256,332,13560,6,0,P|192:348|136:284,1,160,2|8,0:0|0:0,0:0:0:0:
128,188,14122,1,0,0:0:0:0:
68,64,14310,1,0,0:0:0:0:
128,188,14497,1,0,0:0:0:0:
156,56,14685,1,8,0:0:0:0:
128,188,14872,1,0,0:0:0:0:
256,92,15060,6,0,P|296:100|336:96,1,80,4|0,0:0|0:0,0:0:0:0:
490,151,15435,2,0,P|451:159|412:156,1,80,8|0,0:0|0:0,0:0:0:0:
253,212,15810,2,0,P|292:215|332:208,1,80
494,251,16184,2,0,P|455:259|416:256,1,80,8|0,0:0|0:0,0:0:0:0:
252,212,16559,5,2,0:0:0:0:
104,116,16747,1,0,0:0:0:0:
200,292,16934,1,8,0:0:0:0:
200,132,17122,1,0,0:0:0:0:
104,328,17309,1,0,0:0:0:0:
28,172,17497,1,0,0:0:0:0:
136,216,17684,1,8,0:0:0:0:
28,268,17872,1,0,0:0:0:0:
256,152,18059,6,0,P|288:178|300:224,1,80,2|0,0:0|0:0,0:0:0:0:
440,372,18434,2,0,P|409:347|395:310,1,80,8|0,0:0|0:0,0:0:0:0:
439,150,18809,2,0,P|408:174|395:212,1,80
255,373,19184,2,0,P|286:349|300:312,1,80,8|0,0:0|0:0,0:0:0:0:
256,152,19559,5,2,0:0:0:0:
140,64,19747,1,0,0:0:0:0:
80,196,19934,1,8,0:0:0:0:
280,232,20121,1,0,0:0:0:0:
164,144,20309,1,0,0:0:0:0:
104,276,20496,1,0,0:0:0:0:
304,312,20684,1,8,0:0:0:0:
188,224,20871,1,0,0:0:0:0:
133,353,21059,6,0,P|94:359|56:348,1,80,2|0,0:0|0:0,0:0:0:0:
12,236,21434,1,8,0:0:0:0:
56,124,21621,2,0,P|136:104|212:120,1,160
208,300,22184,1,8,0:0:0:0:
120,260,22371,1,0,0:0:0:0:
296,160,22559,6,0,P|335:148|375:147,1,80,2|0,0:0|0:0,0:0:0:0:
261,232,22934,1,8,0:0:0:0:
421,84,23121,2,0,B|452:107|473:188|405:220,1,160
216,260,23684,1,8,0:0:0:0:
300,216,23871,1,0,0:0:0:0:
312,64,24059,6,0,P|232:56|152:80,1,160,2|8,0:0|0:0,0:0:0:0:
88,316,24621,1,0,0:0:0:0:
48,144,24808,1,0,0:0:0:0:
168,260,24996,1,0,0:0:0:0:
28,240,25183,1,8,0:0:0:0:
136,172,25371,1,0,0:0:0:0:
208,340,25558,6,0,P|288:356|360:332,1,160,2|8,0:0|0:0,0:0:0:0:
372,236,26121,1,0,0:0:0:0:
428,112,26308,1,0,0:0:0:0:
372,236,26496,1,0,0:0:0:0:
320,112,26683,1,8,0:0:0:0:
372,236,26871,1,0,0:0:0:0:
248,180,27058,6,0,L|88:180,1,160,4|8,0:0|0:0,0:0:0:0:
7,49,27621,2,0,P|0:88|4:128,1,80
276,68,27996,1,0,0:0:0:0:
104,64,28183,1,8,0:0:0:0:
364,28,28370,1,0,0:0:0:0:
192,24,28558,6,0,P|192:104|248:160,1,160,2|8,0:0|0:0,0:0:0:0:
414,141,29120,2,0,P|374:136|336:144,1,80
380,352,29495,1,0,0:0:0:0:
312,244,29683,1,8,0:0:0:0:
428,236,29870,1,0,0:0:0:0:
232,300,30058,6,0,L|152:320,1,80,2|0,0:0|0:0,0:0:0:0:
72,268,30433,1,8,0:0:0:0:
225,188,30620,2,0,L|148:208,1,80
118,39,30995,2,0,L|196:20,1,80,0|8,0:0|0:0,0:0:0:0:
384,20,31370,6,0,P|436:80|448:160,1,160,2|0,0:0|0:0,0:0:0:0:
320,300,31933,2,0,P|280:280|256:256,1,80,8|0,0:0|0:0,0:0:0:0:
256,160,32307,1,0,0:0:0:0:
256,24,32495,1,0,0:0:0:0:
160,160,32682,1,8,0:0:0:0:
352,160,32870,1,0,0:0:0:0:
120,64,33057,6,0,P|63:126|64:200,1,160,4|8,0:0|0:0,0:0:0:0:
186,285,33620,2,0,P|147:287|108:280,1,80
232,76,33995,1,0,0:0:0:0:
280,204,34182,1,8,0:0:0:0:
152,192,34370,1,0,0:0:0:0:
364,124,34557,6,0,P|400:196|388:276,1,160,2|8,0:0|0:0,0:0:0:0:
234,344,35120,2,0,P|273:343|312:332,1,80
160,144,35495,1,0,0:0:0:0:
156,284,35682,1,8,0:0:0:0:
96,72,35870,1,0,0:0:0:0:
16,240,36057,6,0,L|92:212,1,80,2|0,0:0|0:0,0:0:0:0:
160,144,36432,1,8,0:0:0:0:
20,98,36619,2,0,L|96:72,1,80
268,44,36994,2,0,L|188:44,1,80,0|8,0:0|0:0,0:0:0:0:
360,72,37369,6,0,P|408:136|408:216,1,160,2|0,0:0|0:0,0:0:0:0:
273,312,37932,2,0,P|313:307|348:288,1,80,8|0,0:0|0:0,0:0:0:0:
316,196,38307,1,0,0:0:0:0:
232,84,38494,1,0,0:0:0:0:
188,216,38682,1,8,0:0:0:0:
328,56,38869,1,0,0:0:0:0:
136,104,39057,6,0,P|96:120|68:144,1,80,4|0,0:0|0:0,0:0:0:0:
176,324,39432,2,0,P|216:308|244:284,1,80,8|0,0:0|0:0,0:0:0:0:
44,236,39807,2,0,P|58:273|83:303,1,80
268,192,40181,2,0,P|253:154|228:124,1,80,8|0,0:0|0:0,0:0:0:0:
180,332,40556,5,2,0:0:0:0:
312,340,40744,1,0,0:0:0:0:
216,260,40931,1,8,0:0:0:0:
340,220,41119,1,0,0:0:0:0:
224,180,41306,1,2,0:0:0:0:
332,108,41494,1,0,0:0:0:0:
200,104,41681,1,8,0:0:0:0:
292,4,41869,1,0,0:0:0:0:
160,36,42056,6,0,P|132:68|120:108,1,80,2|0,0:0|0:0,0:0:0:0:
128,255,42431,2,0,P|155:225|168:188,1,80,8|0,0:0|0:0,0:0:0:0:
4,128,42806,2,0,P|34:155|72:168,1,80
307,163,43181,2,0,P|277:136|240:124,1,80,8|0,0:0|0:0,0:0:0:0:
128,255,43556,5,2,0:0:0:0:
144,376,43744,1,0,0:0:0:0:
28,324,43931,1,8,0:0:0:0:
236,300,44118,1,0,0:0:0:0:
328,144,44306,1,2,0:0:0:0:
352,332,44493,1,0,0:0:0:0:
216,188,44681,1,8,0:0:0:0:
416,232,44868,1,0,0:0:0:0:
392,112,45056,6,0,P|360:80|320:76,1,80,2|0,0:0|0:0,0:0:0:0:
212,108,45431,1,8,0:0:0:0:
95,79,45618,2,0,P|24:107|7:182,1,160
92,328,46181,1,8,0:0:0:0:
12,280,46368,1,0,0:0:0:0:
148,156,46556,6,0,L|200:216,1,80,2|0,0:0|0:0,0:0:0:0:
320,196,46931,1,8,0:0:0:0:
304,316,47118,2,0,P|384:344|448:312,1,160
356,164,47681,1,8,0:0:0:0:
436,216,47868,1,0,0:0:0:0:
216,296,48056,6,0,P|136:288|72:240,1,160,2|8,0:0|0:0,0:0:0:0:
116,20,48618,1,0,0:0:0:0:
180,160,48805,1,0,0:0:0:0:
40,160,48993,1,0,0:0:0:0:
200,64,49180,1,8,0:0:0:0:
28,64,49368,1,0,0:0:0:0:
112,232,49555,6,0,P|184:272|256:256,1,160,2|8,0:0|0:0,0:0:0:0:
312,28,50118,1,0,0:0:0:0:
232,164,50305,1,0,0:0:0:0:
372,104,50493,1,0,0:0:0:0:
224,68,50680,1,8,0:0:0:0:
324,188,50868,1,0,0:0:0:0:
131,65,51055,6,0,L|63:113,1,80,4|0,0:0|0:0,0:0:0:0:
193,294,51430,2,0,L|261:246,1,80,8|0,0:0|0:0,0:0:0:0:
55,205,51805,2,0,L|103:273,1,80
269,154,52180,2,0,L|221:86,1,80,8|0,0:0|0:0,0:0:0:0:
440,24,52555,5,2,0:0:0:0:
363,134,52742,1,0,0:0:0:0:
250,59,52930,1,8,0:0:0:0:
457,118,53117,1,0,0:0:0:0:
381,229,53305,1,2,0:0:0:0:
269,154,53492,1,0,0:0:0:0:
476,211,53680,1,8,0:0:0:0:
400,320,53867,1,0,0:0:0:0:
276,252,54055,6,0,P|236:256|196:248,1,80,2|0,0:0|0:0,0:0:0:0:
109,60,54430,2,0,P|148:56|188:64,1,80,8|0,0:0|0:0,0:0:0:0:
80,240,54805,2,0,P|40:244|1:236,1,80
101,148,55180,2,0,P|140:144|180:152,1,80,8|0,0:0|0:0,0:0:0:0:
276,252,55555,5,2,0:0:0:0:
428,212,55742,1,0,0:0:0:0:
320,100,55930,1,8,0:0:0:0:
276,252,56117,1,0,0:0:0:0:
391,145,56304,1,0,0:0:0:0:
243,97,56492,1,0,0:0:0:0:
276,252,56679,1,8,0:0:0:0:
320,100,56867,1,0,0:0:0:0:
174,130,57054,6,0,P|136:152|108:184,1,80,2|0,0:0|0:0,0:0:0:0:
164,288,57429,1,8,0:0:0:0:
276,336,57617,2,0,P|300:256|264:188,1,160
164,288,58179,1,8,0:0:0:0:
68,292,58367,1,0,0:0:0:0:
20,96,58554,6,0,P|56:76|104:72,1,80,2|0,0:0|0:0,0:0:0:0:
204,120,58929,1,8,0:0:0:0:
312,68,59117,2,0,P|392:84|456:128,1,160
360,280,59679,1,8,0:0:0:0:
456,264,59867,1,0,0:0:0:0:
292,184,60054,6,0,P|208:192|152:240,1,160,2|8,0:0|0:0,0:0:0:0:
112,360,60616,1,0,0:0:0:0:
56,196,60804,1,0,0:0:0:0:
212,312,60991,1,0,0:0:0:0:
128,132,61179,1,8,0:0:0:0:
48,292,61366,1,0,0:0:0:0:
300,264,61554,6,0,P|380:244|428:184,1,160,2|8,0:0|0:0,0:0:0:0:
276,16,62116,1,0,0:0:0:0:
316,156,62304,1,0,0:0:0:0:
364,72,62491,1,0,0:0:0:0:
232,104,62679,1,8,0:0:0:0:
456,108,62866,1,0,0:0:0:0:
476,204,63054,5,2,0:0:0:0:
432,316,63241,1,0,0:0:0:0:
396,196,63429,1,2,0:0:0:0:
312,288,63616,1,0,0:0:0:0:
324,160,63804,1,2,0:0:0:0:
216,224,63991,1,0,0:0:0:0:
272,100,64178,1,2,0:0:0:0:
168,56,64366,5,2,3:0:0:0:
168,56,64460,1,2,3:0:0:0:
168,56,64553,1,2,3:0:0:0:
124,168,64741,1,0,0:0:0:0:
56,72,64928,1,2,0:0:0:0:
248,88,65116,1,2,3:0:0:0:
248,88,65210,1,2,3:0:0:0:
248,88,65303,1,2,3:0:0:0:
196,196,65491,1,0,0:0:0:0:
124,100,65678,1,2,0:0:0:0:
312,144,65866,1,2,3:0:0:0:
312,144,65960,1,2,3:0:0:0:
312,144,66053,6,0,B|264:236|360:236|312:328,1,191.999994140625,4|8,0:0|0:0,0:0:0:0:
184,364,66616,2,0,P|136:367|89:358,1,95.9999970703126
24,124,66991,1,0,0:0:0:0:
140,196,67178,1,8,0:0:0:0:
4,256,67366,1,0,0:0:0:0:
124,36,67553,6,0,B|216:84|216:-12|308:36,1,191.999994140625,2|8,0:0|0:0,0:0:0:0:
420,107,68115,2,0,P|431:154|426:201,1,95.9999970703126
236,344,68490,1,8,0:0:0:0:
284,220,68678,1,0,0:0:0:0:
368,324,68865,1,0,0:0:0:0:
148,264,69053,6,0,L|64:216,1,95.9999970703126,2|0,0:0|0:0,0:0:0:0:
12,92,69428,1,8,0:0:0:0:
220,172,69615,2,0,L|136:124,1,95.9999970703126
332,144,69990,2,0,L|416:192,1,95.9999970703126,0|8,0:0|0:0,0:0:0:0:
340,360,70365,6,0,P|240:364|160:320,1,191.999994140625,2|0,0:0|0:0,0:0:0:0:
164,88,70928,2,0,P|112:104|72:136,1,95.9999970703126,8|0,0:0|0:0,0:0:0:0:
272,268,71303,1,0,0:0:0:0:
244,92,71490,1,0,0:0:0:0:
172,204,71678,1,8,0:0:0:0:
356,164,71865,1,0,0:0:0:0:
156,336,72053,6,0,P|71:287|55:199,1,191.999994140625,4|8,0:0|0:0,0:0:0:0:
201,78,72615,2,0,P|154:72|107:80,1,95.9999970703126
308,160,72990,1,0,0:0:0:0:
248,280,73177,1,8,0:0:0:0:
140,192,73365,1,0,0:0:0:0:
324,84,73552,6,0,P|420:104|456:184,1,191.999994140625,2|8,0:0|0:0,0:0:0:0:
345,368,74115,2,0,P|387:347|424:316,1,95.9999970703126
248,164,74490,1,0,0:0:0:0:
212,356,74677,1,8,0:0:0:0:
140,244,74865,1,0,0:0:0:0:
376,196,75052,6,0,L|424:108,1,95.9999970703126,2|0,0:0|0:0,0:0:0:0:
484,236,75427,1,8,0:0:0:0:
248,164,75615,2,0,L|296:76,1,95.9999970703126
76,24,75990,2,0,L|28:112,1,95.9999970703126,0|8,0:0|0:0,0:0:0:0:
197,269,76364,6,0,P|104:282|32:224,1,191.999994140625,2|0,0:0|0:0,0:0:0:0:
212,80,76927,2,0,P|240:120|240:168,1,95.9999970703126,8|0,0:0|0:0,0:0:0:0:
197,269,77302,1,0,0:0:0:0:
400,296,77489,1,0,0:0:0:0:
296,212,77677,1,8,0:0:0:0:
296,360,77864,1,0,0:0:0:0:
368,148,78052,6,0,P|332:124|292:120,1,80,4|0,0:0|0:0,0:0:0:0:
144,143,78427,2,0,P|176:166|216:172,1,80,8|0,0:0|0:0,0:0:0:0:
220,76,78802,1,2,0:0:0:0:
196,60,78895,1,0,0:0:0:0:
168,48,78989,1,0,0:0:0:0:
140,44,79083,1,0,0:0:0:0:
112,48,79177,1,8,0:0:0:0:
32,100,79364,1,0,0:0:0:0:
12,196,79552,6,0,P|12:240|24:276,1,80,2|0,0:0|0:0,0:0:0:0:
216,276,79927,2,0,P|227:237|226:198,1,80,8|0,0:0|0:0,0:0:0:0:
136,228,80301,1,2,0:0:0:0:
125,254,80395,1,0,0:0:0:0:
123,283,80489,1,0,0:0:0:0:
129,311,80583,1,0,0:0:0:0:
146,334,80676,1,8,0:0:0:0:
240,356,80864,1,0,0:0:0:0:
332,336,81051,6,0,P|364:308|380:272,1,80,2|0,0:0|0:0,0:0:0:0:
371,142,81426,2,0,P|341:168|324:204,1,80,8|0,0:0|0:0,0:0:0:0:
264,280,81801,1,2,0:0:0:0:
236,288,81895,1,0,0:0:0:0:
208,292,81989,1,0,0:0:0:0:
180,292,82082,1,0,0:0:0:0:
152,288,82176,1,8,0:0:0:0:
64,248,82364,1,0,0:0:0:0:
48,152,82551,6,0,L|104:92,1,80,2|0,0:0|0:0,0:0:0:0:
254,29,82926,2,0,L|200:88,1,80,8|0,0:0|0:0,0:0:0:0:
252,168,83301,1,2,0:0:0:0:
248,196,83395,1,0,0:0:0:0:
248,224,83489,1,0,0:0:0:0:
252,252,83582,1,0,0:0:0:0:
260,280,83676,1,8,0:0:0:0:
332,344,83864,1,0,0:0:0:0:
412,292,84051,6,0,P|444:264|464:232,1,80,2|0,0:0|0:0,0:0:0:0:
416,76,84426,2,0,P|446:102|468:136,1,80,8|0,0:0|0:0,0:0:0:0:
384,184,84801,1,2,0:0:0:0:
356,192,84895,1,0,0:0:0:0:
328,200,84988,1,0,0:0:0:0:
300,204,85082,1,0,0:0:0:0:
272,204,85176,1,8,0:0:0:0:
176,196,85363,1,0,0:0:0:0:
84,164,85551,6,0,P|60:128|60:92,1,80,2|0,0:0|0:0,0:0:0:0:
236,40,85926,2,0,P|260:76|260:112,1,80,8|0,0:0|0:0,0:0:0:0:
248,208,86301,1,2,0:0:0:0:
240,236,86394,1,0,0:0:0:0:
228,260,86488,1,0,0:0:0:0:
212,284,86582,1,0,0:0:0:0:
192,304,86676,1,8,0:0:0:0:
104,344,86863,1,0,0:0:0:0:
32,280,87051,6,0,P|16:240|16:200,1,80,2|0,0:0|0:0,0:0:0:0:
79,71,87426,2,0,P|94:108|96:148,1,80,8|0,0:0|0:0,0:0:0:0:
112,244,87801,1,2,0:0:0:0:
116,272,87894,1,0,0:0:0:0:
128,296,87988,1,0,0:0:0:0:
144,320,88082,1,0,0:0:0:0:
164,336,88175,1,8,0:0:0:0:
260,352,88363,1,0,0:0:0:0:
352,328,88550,6,0,P|388:308|416:280,1,80,2|0,0:0|0:0,0:0:0:0:
320,132,88925,2,0,P|284:152|256:180,1,80,8|0,0:0|0:0,0:0:0:0:
240,272,89300,1,2,0:0:0:0:
228,296,89394,1,0,0:0:0:0:
208,316,89488,1,0,0:0:0:0:
184,332,89582,1,0,0:0:0:0:
156,340,89675,1,8,0:0:0:0:
60,328,89863,1,0,0:0:0:0:
24,240,90050,5,2,0:0:0:0:
20,212,90144,1,0,0:0:0:0:
20,184,90238,1,0,0:0:0:0:
24,156,90331,1,0,0:0:0:0:
36,128,90425,1,8,0:0:0:0:
120,80,90800,5,2,0:0:0:0:
124,108,90894,1,0,0:0:0:0:
124,136,90988,1,0,0:0:0:0:
120,164,91081,1,0,0:0:0:0:
108,192,91175,1,8,0:0:0:0:
96,288,91550,6,0,P|120:320|152:344,1,80,2|0,0:0|0:0,0:0:0:0:
292,224,91925,2,0,P|268:192|236:168,1,80,8|0,0:0|0:0,0:0:0:0:
240,304,92300,1,2,0:0:0:0:
264,320,92394,1,0,0:0:0:0:
292,324,92487,1,0,0:0:0:0:
320,324,92581,1,0,0:0:0:0:
348,324,92675,1,8,0:0:0:0:
432,276,92862,1,0,0:0:0:0:
460,184,93050,6,0,L|416:112,1,80,2|0,0:0|0:0,0:0:0:0:
282,27,93425,2,0,L|324:96,1,80,8|0,0:0|0:0,0:0:0:0:
296,188,93800,1,2,0:0:0:0:
296,216,93894,1,0,0:0:0:0:
288,244,93987,1,0,0:0:0:0:
272,268,94081,1,0,0:0:0:0:
252,288,94175,1,8,0:0:0:0:
164,324,94362,1,0,0:0:0:0:
76,288,94550,6,0,P|52:256|40:216,1,80,2|0,0:0|0:0,0:0:0:0:
80,86,94925,2,0,P|104:117|116:156,1,80,8|0,0:0|0:0,0:0:0:0:
152,244,95300,1,2,0:0:0:0:
164,268,95393,1,0,0:0:0:0:
184,288,95487,1,0,0:0:0:0:
208,300,95581,1,0,0:0:0:0:
236,308,95675,1,8,0:0:0:0:
332,308,95862,1,0,0:0:0:0:
384,228,96050,5,2,0:0:0:0:
396,204,96143,1,0,0:0:0:0:
408,180,96237,1,0,0:0:0:0:
420,152,96331,1,0,0:0:0:0:
428,128,96424,1,8,0:0:0:0:
348,76,96799,5,2,0:0:0:0:
336,100,96893,1,0,0:0:0:0:
324,124,96987,1,0,0:0:0:0:
312,152,97081,1,0,0:0:0:0:
304,176,97174,1,8,0:0:0:0:
292,272,97549,6,0,P|260:296|216:308,1,80,2|0,0:0|0:0,0:0:0:0:
96,292,97924,2,0,P|57:280|26:256,1,80,8|0,0:0|0:0,0:0:0:0:
16,160,98299,1,0,0:0:0:0:
16,132,98393,1,0,0:0:0:0:
28,108,98487,1,0,0:0:0:0:
44,84,98580,1,0,0:0:0:0:
64,64,98674,1,8,0:0:0:0:
148,40,98862,1,0,0:0:0:0:
256,192,99049,12,0,100549,0:0:0:0:
