osu file format v14

[General]
AudioFilename: audio.mp3
AudioLeadIn: 0
PreviewTime: 63054
Countdown: 0
SampleSet: Soft
StackLeniency: 0.7
Mode: 0
LetterboxInBreaks: 0
WidescreenStoryboard: 0

[Editor]
Bookmarks: 2999,8998,14998,20997,26996,38995,44994,50993,56992,62992,98025,98987
DistanceSpacing: 1.2
BeatDivisor: 4
GridSize: 4
TimelineZoom: 1.5

[Metadata]
Title:Final Boss 2
TitleUnicode:Final Boss 2
Artist:Woofle
ArtistUnicode:Woofle
Creator:Pereira006
Version:Hard
Source:Freedom Planet
Tags:galaxytrail フリーダム・プラネット Brevon
BeatmapID:994699
BeatmapSetID:461945

[Difficulty]
HPDrainRate:5
CircleSize:4
OverallDifficulty:6
ApproachRate:7
SliderMultiplier:1.4
SliderTickRate:1

[Events]
//Background and Video events
0,0,"brevon.jpg",0,0
//Break Periods
//Storyboard Layer 0 (Background)
//Storyboard Layer 1 (Fail)
//Storyboard Layer 2 (Pass)
//Storyboard Layer 3 (Foreground)
//Storyboard Sound Samples

[TimingPoints]
62,374.953130858643,4,2,0,60,1,0
63054,-100,4,2,0,60,0,0
66053,-100,4,2,0,70,0,1
78052,-100,4,2,0,60,0,0

[Colours]
Combo1 : 242,24,57
Combo2 : 0,202,0
Combo3 : 217,217,0
SliderBorder : 255,255,0

[HitObjects]
28,60,3061,6,0,L|96:72,1,70,4|0,0:0|0:0,0:0:0:0:
236,104,3436,2,0,L|168:116,1,70,8|0,0:0|0:0,0:0:0:0:
24,156,3811,2,0,L|92:168,1,70,0|0,0:0|0:0,0:0:0:0:
232,200,4186,2,0,L|164:212,1,70,8|0,0:0|0:0,0:0:0:0:
88,252,4561,5,2,0:0:0:0:
112,332,4748,1,0,0:0:0:0:
196,340,4936,1,8,0:0:0:0:
272,308,5123,1,0,0:0:0:0:
340,256,5311,2,0,P|356:288|356:328,2,70,0|0|8,0:0|0:0|0:0,0:0:0:0:
244,68,6061,6,0,P|208:60|176:64,1,70,2|0,0:0|0:0,0:0:0:0:
172,248,6436,2,0,P|208:256|240:252,1,70,8|0,0:0|0:0,0:0:0:0:
112,120,6811,2,0,P|107:154|115:188,1,70,0|0,0:0|0:0,0:0:0:0:
304,196,7186,2,0,P|308:161|300:127,1,70,8|0,0:0|0:0,0:0:0:0:
244,68,7561,5,2,0:0:0:0:
164,44,7748,1,0,0:0:0:0:
80,56,7936,1,8,0:0:0:0:
40,128,8123,1,0,0:0:0:0:
72,204,8310,2,0,P|28:208|-4:200,2,70,0|0|8,0:0|0:0|0:0,0:0:0:0:
280,120,9060,6,0,P|316:128|348:140,1,70,2|0,0:0|0:0,0:0:0:0:
400,204,9435,2,0,P|392:240|380:272,1,70,8|0,0:0|0:0,0:0:0:0:
316,328,9810,2,0,P|280:320|248:308,1,70
200,152,10185,1,8,0:0:0:0:
206,236,10373,1,0,0:0:0:0:
140,72,10560,6,0,P|104:68|72:76,1,70,2|0,0:0|0:0,0:0:0:0:
32,148,10935,2,0,L|32:220,1,70,8|0,0:0|0:0,0:0:0:0:
68,292,11310,2,0,P|102:296|136:287,1,70,0|0,0:0|0:0,0:0:0:0:
204,236,11685,1,8,0:0:0:0:
300,52,12060,6,0,P|368:76|408:136,1,140,2|8,0:0|0:0,0:0:0:0:
404,212,12622,1,0,0:0:0:0:
376,292,12810,2,0,P|420:296|444:288,2,70,0|0|8,0:0|0:0|0:0,0:0:0:0:
240,136,13560,6,0,P|172:116|104:128,1,140,2|8,0:0|0:0,0:0:0:0:
44,184,14122,1,0,0:0:0:0:
76,260,14310,2,0,P|40:268|8:264,2,70,0|0|8,0:0|0:0|0:0,0:0:0:0:
224,112,15060,6,0,L|293:119,1,70,4|0,0:0|0:0,0:0:0:0:
184,188,15435,2,0,L|244:224,1,70,8|0,0:0|0:0,0:0:0:0:
100,200,15810,2,0,L|100:270,1,70,0|0,0:0|0:0,0:0:0:0:
28,156,16184,2,0,L|1:220,1,70,8|0,0:0|0:0,0:0:0:0:
8,304,16559,5,2,0:0:0:0:
84,344,16747,1,0,0:0:0:0:
164,328,16934,1,8,0:0:0:0:
220,264,17122,1,0,0:0:0:0:
284,208,17309,2,0,P|300:240|304:276,2,70,0|0|8,0:0|0:0|0:0,0:0:0:0:
76,136,18059,6,0,L|124:84,1,70,2|0,0:0|0:0,0:0:0:0:
256,32,18434,2,0,L|208:84,1,70,8|0,0:0|0:0,0:0:0:0:
196,212,18809,2,0,L|244:160,1,70,0|0,0:0|0:0,0:0:0:0:
372,88,19184,2,0,L|324:140,1,70,8|0,0:0|0:0,0:0:0:0:
316,224,19559,5,2,0:0:0:0:
296,304,19747,1,0,0:0:0:0:
212,316,19934,1,8,0:0:0:0:
132,288,20121,1,0,0:0:0:0:
80,224,20309,2,0,P|60:252|48:288,2,70,0|0|8,0:0|0:0|0:0,0:0:0:0:
176,36,21059,6,0,P|212:32|248:36,1,70,2|0,0:0|0:0,0:0:0:0:
304,96,21434,2,0,P|308:132|304:168,1,70,8|0,0:0|0:0,0:0:0:0:
252,232,21809,2,0,P|217:235|182:231,1,70,0|0,0:0|0:0,0:0:0:0:
40,196,22184,1,8,0:0:0:0:
120,156,22371,1,0,0:0:0:0:
88,280,22559,6,0,L|152:312,1,70,2|0,0:0|0:0,0:0:0:0:
220,264,22934,2,0,P|256:260|292:264,1,70,8|0,0:0|0:0,0:0:0:0:
360,308,23309,2,0,L|422:276,1,70,0|0,0:0|0:0,0:0:0:0:
464,204,23684,1,8,0:0:0:0:
348,28,24059,6,0,P|276:24|212:44,1,140,2|8,0:0|0:0,0:0:0:0:
160,108,24621,1,0,0:0:0:0:
148,192,24808,2,0,P|112:180|88:156,2,70,0|0|8,0:0|0:0|0:0,0:0:0:0:
344,136,25558,6,0,P|400:184|404:248,1,140,2|8,0:0|0:0,0:0:0:0:
348,308,26121,1,0,0:0:0:0:
264,312,26308,2,0,P|272:276|288:248,2,70,0|0|8,0:0|0:0|0:0,0:0:0:0:
476,308,27058,6,0,P|480:232|468:168,1,140,4|8,0:0|0:0,0:0:0:0:
416,104,27621,2,0,P|384:84|352:76,1,70,0|0,0:0|0:0,0:0:0:0:
184,96,27996,1,0,0:0:0:0:
232,164,28183,1,8,0:0:0:0:
268,88,28370,1,0,0:0:0:0:
108,56,28558,6,0,P|64:112|68:180,1,140,2|8,0:0|0:0,0:0:0:0:
112,248,29120,2,0,P|144:268|180:280,1,70,0|0,0:0|0:0,0:0:0:0:
340,256,29495,1,0,0:0:0:0:
288,192,29683,1,8,0:0:0:0:
256,268,29870,1,0,0:0:0:0:
392,320,30058,6,0,P|412:292|424:256,1,70,2|0,0:0|0:0,0:0:0:0:
400,112,30433,2,0,P|422:138|432:172,2,70,8|0|0,0:0|0:0|0:0,0:0:0:0:
320,136,30995,2,0,P|329:169|351:195,1,70,0|8,0:0|0:0,0:0:0:0:
344,300,31370,6,0,P|240:316|144:280,1,210,2|8,0:0|0:0,0:0:0:0:
144,196,32120,1,0,0:0:0:0:
164,116,32307,1,0,0:0:0:0:
228,60,32495,1,0,0:0:0:0:
312,48,32682,1,8,0:0:0:0:
496,152,33057,6,0,P|504:224|464:276,1,140,4|8,0:0|0:0,0:0:0:0:
384,304,33620,2,0,P|343:304|307:297,1,70,0|0,0:0|0:0,0:0:0:0:
160,240,33995,1,0,0:0:0:0:
187,159,34182,1,8,0:0:0:0:
269,139,34370,1,0,0:0:0:0:
234,274,34557,6,0,P|176:319|110:302,1,140,2|8,0:0|0:0,0:0:0:0:
60,244,35120,2,0,P|44:212|36:172,1,70,0|0,0:0|0:0,0:0:0:0:
128,92,35495,1,0,0:0:0:0:
212,84,35682,1,8,0:0:0:0:
168,12,35870,1,0,0:0:0:0:
128,176,36057,6,0,P|160:200|192:204,1,70,2|0,0:0|0:0,0:0:0:0:
324,191,36432,2,0,P|298:169|264:164,2,70,8|0|0,0:0|0:0|0:0,0:0:0:0:
328,271,36994,2,0,P|301:293|267:300,1,70,0|8,0:0|0:0,0:0:0:0:
160,296,37369,6,0,P|68:264|28:164,1,210,2|8,0:0|0:0,0:0:0:0:
43,82,38119,1,0,0:0:0:0:
114,37,38307,1,0,0:0:0:0:
197,38,38494,1,0,0:0:0:0:
263,89,38682,1,8,0:0:0:0:
337,291,39057,6,0,L|400:260,1,70,4|0,0:0|0:0,0:0:0:0:
262,211,39432,2,0,L|332:208,1,70,8|0,0:0|0:0,0:0:0:0:
222,124,39807,2,0,L|292:132,1,70,0|0,0:0|0:0,0:0:0:0:
192,32,40181,2,0,L|260:52,1,70,8|0,0:0|0:0,0:0:0:0:
340,72,40556,5,2,0:0:0:0:
408,124,40744,1,0,0:0:0:0:
412,208,40931,1,8,0:0:0:0:
360,272,41119,1,0,0:0:0:0:
288,312,41306,2,0,P|312:340|344:356,2,70,0|0|8,0:0|0:0|0:0,0:0:0:0:
284,100,42056,6,0,P|248:84|216:80,1,70,2|0,0:0|0:0,0:0:0:0:
152,132,42431,2,0,P|137:163|132:198,1,70,8|0,0:0|0:0,0:0:0:0:
188,260,42806,2,0,P|219:274|254:279,1,70,0|0,0:0|0:0,0:0:0:0:
320,228,43181,2,0,P|334:196|339:161,1,70,8|0,0:0|0:0,0:0:0:0:
284,100,43556,5,2,0:0:0:0:
208,64,43744,1,0,0:0:0:0:
124,60,43931,1,8,0:0:0:0:
44,88,44118,1,0,0:0:0:0:
24,172,44306,2,0,P|32:208|48:240,2,70,0|0|8,0:0|0:0|0:0,0:0:0:0:
208,68,45056,6,0,P|244:64|280:72,1,70,2|0,0:0|0:0,0:0:0:0:
268,156,45431,2,0,P|302:162|336:158,1,70,8|0,0:0|0:0,0:0:0:0:
368,80,45806,2,0,P|404:76|440:84,1,70,0|0,0:0|0:0,0:0:0:0:
496,144,46181,1,8,0:0:0:0:
496,228,46368,1,0,0:0:0:0:
444,296,46556,6,0,P|408:300|372:292,1,70,2|0,0:0|0:0,0:0:0:0:
340,216,46931,2,0,P|305:209|271:213,1,70,8|0,0:0|0:0,0:0:0:0:
244,292,47306,2,0,P|208:296|172:288,1,70,0|0,0:0|0:0,0:0:0:0:
104,244,47681,1,8,0:0:0:0:
24,48,48056,6,0,P|92:36|164:48,1,140,2|8,0:0|0:0,0:0:0:0:
232,92,48618,1,0,0:0:0:0:
248,176,48805,2,0,P|212:176|180:160,2,70,0|0|8,0:0|0:0|0:0,0:0:0:0:
420,68,49555,6,0,P|468:120|468:192,1,140,2|8,0:0|0:0,0:0:0:0:
432,264,50118,1,0,0:0:0:0:
352,292,50305,2,0,P|368:324|400:348,2,70,0|0|8,0:0|0:0|0:0,0:0:0:0:
272,96,51055,6,0,L|200:96,1,70,4|0,0:0|0:0,0:0:0:0:
78,160,51430,2,0,L|148:160,1,70,8|0,0:0|0:0,0:0:0:0:
270,224,51805,2,0,L|200:224,1,70,0|0,0:0|0:0,0:0:0:0:
74,288,52180,2,0,L|144:288,1,70,8|0,0:0|0:0,0:0:0:0:
196,356,52555,5,2,0:0:0:0:
280,348,52742,1,0,0:0:0:0:
344,296,52930,1,8,0:0:0:0:
372,216,53117,1,0,0:0:0:0:
404,136,53305,2,0,P|436:156|452:184,2,70,0|0|8,0:0|0:0|0:0,0:0:0:0:
188,104,54055,6,0,P|152:112|120:124,1,70,2|0,0:0|0:0,0:0:0:0:
41,227,54430,2,0,P|75:220|108:208,1,70,8|0,0:0|0:0,0:0:0:0:
184,80,54805,2,0,P|148:88|116:100,1,70
37,203,55180,2,0,P|71:195|103:183,1,70,8|0,0:0|0:0,0:0:0:0:
184,160,55555,5,2,0:0:0:0:
268,172,55742,1,0,0:0:0:0:
320,108,55930,1,8,0:0:0:0:
400,128,56117,1,0,0:0:0:0:
468,80,56304,2,0,P|440:56|408:48,2,70,0|0|8,0:0|0:0|0:0,0:0:0:0:
460,292,57054,6,0,P|424:304|392:304,1,70,2|0,0:0|0:0,0:0:0:0:
344,236,57429,2,0,P|309:236|276:248,1,70,8|0,0:0|0:0,0:0:0:0:
268,332,57804,2,0,P|232:344|200:344,1,70,0|0,0:0|0:0,0:0:0:0:
120,312,58179,1,8,0:0:0:0:
188,260,58367,1,0,0:0:0:0:
40,332,58554,6,0,P|24:300|24:264,1,70,2|0,0:0|0:0,0:0:0:0:
104,240,58929,2,0,P|120:208|120:172,1,70,8|0,0:0|0:0,0:0:0:0:
40,148,59304,2,0,P|24:116|24:80,1,70,0|0,0:0|0:0,0:0:0:0:
76,16,59679,1,8,0:0:0:0:
284,20,60054,6,0,P|352:44|392:96,1,140,2|8,0:0|0:0,0:0:0:0:
372,176,60616,1,0,0:0:0:0:
328,248,60804,2,0,P|360:260|396:256,2,70,0|0|8,0:0|0:0|0:0,0:0:0:0:
228,112,61554,6,0,P|164:84|96:88,1,140,2|8,0:0|0:0,0:0:0:0:
44,152,62116,1,0,0:0:0:0:
80,228,62304,2,0,P|44:232|8:228,2,70,0|0|8,0:0|0:0|0:0,0:0:0:0:
260,116,63054,6,0,P|300:112|336:120,2,70,2|0|2,0:0|0:0|0:0,0:0:0:0:
228,196,63616,1,0,0:0:0:0:
260,272,63804,2,0,P|300:276|336:268,2,70,2|0|2,0:0|0:0|0:0,0:0:0:0:
180,240,64366,1,2,3:0:0:0:
156,160,64553,5,2,3:0:0:0:
228,112,64741,2,0,P|256:88|292:76,1,70,0|2,0:0|0:0,0:0:0:0:
372,68,65116,1,2,3:0:0:0:
452,96,65303,1,2,3:0:0:0:
404,168,65491,2,0,P|376:192|340:204,1,70,0|2,0:0|0:0,0:0:0:0:
260,196,65866,1,2,3:0:0:0:
144,204,66053,6,0,P|95:261|91:326,1,140,4|8,0:0|0:0,0:0:0:0:
168,360,66616,2,0,P|204:360|244:352,1,70,0|0,0:0|0:0,0:0:0:0:
380,276,66991,1,0,0:0:0:0:
300,296,67178,1,8,0:0:0:0:
360,356,67366,1,0,0:0:0:0:
460,308,67553,6,0,P|456:232|412:192,1,140,2|8,0:0|0:0,0:0:0:0:
332,212,68115,2,0,P|296:216|260:212,1,70,0|0,0:0|0:0,0:0:0:0:
212,76,68490,1,0,0:0:0:0:
292,56,68678,1,8,0:0:0:0:
272,136,68865,1,0,0:0:0:0:
132,111,69053,6,0,P|110:139|100:172,1,70,2|0,0:0|0:0,0:0:0:0:
140,280,69428,2,0,P|169:260|188:232,2,70,8|0|0,0:0|0:0|0:0,0:0:0:0:
56,276,69990,2,0,P|26:256|7:228,1,70,0|8,0:0|0:0,0:0:0:0:
8,124,70365,6,0,P|80:56|188:56,1,210,2|8,0:0|0:0,0:0:0:0:
264,84,71115,1,0,0:0:0:0:
300,160,71303,1,0,0:0:0:0:
264,236,71490,1,0,0:0:0:0:
196,188,71678,1,8,0:0:0:0:
400,136,72053,6,0,P|444:192|440:264,1,140,4|8,0:0|0:0,0:0:0:0:
376,312,72615,2,0,P|344:324|304:328,1,70
200,232,72990,1,0,0:0:0:0:
232,156,73177,1,8,0:0:0:0:
284,228,73365,1,0,0:0:0:0:
128,316,73552,6,0,P|64:288|32:228,1,140,2|8,0:0|0:0,0:0:0:0:
28,144,74115,2,0,P|40:112|64:80,1,70,0|0,0:0|0:0,0:0:0:0:
224,48,74490,1,0,0:0:0:0:
184,124,74677,1,8,0:0:0:0:
140,52,74865,1,0,0:0:0:0:
308,40,75052,6,0,P|340:64|352:100,1,70,2|0,0:0|0:0,0:0:0:0:
248,224,75427,2,0,P|216:200|204:164,2,70,8|0|0,0:0|0:0|0:0,0:0:0:0:
304,160,75990,2,0,P|328:200|332:232,1,70,0|8,0:0|0:0,0:0:0:0:
288,320,76364,6,0,P|184:344|88:312,1,210,2|8,0:0|0:0,0:0:0:0:
60,232,77114,1,0,0:0:0:0:
56,148,77302,1,0,0:0:0:0:
88,68,77489,1,0,0:0:0:0:
168,44,77677,1,8,0:0:0:0:
376,40,78052,6,0,P|408:64|424:88,1,70,4|0,0:0|0:0,0:0:0:0:
424,172,78427,2,0,P|404:200|375:220,1,70,8|0,0:0|0:0,0:0:0:0:
292,220,78802,2,0,L|256:208,4,35,2|0|0|0|8,0:0|0:0|0:0|0:0|0:0,0:0:0:0:
112,332,79552,6,0,P|88:304|84:272,1,70,2|0,0:0|0:0,0:0:0:0:
80,180,79927,2,0,P|85:145|108:120,1,70,8|0,0:0|0:0,0:0:0:0:
196,100,80301,2,0,L|204:64,4,35,2|0|0|0|8,0:0|0:0|0:0|0:0|0:0,0:0:0:0:
400,152,81051,6,0,P|404:188|400:224,1,70,2|0,0:0|0:0,0:0:0:0:
316,220,81426,2,0,P|312:185|316:150,1,70,8|0,0:0|0:0,0:0:0:0:
368,84,81801,2,0,L|368:48,4,35,2|0|0|0|8,0:0|0:0|0:0|0:0|0:0,0:0:0:0:
156,96,82551,6,0,L|96:136,1,70,2|0,0:0|0:0,0:0:0:0:
168,180,82926,2,0,L|144:248,1,70,8|0,0:0|0:0,0:0:0:0:
208,300,83301,2,0,L|208:336,4,35,2|0|0|0|8,0:0|0:0|0:0|0:0|0:0,0:0:0:0:
416,268,84051,6,0,P|428:232|428:200,1,70,2|0,0:0|0:0,0:0:0:0:
400,120,84426,2,0,P|384:88|352:68,1,70,8|0,0:0|0:0,0:0:0:0:
272,68,84801,2,0,L|232:80,4,35,2|0|0|0|8,0:0|0:0|0:0|0:0|0:0,0:0:0:0:
300,276,85551,6,0,P|264:280|224:276,1,70,2|0,0:0|0:0,0:0:0:0:
220,192,85926,2,0,P|184:188|144:192,1,70,8|0,0:0|0:0,0:0:0:0:
104,260,86301,2,0,L|72:236,4,35,2|0|0|0|8,0:0|0:0|0:0|0:0|0:0,0:0:0:0:
32,60,87051,6,0,P|64:44|104:40,1,70,2|0,0:0|0:0,0:0:0:0:
180,40,87426,2,0,P|214:44|245:60,1,70,8|0,0:0|0:0,0:0:0:0:
276,140,87801,2,0,L|292:176,4,35,2|0|0|0|8,0:0|0:0|0:0|0:0|0:0,0:0:0:0:
360,332,88550,6,0,P|320:344|284:340,1,70,2|0,0:0|0:0,0:0:0:0:
272,260,88925,2,0,P|312:248|348:252,1,70,8|0,0:0|0:0,0:0:0:0:
420,276,89300,2,0,L|456:264,4,35,2|0|0|0|8,0:0|0:0|0:0|0:0|0:0,0:0:0:0:
300,104,90050,6,0,L|312:72,4,35,2|0|0|0|8,0:0|0:0|0:0|0:0|0:0,0:0:0:0:
136,64,90800,2,0,L|124:96,4,35,2|0|0|0|8,0:0|0:0|0:0|0:0|0:0,0:0:0:0:
168,272,91550,6,0,P|196:296|232:304,1,70,2|0,0:0|0:0,0:0:0:0:
264,228,91925,2,0,P|297:237|323:259,1,70,8|0,0:0|0:0,0:0:0:0:
364,336,92300,2,0,L|400:352,4,35,2|0|0|0|8,0:0|0:0|0:0|0:0|0:0,0:0:0:0:
464,152,93050,6,0,P|444:124|416:104,1,70,2|0,0:0|0:0,0:0:0:0:
356,164,93425,2,0,P|327:143|307:115,1,70,8|0,0:0|0:0,0:0:0:0:
308,32,93800,2,0,L|336:12,4,35,2|0|0|0|8,0:0|0:0|0:0|0:0|0:0,0:0:0:0:
100,68,94550,6,0,P|92:104|92:136,1,70,2|0,0:0|0:0,0:0:0:0:
172,168,94925,2,0,P|179:202|179:236,1,70,8|0,0:0|0:0,0:0:0:0:
116,292,95300,2,0,L|88:312,4,35,2|0|0|0|8,0:0|0:0|0:0|0:0|0:0,0:0:0:0:
328,296,96050,6,0,L|360:316,4,35,2|0|0|0|2,0:0|0:0|0:0|0:0|0:0,0:0:0:0:
328,128,96799,2,0,L|360:108,4,35,2|0|0|0|2,0:0|0:0|0:0|0:0|0:0,0:0:0:0:
124,76,97549,6,0,P|88:84|56:104,1,70,2|0,0:0|0:0,0:0:0:0:
96,176,97924,2,0,P|132:168|164:148,1,70,8|0,0:0|0:0,0:0:0:0:
208,80,98299,2,0,L|248:68,4,35,2|0|0|0|8,0:0|0:0|0:0|0:0|0:0,0:0:0:0:
256,192,99049,12,0,100549,0:0:0:0:
