osu file format v14

[General]
AudioFilename: audio.mp3
AudioLeadIn: 0
PreviewTime: 63054
Countdown: 0
SampleSet: Soft
StackLeniency: 0.7
Mode: 0
LetterboxInBreaks: 0
WidescreenStoryboard: 0

[Editor]
Bookmarks: 2999,8998,14998,20997,26996,38995,44994,50993,56992,62992,98025,98987
DistanceSpacing: 1
BeatDivisor: 4
GridSize: 4
TimelineZoom: 1.5

[Metadata]
Title:Final Boss 2
TitleUnicode:Final Boss 2
Artist:Woofle
ArtistUnicode:Woofle
Creator:Pereira006
Version:Easy
Source:Freedom Planet
Tags:galaxytrail フリーダム・プラネット Brevon
BeatmapID:994755
BeatmapSetID:461945

[Difficulty]
HPDrainRate:1
CircleSize:3
OverallDifficulty:2
ApproachRate:2
SliderMultiplier:1
SliderTickRate:1

[Events]
//Background and Video events
0,0,"brevon.jpg",0,0
//Break Periods
//Storyboard Layer 0 (Background)
//Storyboard Layer 1 (Fail)
//Storyboard Layer 2 (Pass)
//Storyboard Layer 3 (Foreground)
//Storyboard Sound Samples

[TimingPoints]
62,374.953130858643,4,2,0,60,1,0
63054,-100,4,2,0,60,0,0
66053,-100,4,2,0,70,0,1
78052,-100,4,2,0,60,0,0

[Colours]
Combo1 : 242,24,57
Combo2 : 0,202,0
Combo3 : 217,217,0
SliderBorder : 255,255,0

[HitObjects]
132,32,3061,6,0,P|44:140|64:292,1,300,4|8,0:0|0:0,0:0:0:0:
144,350,4561,1,2,0:0:0:0:
241,326,4936,2,0,P|281:230|233:154,1,200,8|8,0:0|0:0,0:0:0:0:
168,76,6061,6,0,P|312:28|432:104,1,300,2|8,0:0|0:0,0:0:0:0:
468,192,7561,1,2,0:0:0:0:
440,288,7936,2,0,P|348:332|252:320,1,200,8|8,0:0|0:0,0:0:0:0:
288,228,9060,6,0,P|196:184|100:196,1,200,2|0,0:0|0:0,0:0:0:0:
16,248,10185,1,8,0:0:0:0:
8,148,10560,2,0,P|68:64|160:48,1,200,2|0,0:0|0:0,0:0:0:0:
256,68,11685,1,8,0:0:0:0:
348,104,12060,6,0,P|400:164|416:232,2,150,2|0|8,0:0|0:0|0:0,0:0:0:0:
256,140,13560,2,0,P|268:218|310:274,2,150,2|0|8,0:0|0:0|0:0,0:0:0:0:
280,44,15060,6,0,P|128:44|44:152,1,300,4|8,0:0|0:0,0:0:0:0:
64,252,16559,1,2,0:0:0:0:
132,328,16934,2,0,P|224:284|236:192,1,200,8|8,0:0|0:0,0:0:0:0:
192,104,18059,6,0,P|332:52|432:144,1,300,2|8,0:0|0:0,0:0:0:0:
416,244,19559,1,2,0:0:0:0:
372,336,19934,2,0,P|272:352|176:324,1,200,8|8,0:0|0:0,0:0:0:0:
96,268,21059,6,0,P|96:152|136:80,1,200,2|0,0:0|0:0,0:0:0:0:
232,56,22184,1,8,0:0:0:0:
328,76,22559,2,0,P|371:164|367:263,1,200,2|0,0:0|0:0,0:0:0:0:
296,332,23684,1,8,0:0:0:0:
196,332,24059,6,0,P|120:312|60:268,2,150,2|0|8,0:0|0:0|0:0,0:0:0:0:
228,236,25558,2,0,P|185:175|166:102,2,150,2|0|8,0:0|0:0|0:0,0:0:0:0:
300,308,27058,6,0,P|396:288|452:200,1,200,4|0,0:0|0:0,0:0:0:0:
404,120,28183,1,8,0:0:0:0:
316,68,28558,2,0,P|220:88|164:176,1,200,2|0,0:0|0:0,0:0:0:0:
188,264,29683,1,8,0:0:0:0:
256,336,30058,6,0,P|308:312|336:280,1,100,2|8,0:0|0:0,0:0:0:0:
332,180,30808,1,0,0:0:0:0:
296,88,31183,2,0,P|144:48|28:116,1,300,8|0,0:0|0:0,0:0:0:0:
8,216,32682,1,8,0:0:0:0:
48,308,33057,6,0,P|148:316|176:236,1,200,4|0,0:0|0:0,0:0:0:0:
204,140,34182,1,8,0:0:0:0:
272,212,34557,2,0,P|364:225|399:139,1,200,2|0,0:0|0:0,0:0:0:0:
364,48,35682,1,8,0:0:0:0:
268,16,36057,6,0,P|212:24|172:44,1,100,2|8,0:0|0:0,0:0:0:0:
124,132,36807,1,0,0:0:0:0:
116,232,37182,2,0,P|232:336|356:292,1,300,8|0,0:0|0:0,0:0:0:0:
380,196,38682,1,8,0:0:0:0:
348,100,39057,6,0,P|204:56|72:112,1,300,4|8,0:0|0:0,0:0:0:0:
36,204,40556,1,2,0:0:0:0:
80,296,40931,2,0,P|176:324|272:304,1,200,8|8,0:0|0:0,0:0:0:0:
336,228,42056,6,0,P|320:76|196:44,1,300,2|8,0:0|0:0,0:0:0:0:
116,104,43556,1,2,0:0:0:0:
76,196,43931,2,0,P|144:276|236:300,1,200,8|8,0:0|0:0,0:0:0:0:
332,300,45056,6,0,P|432:284|476:204,1,200,2|0,0:0|0:0,0:0:0:0:
436,112,46181,1,8,0:0:0:0:
360,44,46556,2,0,P|260:60|216:140,1,200,2|0,0:0|0:0,0:0:0:0:
236,240,47681,1,8,0:0:0:0:
200,332,48056,6,0,P|124:348|52:324,2,150,2|0|8,0:0|0:0|0:0,0:0:0:0:
300,332,49555,2,0,P|376:348|448:324,2,150,2|0|8,0:0|0:0|0:0,0:0:0:0:
324,236,51055,6,0,P|284:92|152:52,1,300,4|8,0:0|0:0,0:0:0:0:
64,104,52555,1,2,0:0:0:0:
40,200,52930,2,0,P|96:256|216:240,1,200,8|8,0:0|0:0,0:0:0:0:
229,146,54055,6,0,P|365:82|477:162,1,300,2|8,0:0|0:0,0:0:0:0:
480,260,55555,1,2,0:0:0:0:
432,348,55930,2,0,P|332:352|240:312,1,200,8|8,0:0|0:0,0:0:0:0:
268,216,57054,6,0,P|220:128|128:96,1,200,2|0,0:0|0:0,0:0:0:0:
40,140,58179,1,8,0:0:0:0:
24,240,58554,2,0,P|72:328|164:360,1,200,2|0,0:0|0:0,0:0:0:0:
252,316,59679,1,8,0:0:0:0:
340,272,60054,6,0,P|416:284|472:332,2,150,2|0|8,0:0|0:0|0:0,0:0:0:0:
340,172,61554,2,0,P|416:160|472:112,2,150,2|0|8,0:0|0:0|0:0,0:0:0:0:
256,120,63054,5,2,0:0:0:0:
56,120,63804,1,2,0:0:0:0:
56,320,64553,1,2,3:0:0:0:
256,320,65303,1,2,3:0:0:0:
456,276,66053,6,0,P|428:176|348:120,1,200,4|0,0:0|0:0,0:0:0:0:
252,116,67178,1,8,0:0:0:0:
152,124,67553,2,0,P|73:183|49:278,1,200,2|0,0:0|0:0,0:0:0:0:
128,344,68678,1,8,0:0:0:0:
228,332,69053,6,0,P|264:288|264:240,1,100,2|8,0:0|0:0,0:0:0:0:
216,160,69803,1,0,0:0:0:0:
208,60,70178,2,0,P|356:40|456:156,1,300,8|0,0:0|0:0,0:0:0:0:
452,240,71678,1,8,0:0:0:0:
400,324,72053,6,0,P|312:264|316:180,1,200,4|0,0:0|0:0,0:0:0:0:
256,100,73177,1,8,0:0:0:0:
195,179,73552,2,0,P|194:275|112:324,1,200,2|0,0:0|0:0,0:0:0:0:
28,268,74677,1,8,0:0:0:0:
16,168,75052,6,0,P|28:112|64:72,1,100,2|8,0:0|0:0,0:0:0:0:
152,60,75802,1,0,0:0:0:0:
252,48,76177,2,0,P|396:100|452:228,1,300,8|0,0:0|0:0,0:0:0:0:
440,328,77677,1,8,0:0:0:0:
344,356,78052,5,4,0:0:0:0:
256,312,78427,2,0,P|263:214|218:126,1,200,8|8,0:0|0:0,0:0:0:0:
132,76,79552,1,2,0:0:0:0:
72,156,79927,2,0,P|65:254|110:342,1,200,8|8,0:0|0:0,0:0:0:0:
212,348,81051,5,2,0:0:0:0:
312,336,81426,2,0,P|416:328|456:248,1,200,8|8,0:0|0:0,0:0:0:0:
372,192,82551,1,2,0:0:0:0:
455,133,82926,2,0,P|407:50|312:48,1,200,8|8,0:0|0:0,0:0:0:0:
280,144,84051,5,2,0:0:0:0:
268,244,84426,2,0,P|204:320|108:344,1,200,8|8,0:0|0:0,0:0:0:0:
20,292,85551,1,2,0:0:0:0:
28,192,85926,2,0,P|92:116|188:92,1,200,8|8,0:0|0:0,0:0:0:0:
288,84,87051,5,2,0:0:0:0:
388,100,87426,2,0,P|424:192|388:284,1,200,8|8,0:0|0:0,0:0:0:0:
288,300,88550,1,2,0:0:0:0:
188,284,88925,2,0,P|153:192|189:101,1,200,8|8,0:0|0:0,0:0:0:0:
284,64,90050,6,0,P|336:64|380:80,1,100,2|8,0:0|0:0,0:0:0:0:
380,180,90800,2,0,P|333:196|283:196,1,100,2|8,0:0|0:0,0:0:0:0:
208,132,91550,1,2,0:0:0:0:
120,80,91925,2,0,P|48:148|56:248,1,200,8|8,0:0|0:0,0:0:0:0:
116,320,93050,5,2,0:0:0:0:
212,348,93425,2,0,P|312:360|404:328,1,200,8|8,0:0|0:0,0:0:0:0:
428,232,94550,1,2,0:0:0:0:
372,148,94925,2,0,P|272:136|180:168,1,200,8|8,0:0|0:0,0:0:0:0:
124,252,96050,6,0,P|136:304|168:340,1,100,2|2,0:0|0:0,0:0:0:0:
264,336,96799,2,0,P|295:297|305:249,1,100,2|2,0:0|0:0,0:0:0:0:
288,152,97549,1,2,0:0:0:0:
224,76,97924,2,0,P|124:80|60:152,1,200,8|8,0:0|0:0,0:0:0:0:
256,192,99049,12,0,100549,0:0:0:0:
