osu file format v14

[General]
AudioFilename: audio.mp3
AudioLeadIn: 0
PreviewTime: 16438
Countdown: 0
SampleSet: Soft
StackLeniency: 0.7
Mode: 0
LetterboxInBreaks: 0
WidescreenStoryboard: 0

[Editor]
DistanceSpacing: 1.2
BeatDivisor: 4
GridSize: 4
TimelineZoom: 1

[Metadata]
Title:Bossoft (Aquatic Boss Battle)
TitleUnicode:Bossoft (Aquatic Boss Battle)
Artist:Woofle
ArtistUnicode:Woofle
Creator:Pereira006
Version:Insane
Source:Freedom Planet
Tags:galaxytrail フリーダム・プラネット Syntax
BeatmapID:917798
BeatmapSetID:424923

[Difficulty]
HPDrainRate:6
CircleSize:4
OverallDifficulty:7
ApproachRate:8.5
SliderMultiplier:1.6
SliderTickRate:1

[Events]
//Background and Video events
0,0,"bg.jpg",0,0
//Break Periods
//Storyboard Layer 0 (Background)
//Storyboard Layer 1 (Fail)
//Storyboard Layer 2 (Pass)
//Storyboard Layer 3 (Foreground)
//Storyboard Sound Samples

[TimingPoints]
25,410.958904109589,4,2,0,30,1,0
42456,-100,4,2,0,20,0,0
42764,-100,4,2,0,40,0,0

[Colours]
Combo1 : 242,24,57
Combo2 : 0,202,0
Combo3 : 255,128,64
Combo4 : 63,203,143
SliderBorder : 255,255,0

[HitObjects]
36,208,3312,6,0,P|72:192|116:188,1,80,4|0,0:0|0:0,0:0:0:0:
208,200,3723,1,8,1:0:0:0:
357,288,3929,2,0,P|317:280|284:260,1,80,0|2,0:0|0:0,0:0:0:0:
364,84,4340,2,0,P|403:91|437:112,1,80,0|8,0:0|1:0,0:0:0:0:
365,276,4751,2,0,P|325:268|292:248,1,80,0|2,0:0|0:0,0:0:0:0:
372,64,5161,6,0,P|411:71|445:92,1,80,0|8,0:0|1:0,0:0:0:0:
492,176,5572,1,0,0:0:0:0:
420,316,5778,2,0,P|403:352|371:374,1,80,2|0,0:0|0:0,0:0:0:0:
248,296,6189,2,0,P|263:259|295:237,1,80,8|0,1:0|0:0,0:0:0:0:
492,176,6600,6,0,P|456:160|428:128,1,80,4|0,0:0|0:0,0:0:0:0:
465,40,7011,1,8,1:0:0:0:
316,16,7216,2,0,P|276:16|236:28,1,80,0|2,0:0|0:0,0:0:0:0:
93,111,7627,2,0,P|133:111|172:99,1,80,0|8,0:0|1:0,0:0:0:0:
322,156,8038,2,0,P|282:156|244:168,1,80,0|2,0:0|0:0,0:0:0:0:
101,247,8449,6,0,P|141:247|180:236,1,80,0|8,0:0|1:0,0:0:0:0:
244,304,8860,1,0,0:0:0:0:
405,354,9066,2,0,P|367:356|325:338,1,80,2|0,0:0|0:0,0:0:0:0:
366,103,9477,2,0,P|404:101|446:119,1,80,8|0,1:0|0:0,0:0:0:0:
387,228,9888,6,0,P|347:220|307:204,1,80,4|0,0:0|0:0,0:0:0:0:
256,126,10298,1,8,1:0:0:0:
100,47,10504,2,0,P|139:55|177:70,1,80,0|2,0:0|0:0,0:0:0:0:
155,258,10915,2,0,P|115:250|78:235,1,80,0|8,0:0|1:0,0:0:0:0:
256,126,11326,2,0,P|248:165|233:202,1,80,0|2,0:0|0:0,0:0:0:0:
5,179,11737,6,0,P|12:139|27:102,1,80,0|8,0:0|1:0,0:0:0:0:
100,164,12148,1,0,0:0:0:0:
231,285,12353,2,0,P|191:286|155:270,1,80,2|0,0:0|0:0,0:0:0:0:
179,110,12764,2,0,P|218:109|255:125,1,80,8|0,1:0|0:0,0:0:0:0:
352,342,13175,6,0,B|388:302|316:230|352:190,1,160,4|8,0:0|1:0,0:0:0:0:
384,100,13792,2,0,L|464:100,1,80,0|2,0:0|0:0,0:0:0:0:
328,24,14203,2,0,L|248:24,1,80,0|8,0:0|1:0,0:0:0:0:
108,100,14614,6,0,P|188:112|208:180,1,160,4|2,0:0|0:0,0:0:0:0:
164,300,15230,1,8,1:0:0:0:
36,312,15435,1,0,1:0:0:0:
24,180,15641,1,0,1:0:0:0:
24,180,16052,1,8,1:0:0:0:
253,109,16257,1,0,1:0:0:0:
253,109,16360,1,0,1:0:0:0:
253,109,16463,6,0,P|338:100|420:132,1,160,4|8,0:0|1:0,0:0:0:0:
444,212,17079,2,0,P|416:244|380:256,1,80,0|2,0:0|0:0,0:0:0:0:
188,252,17490,1,0,0:0:0:0:
332,148,17696,1,8,1:0:0:0:
240,168,17901,1,0,0:0:0:0:
186,352,18107,6,0,P|115:320|90:247,1,160,2|8,0:0|1:0,0:0:0:0:
384,246,18723,2,0,P|357:319|286:349,1,160
297,203,19340,1,8,1:0:0:0:
226,267,19545,1,0,0:0:0:0:
457,314,19751,6,0,P|482:236|440:164,1,160,2|8,0:0|1:0,0:0:0:0:
343,47,20367,2,0,P|318:121|353:191,1,160,0|2,0:0|0:0,0:0:0:0:
290,330,20983,1,8,1:0:0:0:
375,284,21189,1,0,0:0:0:0:
199,302,21394,6,0,P|124:269|98:197,1,160,2|8,0:0|1:0,0:0:0:0:
216,79,22011,2,0,P|288:108|318:180,1,160
208,190,22627,1,8,1:0:0:0:
286,12,22833,1,0,0:0:0:0:
286,12,22935,1,0,0:0:0:0:
286,12,23038,6,0,P|354:53|397:121,1,160,4|8,0:0|1:0,0:0:0:0:
351,205,23655,2,0,P|327:240|325:276,1,80,0|2,0:0|0:0,0:0:0:0:
414,357,24066,1,0,0:0:0:0:
459,195,24271,1,8,1:0:0:0:
481,289,24477,1,0,0:0:0:0:
265,322,24682,6,0,P|184:340|104:322,1,160,2|8,0:0|1:0,0:0:0:0:
107,164,25298,2,0,P|184:148|262:166,1,160
393,249,25915,1,8,1:0:0:0:
298,258,26120,1,0,0:0:0:0:
313,78,26326,6,0,P|235:61|154:69,1,160,2|8,0:0|1:0,0:0:0:0:
22,222,26942,2,0,P|100:239|181:231,1,160
155,68,27559,1,8,1:0:0:0:
98,145,27764,1,0,0:0:0:0:
270,170,27970,6,0,P|346:193|403:250,1,160,2|8,0:0|1:0,0:0:0:0:
296,362,28586,2,0,P|220:339|163:282,1,160
152,144,29203,1,8,1:0:0:0:
382,212,29408,1,0,0:0:0:0:
382,212,29511,1,0,0:0:0:0:
382,212,29614,6,0,P|406:133|385:58,1,160,4|8,0:0|1:0,0:0:0:0:
217,21,30230,2,0,P|257:15|298:23,1,80,0|2,0:0|0:0,0:0:0:0:
212,252,30641,1,0,0:0:0:0:
256,100,30846,1,8,1:0:0:0:
184,164,31052,1,0,0:0:0:0:
424,164,31257,6,0,P|431:244|393:318,1,160,2|8,0:0|1:0,0:0:0:0:
154,289,31874,2,0,P|225:254|304:262,1,160
371,353,32490,1,8,1:0:0:0:
275,364,32696,1,0,0:0:0:0:
390,163,32901,6,0,P|314:129|236:143,1,160,2|8,0:0|1:0,0:0:0:0:
23,187,33518,2,0,P|94:221|173:210,1,160
203,51,34134,1,8,1:0:0:0:
122,103,34340,1,0,0:0:0:0:
240,141,34545,6,0,P|297:85|290:9,1,160,2|8,0:0|1:0,0:0:0:0:
430,70,35161,2,0,P|373:126|380:202,1,160
456,300,35778,1,8,1:0:0:0:
279,181,35983,1,0,0:0:0:0:
279,181,36086,1,0,0:0:0:0:
279,181,36189,6,0,P|202:158|122:157,1,160,4|8,0:0|1:0,0:0:0:0:
19,289,36805,2,0,P|25:249|46:216,1,80,0|2,0:0|0:0,0:0:0:0:
288,244,37216,1,0,0:0:0:0:
116,282,37422,1,8,1:0:0:0:
192,216,37627,1,0,0:0:0:0:
283,363,37833,6,0,P|365:351|430:306,1,160,2|8,0:0|1:0,0:0:0:0:
428,130,38449,2,0,P|361:86|283:75,1,160
121,126,39066,1,8,1:0:0:0:
185,54,39271,1,0,0:0:0:0:
269,170,39477,6,0,P|288:252|268:323,1,160,2|8,0:0|1:0,0:0:0:0:
93,351,40093,2,0,P|72:274|91:197,1,160
283,206,40709,1,8,1:0:0:0:
243,118,40915,1,0,0:0:0:0:
186,291,41120,6,0,P|240:331|342:339,1,160,2|8,0:0|1:0,0:0:0:0:
456,207,41737,2,0,P|402:167|300:159,1,160
223,194,42353,1,8,1:0:0:0:
204,209,42456,1,0,1:0:0:0:
183,221,42559,1,0,1:0:0:0:
160,228,42661,1,0,1:0:0:0:
136,234,42764,6,0,P|52:218|7:158,1,160,4|8,0:0|0:0,0:0:0:0:
0,64,43381,1,0,0:0:0:0:
80,14,43586,2,0,P|119:15|157:26,1,80,2|0,0:0|0:0,0:0:0:0:
232,88,43997,1,8,0:0:0:0:
316,40,44203,1,0,0:0:0:0:
316,40,44305,1,0,0:0:0:0:
316,40,44408,6,0,P|323:80|312:119,1,80,2|0,0:0|0:0,0:0:0:0:
302,139,44716,1,0,0:0:0:0:
290,160,44819,1,8,0:0:0:0:
196,274,45025,2,0,P|188:236|200:198,1,80,0|2,0:0|0:0,0:0:0:0:
251,353,45435,1,0,0:0:0:0:
272,363,45538,1,0,0:0:0:0:
295,369,45641,1,8,0:0:0:0:
325,278,45846,1,0,0:0:0:0:
344,264,45949,1,0,0:0:0:0:
363,250,46052,1,2,0:0:0:0:
354,48,46257,5,0,0:0:0:0:
445,75,46463,1,8,0:0:0:0:
320,138,46668,2,0,P|240:149|158:126,1,160,2|0,0:0|0:0,0:0:0:0:
129,38,47285,1,8,0:0:0:0:
39,71,47490,1,0,0:0:0:0:
232,53,47696,6,0,P|273:52|315:63,1,80,2|0,0:0|0:0,0:0:0:0:
331,73,48004,1,0,0:0:0:0:
348,89,48107,1,8,0:0:0:0:
381,178,48312,1,2,0:0:0:0:
358,271,48518,2,0,P|317:272|275:261,1,80,2|0,0:0|0:0,0:0:0:0:
258,250,48826,1,0,0:0:0:0:
237,237,48929,1,8,0:0:0:0:
175,163,49134,1,2,0:0:0:0:
308,20,49340,6,0,P|374:63|394:140,1,160,4|8,0:0|0:0,0:0:0:0:
344,220,49956,1,0,0:0:0:0:
248,228,50161,2,0,P|210:213|176:186,1,80,2|0,0:0|0:0,0:0:0:0:
119,113,50572,1,8,0:0:0:0:
22,113,50778,1,0,0:0:0:0:
22,113,50881,1,0,0:0:0:0:
22,113,50983,6,0,P|16:157|22:199,1,80,2|0,0:0|0:0,0:0:0:0:
30,213,51292,1,0,0:0:0:0:
42,233,51394,1,8,0:0:0:0:
173,324,51600,2,0,P|134:318|99:300,1,80,0|2,0:0|0:0,0:0:0:0:
263,289,52011,1,0,0:0:0:0:
271,266,52114,1,0,0:0:0:0:
278,243,52216,1,8,0:0:0:0:
220,165,52422,1,0,0:0:0:0:
350,39,52627,6,0,P|422:81|466:146,1,160,2|8,0:0|0:0,0:0:0:0:
334,269,53244,2,0,P|262:227|218:162,1,160,2|0,0:0|0:0,0:0:0:0:
122,57,53860,2,0,P|162:59|200:72,1,80,8|0,0:0|0:0,0:0:0:0:
46,112,54271,5,2,0:0:0:0:
122,170,54477,1,0,0:0:0:0:
38,216,54682,1,8,0:0:0:0:
120,264,54888,1,0,0:0:0:0:
38,314,55093,1,2,0:0:0:0:
122,359,55298,1,0,0:0:0:0:
200,308,55504,1,8,0:0:0:0:
280,360,55709,1,0,0:0:0:0:
280,360,55812,1,0,0:0:0:0:
280,360,55915,6,0,P|332:304|340:224,1,160,4|8,0:0|0:0,0:0:0:0:
344,128,56531,1,0,0:0:0:0:
344,128,56634,1,0,0:0:0:0:
344,128,56737,2,0,P|307:108|267:99,1,80,2|0,0:0|0:0,0:0:0:0:
136,145,57148,2,0,P|171:164|210:174,1,80,8|0,0:0|0:0,0:0:0:0:
422,37,57559,6,0,P|474:101|470:176,1,160,2|8,0:0|0:0,0:0:0:0:
418,256,58175,1,0,0:0:0:0:
418,256,58278,1,0,0:0:0:0:
418,256,58381,2,0,P|388:283|348:295,1,80,2|0,0:0|0:0,0:0:0:0:
234,129,58792,2,0,P|264:102|304:90,1,80,8|0,0:0|0:0,0:0:0:0:
262,235,59203,6,0,P|199:286|112:301,1,160,2|8,0:0|0:0,0:0:0:0:
38,255,59819,1,0,0:0:0:0:
8,164,60024,2,0,P|3:124|6:84,1,80,2|0,0:0|0:0,0:0:0:0:
189,27,60435,1,8,0:0:0:0:
95,48,60641,1,0,0:0:0:0:
281,50,60846,6,0,L|361:66,1,80,2|0,0:0|0:0,0:0:0:0:
444,145,61257,2,0,L|366:161,1,80,8|0,0:0|0:0,0:0:0:0:
286,241,61668,2,0,L|365:257,1,80,2|0,0:0|0:0,0:0:0:0:
450,336,62079,2,0,L|371:351,1,80,8|0,0:0|0:0,0:0:0:0:
185,355,62490,6,0,P|105:331|60:268,1,160,4|8,0:0|0:0,0:0:0:0:
88,180,63107,1,0,0:0:0:0:
88,180,63209,1,0,0:0:0:0:
88,180,63312,2,0,P|136:193|162:209,1,80,2|0,0:0|0:0,0:0:0:0:
317,284,63723,2,0,P|279:274|244:256,1,80,8|0,0:0|0:0,0:0:0:0:
204,72,64134,6,0,P|128:40|52:48,1,160,2|8,0:0|0:0,0:0:0:0:
11,139,64751,1,0,0:0:0:0:
11,139,64853,1,0,0:0:0:0:
11,139,64956,2,0,P|1:182|6:218,1,80,2|0,0:0|0:0,0:0:0:0:
139,289,65367,2,0,P|100:299|61:295,1,80,8|0,0:0|0:0,0:0:0:0:
136,115,65778,6,0,L|136:194,1,80,2|0,0:0|0:0,0:0:0:0:
232,272,66189,2,0,L|232:192,1,80,8|0,0:0|0:0,0:0:0:0:
328,113,66600,2,0,L|328:193,1,80,2|0,0:0|0:0,0:0:0:0:
424,273,67011,2,0,L|424:193,1,80,8|0,0:0|0:0,0:0:0:0:
402,53,67422,5,2,0:0:0:0:
320,102,67627,1,0,0:0:0:0:
251,34,67833,1,8,0:0:0:0:
173,90,68038,1,0,0:0:0:0:
86,47,68244,1,2,0:0:0:0:
43,132,68449,1,0,0:0:0:0:
92,216,68655,1,8,0:0:0:0:
44,296,68860,1,0,0:0:0:0:
44,296,68963,1,0,0:0:0:0:
44,296,69066,1,4,0:0:0:0:
256,192,69168,12,4,72353,0:0:0:0:
