osu file format v14

[General]
AudioFilename: audio.mp3
AudioLeadIn: 0
PreviewTime: 182726
Countdown: 1
SampleSet: None
StackLeniency: 0.7
Mode: 0
LetterboxInBreaks: 0
WidescreenStoryboard: 0

[Editor]
DistanceSpacing: 1.6
BeatDivisor: 8
GridSize: 4
TimelineZoom: 1

[Metadata]
Title:Prototype
TitleUnicode:Prototype
Artist:WoodenToaster
ArtistUnicode:WoodenToaster
Creator:Altrentorae
Version:Mobile Super Computer
Source:
Tags:
BeatmapID:1252797
BeatmapSetID:592066

[Difficulty]
HPDrainRate:5
CircleSize:4
OverallDifficulty:9
ApproachRate:9.3
SliderMultiplier:1.4
SliderTickRate:2

[Events]
//Background and Video events
0,0,"maxresdefault (1).jpg",0,0
//Break Periods
2,217785,225237
//Storyboard Layer 0 (Background)
//Storyboard Layer 1 (Fail)
//Storyboard Layer 2 (Pass)
//Storyboard Layer 3 (Foreground)
//Storyboard Sound Samples

[TimingPoints]
150,512.820512820513,4,2,0,100,1,0
8623,-57.1428571428571,4,2,0,100,0,0
16572,-50,4,2,0,100,0,0
66572,-66.6666666666667,4,2,0,100,0,0
74008,-55.5555555555556,4,2,0,100,0,0
82213,-50,4,2,0,100,0,0
84264,-50,4,1,0,100,0,1
100674,-66.6666666666667,4,2,0,100,0,0
174520,-55.5555555555556,4,2,0,100,0,0
184777,-37.5,4,1,0,100,0,1
217597,-66.6666666666667,4,3,0,100,0,0
250402,-66.6666666666667,4,2,0,100,0,0
260658,-100,4,1,0,50,0,0
266812,-76.9230769230769,4,1,0,50,0,0
276043,-66.6666666666667,4,1,0,75,0,0
277069,-33.5,4,1,0,100,0,1
292710,-50,4,2,0,100,0,0

[HitObjects]
344,272,150,6,0,P|384:204|384:164,1,105
344,88,662,1,0,0:0:0:0:
228,204,919,1,0,0:0:0:0:
380,164,1175,1,0,0:0:0:0:
380,164,1303,2,0,P|408:116|408:96,1,70
356,36,1688,2,0,P|312:60|304:96,1,70
344,212,2201,6,0,P|324:260|256:284,1,105
160,256,2714,1,0,0:0:0:0:
196,120,2970,1,0,0:0:0:0:
264,256,3226,1,0,0:0:0:0:
264,256,3355,1,0,0:0:0:0:
112,184,3611,1,0,0:0:0:0:
112,184,3739,1,0,0:0:0:0:
264,132,3996,6,0,P|248:184|216:212,1,70
96,248,4637,1,0,0:0:0:0:
96,248,4765,1,0,0:0:0:0:
68,108,5021,6,0,P|136:88|152:84,1,70
256,64,5406,1,0,0:0:0:0:
204,228,5662,5,0,0:0:0:0:
204,228,5791,1,0,0:0:0:0:
128,72,6047,2,0,P|184:60|216:64,1,70
400,100,6688,5,0,0:0:0:0:
400,100,6816,2,0,P|408:152|404:184,1,70
352,276,7329,1,0,0:0:0:0:
352,276,7457,2,0,P|284:284|264:272,1,70
216,232,7842,1,0,0:0:0:0:
172,120,8098,6,0,P|200:88|208:112,1,70
312,116,8739,6,0,P|300:196|276:244,1,122.500001168251
216,288,9124,1,0,0:0:0:0:
188,192,9252,1,0,0:0:0:0:
276,136,9380,1,0,0:0:0:0:
360,188,9508,1,0,0:0:0:0:
372,280,9637,2,0,L|232:288,2,122.500001168251
428,180,10406,5,0,0:0:0:0:
292,64,10662,1,0,0:0:0:0:
292,64,10791,1,0,0:0:0:0:
292,64,10919,1,0,0:0:0:0:
160,68,11175,6,0,P|112:112|92:136,1,61.2500005841255
72,184,11432,1,0,0:0:0:0:
120,260,11560,1,0,0:0:0:0:
156,176,11688,1,0,0:0:0:0:
68,236,11816,1,0,0:0:0:0:
180,228,11944,2,0,P|212:192|140:224,1,245.000002336502
160,176,12842,6,0,L|304:152,1,122.500001168251
372,148,13226,1,0,0:0:0:0:
464,204,13355,1,0,0:0:0:0:
356,232,13483,1,0,0:0:0:0:
460,288,13611,1,0,0:0:0:0:
352,304,13739,2,0,B|268:304|236:204|216:248,1,122.500001168251
120,216,14252,5,0,0:0:0:0:
100,68,14508,2,0,L|172:68,1,61.2500005841255
240,72,14765,2,0,L|272:72,4,30.6250002920628
152,188,15278,5,0,0:0:0:0:
40,108,15534,1,0,0:0:0:0:
120,80,15662,1,0,0:0:0:0:
208,84,15791,1,0,0:0:0:0:
356,88,16047,6,0,B|328:172|340:192|376:180|384:136|312:300,1,183.750001752377
288,312,16560,5,0,0:0:0:0:
216,264,16688,1,0,0:0:0:0:
164,196,16816,1,0,0:0:0:0:
192,112,16944,1,0,0:0:0:0:
260,48,17073,1,0,0:0:0:0:
280,80,17329,6,0,P|208:76|132:108,2,140
372,88,18098,6,0,L|452:88,1,70
444,176,18355,2,0,L|368:176,1,70
404,264,18611,5,0,0:0:0:0:
316,336,18867,2,0,L|416:336,2,70
204,296,19380,1,0,0:0:0:0:
128,224,19637,5,0,0:0:0:0:
204,184,19765,1,0,0:0:0:0:
288,188,19893,2,0,P|360:200|392:220,2,70
400,84,20406,5,0,0:0:0:0:
308,76,20534,1,0,0:0:0:0:
224,104,20662,2,0,P|152:132|56:240,1,210
48,312,21175,1,0,0:0:0:0:
168,304,21432,5,0,0:0:0:0:
216,224,21560,1,0,0:0:0:0:
224,132,21688,1,0,0:0:0:0:
168,56,21816,1,0,0:0:0:0:
80,64,21944,2,0,L|80:228,1,140
128,280,22457,6,0,L|48:344,2,70
256,268,22970,2,0,P|336:276|408:252,1,140
464,212,23483,2,0,L|464:288,1,70
368,304,23739,1,0,0:0:0:0:
328,224,23867,1,0,0:0:0:0:
328,140,23996,1,0,0:0:0:0:
392,76,24124,1,0,0:0:0:0:
468,136,24252,2,0,P|376:132|300:96,1,140
244,56,24765,5,0,0:0:0:0:
184,132,24893,1,0,0:0:0:0:
160,216,25021,2,0,P|160:288|200:340,1,140
264,328,25534,5,0,0:0:0:0:
340,280,25662,1,0,0:0:0:0:
376,196,25791,1,0,0:0:0:0:
364,100,25919,1,0,0:0:0:0:
284,52,26047,2,0,P|196:80|152:116,1,140
96,148,26560,6,0,L|60:80,2,70
64,264,27073,1,0,0:0:0:0:
64,264,27201,2,0,L|152:256,1,70
196,332,27585,6,0,L|240:264,1,70
312,216,27842,1,0,0:0:0:0:
288,132,27970,1,0,0:0:0:0:
208,88,28098,1,0,0:0:0:0:
136,124,28226,1,0,0:0:0:0:
68,160,28355,2,0,P|48:108|64:88,1,70
124,56,28611,5,0,0:0:0:0:
216,92,28739,1,0,0:0:0:0:
268,168,28867,2,0,P|260:268|168:344,1,210
56,320,29380,6,0,P|92:244|116:244,1,70
88,320,29637,5,0,0:0:0:0:
104,232,29765,1,0,0:0:0:0:
160,168,29893,1,0,0:0:0:0:
232,124,30021,1,0,0:0:0:0:
320,112,30150,2,0,P|416:112|456:144,1,140
428,264,30662,6,0,L|456:352,2,70
312,276,31175,2,0,L|320:360,2,70
184,224,31688,5,0,0:0:0:0:
148,300,31816,1,0,0:0:0:0:
68,332,31944,2,0,B|-16:336|-12:296|44:248|128:180|320:196|320:196|220:168|220:164,1,490
216,160,32970,6,0,P|148:120|280:88,1,280
288,64,33996,6,0,P|336:132|344:208,1,140
304,292,34508,1,0,0:0:0:0:
124,256,34765,1,0,0:0:0:0:
24,204,34893,1,0,0:0:0:0:
112,136,35021,2,0,L|244:40,1,140
320,68,35534,6,0,P|420:168|416:196,1,140
408,288,36047,1,0,0:0:0:0:
276,248,36303,5,0,0:0:0:0:
180,264,36432,1,0,0:0:0:0:
208,176,36560,1,0,0:0:0:0:
388,136,36816,5,0,0:0:0:0:
104,80,37073,2,0,P|48:152|44:172,1,70
56,216,37329,1,0,0:0:0:0:
108,304,37457,1,0,0:0:0:0:
164,224,37585,1,0,0:0:0:0:
212,64,37842,5,0,0:0:0:0:
396,92,38098,1,0,0:0:0:0:
464,160,38226,1,0,0:0:0:0:
360,176,38355,1,0,0:0:0:0:
440,248,38483,1,0,0:0:0:0:
336,264,38611,1,0,0:0:0:0:
184,264,38867,6,0,L|152:336,2,70
116,196,39380,2,0,L|28:228,2,70
112,84,39893,2,0,L|28:84,2,70
232,72,40406,5,0,0:0:0:0:
328,68,40534,1,0,0:0:0:0:
424,68,40662,1,0,0:0:0:0:
372,152,40919,6,0,P|456:136|448:84,1,140
356,40,41432,1,0,0:0:0:0:
264,92,41560,1,0,0:0:0:0:
240,188,41688,1,0,0:0:0:0:
324,300,41944,6,0,P|384:236|392:168,1,140
252,232,42457,5,0,0:0:0:0:
304,160,42585,1,0,0:0:0:0:
352,76,42714,1,0,0:0:0:0:
168,144,42970,6,0,L|224:80,2,70
52,148,43483,5,0,0:0:0:0:
112,92,43611,1,0,0:0:0:0:
180,32,43739,1,0,0:0:0:0:
48,240,43996,6,0,L|176:332,1,140
280,312,44508,2,0,L|192:344,2,70
376,296,45021,2,0,P|308:232|252:236,1,140
168,308,45534,5,0,0:0:0:0:
72,276,45662,1,0,0:0:0:0:
160,216,45791,1,0,0:0:0:0:
288,180,46047,5,0,0:0:0:0:
420,128,46303,5,0,0:0:0:0:
412,36,46432,1,0,0:0:0:0:
332,80,46560,2,0,P|232:96|160:140,1,140
68,248,47073,5,0,0:0:0:0:
88,336,47201,1,0,0:0:0:0:
164,280,47329,1,0,0:0:0:0:
280,176,47585,5,0,0:0:0:0:
192,112,47714,1,0,0:0:0:0:
184,204,47842,1,0,0:0:0:0:
316,304,48098,5,0,0:0:0:0:
428,280,48226,1,0,0:0:0:0:
344,200,48355,1,0,0:0:0:0:
232,116,48611,5,0,0:0:0:0:
112,104,48739,1,0,0:0:0:0:
112,208,48867,2,0,B|152:284|248:272|168:204|412:296,1,280
392,164,49637,6,0,L|480:168,2,70
352,72,50150,2,0,B|432:48|432:48|332:44|328:48,1,140
236,56,50662,2,0,P|156:104|128:168,1,140
120,248,51047,1,0,0:0:0:0:
172,328,51175,1,0,0:0:0:0:
212,248,51303,1,0,0:0:0:0:
156,288,51432,6,0,L|404:288,1,210
448,276,51944,6,0,L|380:192,1,70
340,160,52201,1,0,0:0:0:0:
272,88,52329,1,0,0:0:0:0:
208,168,52457,2,0,L|308:284,1,140
380,312,52842,1,0,0:0:0:0:
432,216,52970,5,0,0:0:0:0:
428,68,53226,2,0,L|276:64,1,140
224,64,53739,1,0,0:0:0:0:
140,80,53867,1,0,0:0:0:0:
60,100,53996,1,0,0:0:0:0:
60,112,54252,6,0,P|80:216|100:264,1,140
192,296,54765,2,0,L|280:296,1,70
356,260,55021,1,0,0:0:0:0:
356,160,55150,1,0,0:0:0:0:
280,208,55278,1,0,0:0:0:0:
408,204,55406,1,0,0:0:0:0:
288,140,55534,1,0,0:0:0:0:
180,88,55791,6,0,B|124:136|104:160|132:136|116:224,1,140
168,296,56303,1,0,0:0:0:0:
252,240,56432,1,0,0:0:0:0:
220,152,56560,1,0,0:0:0:0:
124,96,56816,6,0,P|96:184|156:184,1,140
204,156,57329,2,0,P|124:176|124:240,1,140
116,312,57842,5,0,0:0:0:0:
208,304,57970,1,0,0:0:0:0:
284,264,58098,1,0,0:0:0:0:
376,140,58355,5,0,0:0:0:0:
272,216,58611,2,0,P|204:252|172:256,1,70
128,244,58867,1,0,0:0:0:0:
96,160,58996,1,0,0:0:0:0:
176,112,59124,1,0,0:0:0:0:
264,152,59252,1,0,0:0:0:0:
264,244,59380,1,0,0:0:0:0:
200,192,59637,5,0,0:0:0:0:
340,72,59893,2,0,P|376:168|372:244,1,140
296,264,60406,5,0,0:0:0:0:
304,180,60534,1,0,0:0:0:0:
384,148,60662,1,0,0:0:0:0:
204,272,60919,5,0,0:0:0:0:
128,220,61047,1,0,0:0:0:0:
88,132,61175,1,0,0:0:0:0:
360,292,61432,5,0,0:0:0:0:
140,168,61688,1,0,0:0:0:0:
344,144,61944,2,0,L|416:104,2,70
252,128,62457,6,0,B|304:76|320:80|160:96,1,140
80,96,62970,2,0,P|36:40|36:32,2,70
96,216,63483,1,0,0:0:0:0:
96,216,63611,1,0,0:0:0:0:
96,216,63739,1,0,0:0:0:0:
196,72,63996,2,0,B|212:108|212:168|184:232|220:264,1,140
216,304,64508,5,0,0:0:0:0:
312,300,64637,1,0,0:0:0:0:
412,296,64765,2,0,L|408:216,1,70
444,132,65021,2,0,L|392:56,1,70
360,140,65278,2,0,L|404:208,1,70
276,136,65534,1,0,0:0:0:0:
192,184,65662,5,0,0:0:0:0:
36,252,65791,1,0,0:0:0:0:
236,312,66175,5,0,0:0:0:0:
236,312,66303,1,0,0:0:0:0:
336,280,66560,2,0,P|392:252|440:172,1,140
404,136,67073,5,0,0:0:0:0:
232,208,67329,1,0,0:0:0:0:
96,108,67585,2,0,P|60:60|64:56,2,52.5000020027161
220,96,68098,1,0,0:0:0:0:
296,72,68226,1,0,0:0:0:0:
376,80,68355,1,0,0:0:0:0:
416,192,68611,6,0,P|472:196|480:192,2,52.5000020027161
368,284,69124,1,0,0:0:0:0:
292,304,69252,1,0,0:0:0:0:
216,284,69380,1,0,0:0:0:0:
52,312,69893,5,0,0:0:0:0:
64,236,70021,1,0,0:0:0:0:
108,172,70150,1,0,0:0:0:0:
168,124,70278,1,0,0:0:0:0:
244,108,70406,1,0,0:0:0:0:
208,56,70919,5,0,0:0:0:0:
292,84,71047,1,0,0:0:0:0:
340,156,71175,1,0,0:0:0:0:
344,244,71303,1,0,0:0:0:0:
308,328,71432,1,0,0:0:0:0:
232,168,71688,5,0,0:0:0:0:
372,304,71944,5,0,0:0:0:0:
272,308,72073,1,0,0:0:0:0:
188,252,72201,1,0,0:0:0:0:
148,160,72329,1,0,0:0:0:0:
164,60,72457,1,0,0:0:0:0:
332,192,72714,5,0,0:0:0:0:
204,76,72970,2,0,L|240:72,4,26.2500010013581
392,132,73355,5,0,0:0:0:0:
152,192,73483,1,0,0:0:0:0:
180,116,73996,5,0,0:0:0:0:
56,216,74380,1,0,0:0:0:0:
56,216,74508,1,0,0:0:0:0:
184,272,75021,5,0,0:0:0:0:
304,256,75278,5,0,0:0:0:0:
376,216,75406,1,0,0:0:0:0:
400,140,75534,2,0,P|408:68|360:36,1,125.999996154785
264,40,76047,1,0,0:0:0:0:
160,104,76303,5,0,0:0:0:0:
108,180,76432,1,0,0:0:0:0:
56,104,76560,2,0,P|120:68|304:100,1,251.999992309571
364,84,77457,5,0,0:0:0:0:
364,84,77585,1,0,0:0:0:0:
424,192,77842,5,0,0:0:0:0:
304,288,78098,1,0,0:0:0:0:
436,272,78355,5,0,0:0:0:0:
232,208,78611,1,0,0:0:0:0:
316,328,78867,5,0,0:0:0:0:
308,128,79124,1,0,0:0:0:0:
204,256,79380,5,0,0:0:0:0:
208,176,79508,1,0,0:0:0:0:
252,108,79637,1,0,0:0:0:0:
332,92,79765,1,0,0:0:0:0:
404,128,79893,1,0,0:0:0:0:
412,208,80021,1,0,0:0:0:0:
376,280,80150,2,0,L|352:320,2,31.4999990386963
264,288,80406,5,0,0:0:0:0:
144,168,80534,1,0,0:0:0:0:
304,100,80662,2,0,L|336:72,2,31.4999990386963
172,276,80919,5,0,0:0:0:0:
280,116,81047,1,0,0:0:0:0:
352,264,81175,2,0,L|392:288,6,31.4999990386963
340,296,81688,2,0,L|356:308,13,15.7499995193482
296,296,82201,6,0,P|200:284|348:168,1,420
344,168,83098,2,0,L|368:136,1,35
384,100,83226,2,0,P|332:80|312:344,1,490
392,288,84252,5,0,0:0:0:0:
260,128,84508,1,0,0:0:0:0:
56,192,84765,2,0,P|120:284|188:296,1,140
352,236,85278,2,0,P|312:140|252:116,1,140
84,164,85791,5,0,0:0:0:0:
268,280,86047,1,0,0:0:0:0:
288,72,86303,1,0,0:0:0:0:
128,264,86560,1,0,0:0:0:0:
440,172,86816,1,0,0:0:0:0:
248,52,87073,2,0,P|168:136|148:204,1,140
248,296,87585,2,0,P|356:240|360:180,1,140
348,120,88098,5,0,0:0:0:0:
136,200,88355,1,0,0:0:0:0:
392,240,88611,1,0,0:0:0:0:
220,104,88867,1,0,0:0:0:0:
340,284,89124,1,0,0:0:0:0:
360,112,89380,1,0,0:0:0:0:
168,228,89637,1,0,0:0:0:0:
368,208,89893,6,0,P|292:136|196:112,1,140
160,80,90406,2,0,P|92:144|72:208,1,140
264,284,90919,2,0,P|248:192|196:160,1,140
104,248,91432,2,0,P|200:304|296:288,1,210
384,224,91944,1,0,0:0:0:0:
392,120,92201,5,0,0:0:0:0:
288,280,92457,1,0,0:0:0:0:
120,144,92714,1,0,0:0:0:0:
368,152,92970,1,0,0:0:0:0:
156,220,93226,1,0,0:0:0:0:
232,56,93483,1,0,0:0:0:0:
332,264,93739,1,0,0:0:0:0:
144,152,93996,2,0,P|264:112|336:108,1,140
428,232,94508,6,0,P|368:296|296:320,1,140
156,232,95021,2,0,P|200:140|260:108,1,140
464,152,95534,2,0,P|420:232|364:272,1,140
296,284,96047,5,0,0:0:0:0:
76,128,96303,1,0,0:0:0:0:
256,192,96560,12,0,99637,0:0:0:0:
256,192,99765,12,0,100662,0:0:0:0:
112,224,101175,6,0,P|156:156|184:144,1,105.000004005432
264,160,101688,1,0,0:0:0:0:
368,236,101944,1,0,0:0:0:0:
248,288,102201,2,0,L|180:268,1,52.5000020027161
164,264,102457,2,0,P|192:204|228:212,1,105.000004005432
208,304,102970,2,0,P|148:316|132:264,1,105.000004005432
32,252,103483,6,0,P|64:196|104:152,1,105.000004005432
168,116,103996,2,0,L|240:120,3,52.5000020027161
280,88,104508,6,0,P|316:132|320:184,1,105.000004005432
240,308,105278,6,0,P|340:288|420:188,1,210.000008010865
388,108,106047,2,0,L|460:100,2,52.5000020027161
304,48,106560,2,0,P|236:84|192:132,1,105.000004005432
156,52,107329,2,0,P|124:108|120:164,1,105.000004005432
24,240,107842,5,0,0:0:0:0:
212,152,108098,1,0,0:0:0:0:
160,284,108355,2,0,L|232:284,4,52.5000020027161
372,304,109380,6,0,P|408:248|360:224,1,105.000004005432
288,284,109893,2,0,P|356:288|352:256,1,105.000004005432
292,192,110406,2,0,P|296:244|344:252,1,105.000004005432
404,164,110919,6,0,P|344:108|276:92,1,105.000004005432
240,80,111432,2,0,L|240:24,2,52.5000020027161
132,84,111944,5,0,0:0:0:0:
88,240,112201,2,0,L|84:300,3,52.5000020027161
80,324,112714,1,0,0:0:0:0:
236,232,112970,2,0,B|224:196|144:152|144:152|200:124|244:132|260:112,1,210.000008010865
340,96,113739,5,0,0:0:0:0:
380,252,113996,1,0,0:0:0:0:
240,208,114252,2,0,L|176:216,4,52.5000020027161
164,120,115021,6,0,P|100:168|84:308,1,210.000008010865
168,312,115791,2,0,P|168:248|132:204,1,105.000004005432
44,180,116303,2,0,P|72:108|140:80,1,105.000004005432
128,176,116816,2,0,P|152:124|192:104,1,105.000004005432
416,88,117329,5,0,0:0:0:0:
408,208,117585,1,0,0:0:0:0:
344,264,117714,1,0,0:0:0:0:
256,272,117842,2,0,P|152:248|104:180,1,157.500006008148
156,172,118355,2,0,P|152:232|144:256,1,52.5000020027161
108,288,118611,1,0,0:0:0:0:
64,204,118739,1,0,0:0:0:0:
100,116,118867,1,0,0:0:0:0:
280,56,119124,5,0,0:0:0:0:
256,160,119380,2,0,L|220:200,1,52.5000020027161
128,224,119637,2,0,L|112:160,1,52.5000020027161
184,156,119893,2,0,L|200:216,2,52.5000020027161
304,88,120406,5,0,0:0:0:0:
384,140,120534,1,0,0:0:0:0:
384,236,120662,2,0,L|336:240,2,26.2500010013581
280,224,120919,5,0,0:0:0:0:
272,120,121047,1,0,0:0:0:0:
192,72,121175,2,0,P|168:80|216:172,1,157.500006008148
244,68,121688,2,0,P|184:104|240:216,1,210.000008010865
240,156,122714,5,0,0:0:0:0:
168,96,122842,2,0,P|104:72|68:56,1,105.000004005432
24,116,123226,2,0,L|24:300,2,157.500006008148
60,48,124252,6,0,P|136:52|152:56,1,52.5000020027161
184,100,124508,1,0,0:0:0:0:
264,140,124637,1,0,0:0:0:0:
316,204,124765,1,0,0:0:0:0:
224,216,124893,1,0,0:0:0:0:
128,172,125021,1,0,0:0:0:0:
204,124,125150,1,0,0:0:0:0:
296,96,125278,1,0,0:0:0:0:
424,88,125534,6,0,L|420:152,1,52.5000020027161
392,224,125791,1,0,0:0:0:0:
332,292,125919,1,0,0:0:0:0:
244,312,126047,2,0,P|164:292|124:272,1,105.000004005432
64,172,126560,2,0,P|136:216|144:216,1,52.5000020027161
184,224,126816,1,0,0:0:0:0:
276,232,126944,1,0,0:0:0:0:
364,212,127073,1,0,0:0:0:0:
412,352,127585,6,0,L|384:304,1,52.5000020027161
344,228,127842,1,0,0:0:0:0:
292,144,127970,1,0,0:0:0:0:
216,80,128098,1,0,0:0:0:0:
112,56,128226,2,0,B|76:48|48:44|40:56|24:104|44:112,1,105.000004005432
68,176,128611,5,0,0:0:0:0:
152,204,128739,1,0,0:0:0:0:
240,188,128867,1,0,0:0:0:0:
204,108,128996,1,0,0:0:0:0:
112,104,129124,2,0,P|96:128|84:152,1,52.5000020027161
80,260,129380,6,0,P|144:296|268:296,1,157.500006008148
312,284,129893,5,0,0:0:0:0:
392,180,130021,1,0,0:0:0:0:
260,208,130150,1,0,0:0:0:0:
384,256,130278,1,0,0:0:0:0:
316,152,130406,6,0,P|240:152|224:152,1,52.5000020027161
176,152,130662,1,0,0:0:0:0:
100,156,130791,1,0,0:0:0:0:
24,160,130919,1,0,0:0:0:0:
72,228,131047,1,0,0:0:0:0:
160,240,131175,1,0,0:0:0:0:
144,156,131303,1,0,0:0:0:0:
96,92,131432,1,0,0:0:0:0:
232,56,131944,5,0,0:0:0:0:
304,104,132073,1,0,0:0:0:0:
376,148,132201,1,0,0:0:0:0:
424,216,132329,1,0,0:0:0:0:
432,300,132457,1,0,0:0:0:0:
300,304,132714,5,0,0:0:0:0:
260,220,132842,1,0,0:0:0:0:
224,304,132970,1,0,0:0:0:0:
184,220,133098,1,0,0:0:0:0:
152,296,133226,1,0,0:0:0:0:
112,220,133355,1,0,0:0:0:0:
80,296,133483,1,0,0:0:0:0:
56,136,133739,6,0,B|112:112|112:112|160:136,2,105.000004005432
44,232,134508,5,0,0:0:0:0:
200,280,134765,1,0,0:0:0:0:
336,204,135021,1,0,0:0:0:0:
156,168,135278,5,0,0:0:0:0:
344,292,135534,1,0,0:0:0:0:
128,252,136047,6,0,L|344:228,1,210.000008010865
400,124,136944,5,0,0:0:0:0:
400,124,137073,1,0,0:0:0:0:
420,244,137329,1,0,0:0:0:0:
264,196,137585,1,0,0:0:0:0:
308,296,137842,1,0,0:0:0:0:
384,296,137970,1,0,0:0:0:0:
460,300,138098,1,0,0:0:0:0:
460,192,138355,6,0,P|384:140|380:96,1,105.000004005432
440,88,138867,1,0,0:0:0:0:
428,168,138996,1,0,0:0:0:0:
364,212,139124,1,0,0:0:0:0:
408,300,139380,5,0,0:0:0:0:
328,300,139508,1,0,0:0:0:0:
276,240,139637,1,0,0:0:0:0:
192,292,139893,5,0,0:0:0:0:
144,232,140021,1,0,0:0:0:0:
132,152,140150,1,0,0:0:0:0:
20,148,140406,6,0,P|44:88|104:64,1,105.000004005432
220,64,141047,2,0,L|288:76,1,52.5000020027161
392,64,141432,6,0,P|376:148|340:172,1,105.000004005432
264,176,141944,5,0,0:0:0:0:
192,208,142073,1,0,0:0:0:0:
124,248,142201,2,0,B|116:300|112:320|172:340|292:292,1,210.000008010865
336,256,142970,5,0,0:0:0:0:
304,180,143098,1,0,0:0:0:0:
240,128,143226,1,0,0:0:0:0:
196,232,143483,1,0,0:0:0:0:
92,312,143739,1,0,0:0:0:0:
176,328,143867,1,0,0:0:0:0:
256,304,143996,1,0,0:0:0:0:
292,152,144252,6,0,L|156:156,1,105.000004005432
40,240,144765,2,0,L|136:240,1,52.5000020027161
176,244,145021,2,0,L|244:244,2,52.5000020027161
72,244,145534,2,0,P|52:184|76:136,1,105.000004005432
140,116,146047,1,0,0:0:0:0:
216,96,146175,1,0,0:0:0:0:
280,140,146303,1,0,0:0:0:0:
296,260,146560,5,0,0:0:0:0:
184,192,146816,1,0,0:0:0:0:
344,152,147073,1,0,0:0:0:0:
276,200,147201,1,0,0:0:0:0:
208,248,147329,1,0,0:0:0:0:
112,288,147585,6,0,P|76:232|76:192,2,105.000004005432
240,308,148355,2,0,P|328:300|376:276,1,105.000004005432
432,252,148867,6,0,P|448:196|352:244,1,210.000008010865
332,304,149637,1,0,0:0:0:0:
416,280,149765,1,0,0:0:0:0:
432,192,149893,1,0,0:0:0:0:
344,76,150150,6,0,L|372:56,4,26.2500010013581
228,76,150662,2,0,L|156:112,1,52.5000020027161
256,152,150919,1,0,0:0:0:0:
168,196,151047,1,0,0:0:0:0:
280,232,151175,1,0,0:0:0:0:
200,276,151303,1,0,0:0:0:0:
280,316,151432,2,0,P|364:308|392:280,1,105.000004005432
440,224,151944,6,0,P|468:144|464:112,2,105.000004005432
340,288,152714,1,0,0:0:0:0:
208,288,152970,5,0,0:0:0:0:
124,232,153098,1,0,0:0:0:0:
224,204,153226,1,0,0:0:0:0:
152,152,153355,1,0,0:0:0:0:
244,116,153483,1,0,0:0:0:0:
392,120,153739,5,0,0:0:0:0:
380,200,153867,1,0,0:0:0:0:
364,280,153996,1,0,0:0:0:0:
220,296,154252,2,0,L|184:320,4,26.2500010013581
64,296,154765,6,0,L|76:224,1,52.5000020027161
88,160,155021,1,0,0:0:0:0:
124,84,155150,1,0,0:0:0:0:
164,160,155278,1,0,0:0:0:0:
204,84,155406,1,0,0:0:0:0:
248,156,155534,1,0,0:0:0:0:
380,76,155791,5,0,0:0:0:0:
392,248,156047,2,0,P|420:324|452:336,2,105.000004005432
392,148,156816,2,0,P|368:84|292:68,1,105.000004005432
188,72,157329,1,0,0:0:0:0:
116,96,157457,1,0,0:0:0:0:
64,148,157585,1,0,0:0:0:0:
196,200,157842,5,0,0:0:0:0:
76,60,158098,1,0,0:0:0:0:
40,192,158355,6,0,L|84:184,4,26.2500010013581
48,320,158867,2,0,L|124:304,1,52.5000020027161
184,284,159124,1,0,0:0:0:0:
236,208,159252,1,0,0:0:0:0:
268,292,159380,1,0,0:0:0:0:
316,212,159508,1,0,0:0:0:0:
352,296,159637,1,0,0:0:0:0:
456,212,159893,5,0,0:0:0:0:
444,128,160021,1,0,0:0:0:0:
404,56,160150,1,0,0:0:0:0:
300,72,160406,2,0,L|296:36,4,26.2500010013581
324,152,160919,5,0,0:0:0:0:
332,236,161047,1,0,0:0:0:0:
328,320,161175,1,0,0:0:0:0:
188,308,161432,5,0,0:0:0:0:
180,224,161560,1,0,0:0:0:0:
192,140,161688,1,0,0:0:0:0:
348,192,161944,5,0,0:0:0:0:
112,256,162201,1,0,0:0:0:0:
80,84,162457,2,0,L|48:80,5,26.2500010013581
296,80,162970,5,0,0:0:0:0:
168,260,163226,1,0,0:0:0:0:
144,112,163483,1,0,0:0:0:0:
312,284,163739,1,0,0:0:0:0:
240,316,163867,1,0,0:0:0:0:
168,284,163996,1,0,0:0:0:0:
92,312,164124,1,0,0:0:0:0:
24,268,164252,2,0,P|72:144|124:104,1,157.500006008148
160,88,164765,5,0,0:0:0:0:
240,144,164893,1,0,0:0:0:0:
312,88,165021,1,0,0:0:0:0:
376,160,165150,1,0,0:0:0:0:
464,120,165278,6,0,L|480:188,1,52.5000020027161
412,224,165534,2,0,L|424:296,1,52.5000020027161
328,280,165791,2,0,L|280:320,1,52.5000020027161
208,280,166047,1,0,0:0:0:0:
108,216,166175,5,0,0:0:0:0:
72,52,166303,1,0,0:0:0:0:
324,96,166688,5,0,0:0:0:0:
324,96,166816,1,0,0:0:0:0:
388,228,167073,2,0,P|312:248|260:248,2,105.000004005432
440,132,167842,5,0,0:0:0:0:
284,84,168098,1,0,0:0:0:0:
168,184,168355,1,0,0:0:0:0:
288,304,168739,1,0,0:0:0:0:
288,304,168867,6,0,P|288:220|196:112,1,210.000008010865
180,76,169893,5,0,0:0:0:0:
104,152,170406,5,0,0:0:0:0:
132,232,170534,1,0,0:0:0:0:
204,276,170662,1,0,0:0:0:0:
288,280,170791,1,0,0:0:0:0:
364,244,170919,1,0,0:0:0:0:
220,320,171432,5,0,0:0:0:0:
272,244,171560,1,0,0:0:0:0:
268,148,171688,1,0,0:0:0:0:
228,64,171816,1,0,0:0:0:0:
140,36,171944,1,0,0:0:0:0:
112,172,172201,5,0,0:0:0:0:
56,312,172457,1,0,0:0:0:0:
160,288,172585,1,0,0:0:0:0:
252,236,172713,1,0,0:0:0:0:
336,172,172842,1,0,0:0:0:0:
436,140,172970,1,0,0:0:0:0:
328,312,173226,1,0,0:0:0:0:
336,104,173483,6,0,L|372:88,4,26.2500010013581
192,108,173867,1,0,0:0:0:0:
144,232,173996,1,0,0:0:0:0:
272,312,174508,5,0,0:0:0:0:
220,72,174893,1,0,0:0:0:0:
220,72,175021,1,0,0:0:0:0:
88,136,175278,1,0,0:0:0:0:
108,272,175534,6,0,B|144:240|160:232|160:232|191:273|248:280|344:216,1,251.999992309571
272,300,176560,2,0,P|176:236|184:88,1,251.999992309571
360,104,177585,2,0,P|420:72|440:72,2,62.9999980773926
268,124,178098,2,0,P|184:128|40:36,1,251.999992309571
116,76,179124,6,0,P|196:68|352:164,1,251.999992309571
152,112,180150,2,0,P|272:120|376:208,1,251.999992309571
192,136,181175,2,0,P|292:152|408:252,1,251.999992309571
432,168,182201,2,0,P|356:216|236:248,1,188.999994232178
228,244,182714,6,0,B|176:240|144:220|116:140|200:72|292:140|272:200|272:200|304:112,1,377.999988464356
288,76,183611,1,0,0:0:0:0:
276,64,183739,2,0,B|208:88|152:164|52:132|52:132|88:224|240:280,1,440.999986541748
260,312,184765,6,0,P|364:224|396:144,1,186.666666666667
264,68,185278,1,0,0:0:0:0:
144,296,185534,1,0,0:0:0:0:
392,248,185791,1,0,0:0:0:0:
208,72,186047,5,0,0:0:0:0:
48,232,186303,2,0,P|180:276|280:276,1,186.666666666667
344,88,186816,2,0,P|240:64|144:76,1,186.666666666667
156,320,187329,2,0,P|284:264|332:200,1,186.666666666667
92,72,187842,2,0,P|100:200|136:256,1,186.666666666667
296,272,188355,5,0,0:0:0:0:
420,64,188611,1,0,0:0:0:0:
276,260,188867,2,0,P|136:308|60:304,1,186.666666666667
84,140,189380,1,0,0:0:0:0:
308,64,189637,2,0,P|344:160|336:268,2,186.666666666667
136,80,190406,5,0,0:0:0:0:
312,264,190662,1,0,0:0:0:0:
244,48,190919,2,0,P|152:132|104:208,1,186.666666666667
236,316,191432,2,0,P|336:264|368:200,1,186.666666666667
88,140,191944,2,0,P|160:224|248:252,1,186.666666666667
208,264,192457,6,0,P|232:168|160:276,1,373.333333333333
352,192,193226,1,0,0:0:0:0:
132,112,193483,1,0,0:0:0:0:
160,308,193739,1,0,0:0:0:0:
360,80,193996,1,0,0:0:0:0:
68,208,194252,1,0,0:0:0:0:
428,276,194508,1,0,0:0:0:0:
124,80,194765,5,0,0:0:0:0:
136,304,195021,2,0,P|264:272|368:216,1,186.666666666667
380,72,195534,2,0,P|292:160|208:208,1,186.666666666667
84,184,196047,2,0,P|184:144|256:88,1,186.666666666667
416,72,196560,2,0,P|464:192|288:340,1,373.333333333333
192,288,197329,5,0,0:0:0:0:
72,120,197585,1,0,0:0:0:0:
92,296,197842,5,0,0:0:0:0:
156,96,198098,2,0,P|256:76|256:176,1,186.666666666667
148,280,198611,2,0,P|232:340|336:280,1,186.666666666667
428,196,199124,5,0,0:0:0:0:
224,140,199380,1,0,0:0:0:0:
104,276,199637,1,0,0:0:0:0:
304,344,199893,1,0,0:0:0:0:
356,188,200150,6,0,B|328:96|232:80|116:144|152:252|264:296|376:272|312:120|228:48,1,466.666666666667
188,40,200919,5,0,0:0:0:0:
68,320,201175,2,0,P|196:276|272:192,1,186.666666666667
248,60,201688,2,0,P|184:152|164:256,2,186.666666666667
464,80,202457,1,0,0:0:0:0:
272,84,202714,2,0,P|156:88|56:140,1,186.666666666667
48,268,203226,6,0,P|168:272|284:244,1,186.666666666667
392,76,203739,2,0,P|284:96|212:156,1,186.666666666667
360,344,204252,2,0,P|344:212|296:172,1,186.666666666667
120,84,204765,5,0,0:0:0:0:
256,328,205021,1,0,0:0:0:0:
260,88,205278,1,0,0:0:0:0:
108,316,205534,1,0,0:0:0:0:
324,216,205791,1,0,0:0:0:0:
96,136,206047,1,0,0:0:0:0:
296,304,206303,2,0,P|408:252|448:160,1,186.666666666667
352,44,206816,6,0,P|296:160|220:192,1,186.666666666667
60,152,207329,2,0,P|184:112|252:72,1,186.666666666667
116,260,207842,2,0,P|232:232|320:156,1,186.666666666667
280,316,208355,2,0,P|384:256|432:184,1,186.666666666667
400,60,208867,5,0,0:0:0:0:
132,148,209124,1,0,0:0:0:0:
436,284,209380,1,0,0:0:0:0:
288,84,209637,1,0,0:0:0:0:
184,296,209893,1,0,0:0:0:0:
376,184,210150,1,0,0:0:0:0:
168,72,210406,2,0,P|72:176|52:256,1,186.666666666667
308,284,210919,1,0,0:0:0:0:
100,180,211175,1,0,0:0:0:0:
280,300,211432,6,0,P|380:244|408:168,1,186.666666666667
192,52,211944,2,0,P|256:152|340:172,1,186.666666666667
456,76,212457,2,0,P|368:116|296:184,1,186.666666666667
232,208,212970,5,0,0:0:0:0:
108,248,213226,1,0,0:0:0:0:
128,120,213483,2,0,B|184:88|256:152|296:164|296:192|312:220|500:176,1,373.333333333333
440,72,214508,6,0,B|384:84|368:88|351:147|328:192|380:280|380:280|324:280|272:256|281:216,1,373.333333333333
156,296,215534,6,0,B|232:248|184:176|184:176|240:140|288:152|312:172|312:172|312:224|276:256|252:212,2,373.333333333333
134,132,216816,5,0,0:0:0:0:
315,70,217073,1,0,0:0:0:0:
377,251,217329,1,0,0:0:0:0:
196,313,217585,1,0,0:0:0:0:
112,292,225791,5,0,0:0:0:0:
184,260,225919,1,0,0:0:0:0:
244,208,226047,1,0,0:0:0:0:
132,164,226303,2,0,L|148:228,1,52.5000020027161
208,264,226560,5,0,0:0:0:0:
288,264,226688,1,0,0:0:0:0:
340,208,226816,1,0,0:0:0:0:
308,136,226944,1,0,0:0:0:0:
228,132,227073,1,0,0:0:0:0:
180,196,227201,1,0,0:0:0:0:
192,272,227329,5,0,0:0:0:0:
152,76,227585,1,0,0:0:0:0:
48,196,227842,5,0,0:0:0:0:
116,156,227970,1,0,0:0:0:0:
188,128,228098,1,0,0:0:0:0:
368,116,228355,1,0,0:0:0:0:
364,276,228611,5,0,0:0:0:0:
320,212,228739,1,0,0:0:0:0:
284,144,228867,1,0,0:0:0:0:
224,192,228996,1,0,0:0:0:0:
180,256,229124,1,0,0:0:0:0:
256,276,229252,1,0,0:0:0:0:
332,288,229380,1,0,0:0:0:0:
280,132,229637,1,0,0:0:0:0:
208,312,229893,5,0,0:0:0:0:
276,276,230021,1,0,0:0:0:0:
324,212,230150,1,0,0:0:0:0:
396,72,230406,1,0,0:0:0:0:
260,72,230662,5,0,0:0:0:0:
184,96,230791,1,0,0:0:0:0:
120,148,230919,1,0,0:0:0:0:
184,208,231047,1,0,0:0:0:0:
272,232,231175,1,0,0:0:0:0:
368,200,231303,1,0,0:0:0:0:
432,120,231432,6,0,L|420:224,1,105.000004005432
248,308,231944,5,0,0:0:0:0:
212,228,232073,1,0,0:0:0:0:
200,136,232201,1,0,0:0:0:0:
344,204,232457,1,0,0:0:0:0:
348,296,232714,5,0,0:0:0:0:
296,224,232842,1,0,0:0:0:0:
296,136,232970,1,0,0:0:0:0:
336,56,233098,1,0,0:0:0:0:
356,144,233226,1,0,0:0:0:0:
300,216,233355,1,0,0:0:0:0:
212,232,233483,1,0,0:0:0:0:
56,208,233739,6,0,L|56:260,2,52.5000020027161
100,132,234124,1,0,0:0:0:0:
184,104,234252,1,0,0:0:0:0:
428,124,234508,1,0,0:0:0:0:
376,304,234765,5,0,0:0:0:0:
288,268,234893,1,0,0:0:0:0:
220,204,235021,1,0,0:0:0:0:
200,112,235150,1,0,0:0:0:0:
292,84,235278,1,0,0:0:0:0:
372,116,235406,1,0,0:0:0:0:
436,196,235534,2,0,P|452:228|456:304,1,105.000004005432
376,316,236047,5,0,0:0:0:0:
352,236,236175,1,0,0:0:0:0:
312,160,236303,1,0,0:0:0:0:
284,304,236560,1,0,0:0:0:0:
448,300,236816,5,0,0:0:0:0:
424,208,236944,1,0,0:0:0:0:
368,132,237073,1,0,0:0:0:0:
292,76,237201,1,0,0:0:0:0:
204,48,237329,1,0,0:0:0:0:
108,44,237457,1,0,0:0:0:0:
32,100,237585,5,0,0:0:0:0:
64,244,237842,1,0,0:0:0:0:
232,296,238098,5,0,0:0:0:0:
224,200,238226,1,0,0:0:0:0:
144,260,238355,1,0,0:0:0:0:
332,232,238611,1,0,0:0:0:0:
336,64,238867,6,0,L|284:88,1,52.5000020027161
328,152,239124,2,0,L|388:120,3,52.5000020027161
216,92,239637,5,0,0:0:0:0:
232,272,239893,1,0,0:0:0:0:
416,280,240150,5,0,0:0:0:0:
416,196,240278,1,0,0:0:0:0:
416,112,240406,1,0,0:0:0:0:
256,64,240662,1,0,0:0:0:0:
268,104,241175,5,0,0:0:0:0:
292,280,241303,1,0,0:0:0:0:
180,160,241432,1,0,0:0:0:0:
348,188,241560,1,0,0:0:0:0:
200,252,241688,1,0,0:0:0:0:
56,76,241944,5,0,0:0:0:0:
140,64,242073,1,0,0:0:0:0:
220,80,242201,2,0,L|308:84,1,52.5000020027161
356,92,242457,1,0,0:0:0:0:
392,256,242714,1,0,0:0:0:0:
448,160,242970,5,0,0:0:0:0:
372,192,243098,1,0,0:0:0:0:
292,216,243226,1,0,0:0:0:0:
208,236,243355,1,0,0:0:0:0:
124,248,243483,1,0,0:0:0:0:
44,224,243611,1,0,0:0:0:0:
64,120,243739,5,0,0:0:0:0:
252,148,243996,1,0,0:0:0:0:
76,328,244252,5,0,0:0:0:0:
68,244,244380,1,0,0:0:0:0:
104,168,244508,2,0,L|152:132,1,52.5000020027161
228,116,244765,1,0,0:0:0:0:
360,56,245021,5,0,0:0:0:0:
352,140,245150,1,0,0:0:0:0:
308,212,245278,1,0,0:0:0:0:
240,260,245406,1,0,0:0:0:0:
164,220,245534,1,0,0:0:0:0:
146,136,245662,1,0,0:0:0:0:
184,60,245791,5,0,0:0:0:0:
392,256,246047,1,0,0:0:0:0:
280,164,246303,5,0,0:0:0:0:
344,108,246432,1,0,0:0:0:0:
424,80,246560,1,0,0:0:0:0:
396,256,246816,1,0,0:0:0:0:
208,156,247073,5,0,0:0:0:0:
264,96,247201,1,0,0:0:0:0:
344,68,247329,1,0,0:0:0:0:
424,80,247457,1,0,0:0:0:0:
420,164,247585,1,0,0:0:0:0:
356,220,247714,1,0,0:0:0:0:
272,232,247842,5,0,0:0:0:0:
132,140,248098,1,0,0:0:0:0:
256,56,248355,6,0,P|308:124|312:176,1,105.000004005432
144,224,248867,2,0,P|104:160|112:108,1,105.000004005432
248,68,249380,2,0,L|276:96,4,26.2500010013581
272,232,249765,5,0,0:0:0:0:
88,160,249893,1,0,0:0:0:0:
408,88,250406,6,0,P|344:164|332:296,2,210.000008010865
456,196,251816,1,0,0:0:0:0:
456,196,251944,1,0,0:0:0:0:
412,304,252201,5,0,0:0:0:0:
288,292,252457,2,0,P|196:264|72:292,2,210.000008010865
432,280,253867,1,0,0:0:0:0:
432,280,253996,1,0,0:0:0:0:
416,164,254252,5,0,0:0:0:0:
184,136,254508,1,0,0:0:0:0:
316,296,254765,1,0,0:0:0:0:
328,112,255021,1,0,0:0:0:0:
168,248,255278,1,0,0:0:0:0:
420,224,255534,1,0,0:0:0:0:
144,96,255791,1,0,0:0:0:0:
192,304,256047,2,0,P|264:256|280:220,1,105.000004005432
272,80,256560,5,0,0:0:0:0:
144,280,256816,1,0,0:0:0:0:
144,88,257073,1,0,0:0:0:0:
280,260,257329,1,0,0:0:0:0:
224,304,257585,6,0,B|260:296|344:264|376:184|368:148|368:148|320:128|300:128|300:128|280:152|296:196,1,367.500014019013
264,208,258611,6,0,B|232:212|192:160|192:160|224:232|197:261|197:261|226:314|316:304,1,315.000012016297
348,296,259508,1,0,0:0:0:0:
400,288,259637,2,0,B|444:228|468:160|412:80|412:80|328:160|208:152,1,420.000016021729
128,96,260919,5,0,0:0:0:0:
112,192,261175,1,0,0:0:0:0:
92,284,261432,2,0,L|48:344,2,70
192,276,262201,5,0,0:0:0:0:
304,280,262457,1,0,0:0:0:0:
308,176,262714,2,0,P|288:152|192:184,3,140
132,244,264765,5,0,0:0:0:0:
72,164,265021,1,0,0:0:0:0:
164,128,265278,1,0,0:0:0:0:
216,208,265534,1,0,0:0:0:0:
280,136,265791,1,0,0:0:0:0:
332,216,266047,1,0,0:0:0:0:
252,288,266303,1,0,0:0:0:0:
196,196,266560,1,0,0:0:0:0:
280,120,266816,2,0,B|328:136|348:244|396:272,3,181.999991668702
356,308,268867,5,0,0:0:0:0:
380,160,269124,1,0,0:0:0:0:
456,304,269380,1,0,0:0:0:0:
288,208,269637,1,0,0:0:0:0:
472,188,269893,2,0,P|436:116|312:68,1,181.999991668702
272,68,270662,5,0,0:0:0:0:
168,68,270919,2,0,P|112:92|60:200,1,181.999991668702
80,280,271688,5,0,0:0:0:0:
120,292,271816,1,0,0:0:0:0:
164,296,271944,1,0,0:0:0:0:
248,216,272201,1,0,0:0:0:0:
284,192,272329,1,0,0:0:0:0:
328,172,272457,1,0,0:0:0:0:
420,264,272714,5,0,0:0:0:0:
264,80,272970,2,0,P|220:104|196:152,1,90.9999958343508
292,296,273483,6,0,P|204:328|88:292,2,181.999991668702
364,216,275021,5,0,0:0:0:0:
380,88,275278,2,0,P|424:76|432:68,2,45.4999979171754
272,56,275791,1,0,0:0:0:0:
244,64,275919,1,0,0:0:0:0:
216,76,276047,6,0,P|160:164|280:312,1,315.000012016297
408,268,277073,6,0,P|336:132|280:92,1,208.955223880597
96,108,277585,1,0,0:0:0:0:
376,96,277842,1,0,0:0:0:0:
88,120,278098,2,0,P|120:248|184:324,1,208.955223880597
336,312,278611,5,0,0:0:0:0:
252,84,278867,1,0,0:0:0:0:
236,316,279124,2,0,P|288:168|292:100,1,208.955223880597
92,52,279637,2,0,P|136:168|248:224,1,208.955223880597
432,96,280150,2,0,P|324:96|216:184,1,208.955223880597
44,288,280662,6,0,B|56:289|56:289|56:280|56:280|60:288|60:288|60:280|60:280|64:288|64:288|64:280|64:280|68:288|68:288|68:280|68:280|72:288|72:288|72:280|72:280|76:288|76:288|76:280|76:280|80:288|80:288|80:280|80:280|84:288|84:288|84:280|84:280|88:288|88:288|88:280|88:280|92:288|92:288|92:280|92:280|96:288|96:288|96:280|96:280|100:288|100:288|100:280|100:280|104:288|104:288|157:290|168:288|176:284|176:284|192:272|192:272,1,208.955223880597
248,288,281175,5,0,0:0:0:0:
400,88,281432,1,0,0:0:0:0:
328,316,281688,1,0,0:0:0:0:
84,176,281944,1,0,0:0:0:0:
336,88,282201,1,0,0:0:0:0:
408,280,282457,1,0,0:0:0:0:
176,304,282714,2,0,P|108:200|128:96,1,208.955223880597
324,72,283226,6,0,P|392:172|376:300,1,208.955223880597
212,292,283739,2,0,P|96:232|64:132,2,208.955223880597
400,288,284508,5,0,0:0:0:0:
396,48,284765,1,0,0:0:0:0:
340,288,285021,1,0,0:0:0:0:
348,48,285278,6,0,P|208:60|100:100,1,208.955223880597
88,336,285791,1,0,0:0:0:0:
120,88,286047,1,0,0:0:0:0:
256,332,286303,2,0,P|380:256|400:168,1,208.955223880597
384,56,286816,5,0,0:0:0:0:
128,244,287073,1,0,0:0:0:0:
424,272,287329,2,0,P|360:168|280:112,1,208.955223880597
72,92,287842,2,0,P|88:212|160:292,1,208.955223880597
368,328,288355,2,0,P|360:192|312:112,1,208.955223880597
248,52,288867,5,0,0:0:0:0:
80,284,289124,1,0,0:0:0:0:
256,192,289380,12,0,292457,0:0:0:0:
252,296,292714,6,0,L|332:264,1,70
396,232,292970,1,0,0:0:0:0:
420,152,293098,1,0,0:0:0:0:
380,80,293226,1,0,0:0:0:0:
296,64,293355,1,0,0:0:0:0:
236,120,293483,2,0,P|256:216|124:320,1,280
64,176,294508,6,0,L|84:136,4,35
200,80,295021,6,0,P|284:64|368:80,1,140
352,132,295406,1,0,0:0:0:0:
352,200,295534,2,0,B|264:232|160:216|36:284,1,280
88,300,296560,5,0,0:0:0:0:
352,232,296816,1,0,0:0:0:0:
144,96,297073,1,0,0:0:0:0:
232,312,297329,1,0,0:0:0:0:
264,304,297457,1,0,0:0:0:0:
300,296,297585,2,0,B|378:274|378:274|432:224|432:168|432:168|396:120|404:88,1,280
344,68,298611,6,0,L|172:72,2,140
436,64,299380,1,0,0:0:0:0:
436,88,299508,2,0,P|420:184|420:192,1,70
376,320,300150,6,0,P|280:276|88:312,1,280
72,96,300919,1,0,0:0:0:0:
272,76,301175,2,0,L|320:68,4,35
116,64,301688,6,0,P|136:184|288:316,1,280
360,272,302714,6,0,L|368:316,4,35
456,224,303226,2,0,P|420:136|400:116,1,70
400,124,303483,1,0,0:0:0:0:
360,96,303611,2,0,P|284:80|260:84,1,70
192,48,303996,6,0,P|176:140|216:204,1,140
312,320,304765,6,0,P|384:292|456:312,2,140
204,304,305534,1,0,0:0:0:0:
184,304,305662,1,0,0:0:0:0:
156,296,305791,2,0,B|120:208|132:164|132:164|192:144|280:184,3,280
256,192,307585,12,0,309893,0:0:0:0:
