osu file format v14

[General]
AudioFilename: audio.mp3
AudioLeadIn: 0
PreviewTime: 31148
Countdown: 0
SampleSet: Soft
StackLeniency: 0.7
Mode: 3
LetterboxInBreaks: 0
SpecialStyle: 0
WidescreenStoryboard: 1

[Editor]
Bookmarks: 451,6032,17195,25567,28357,31148,42310,53473,56264,60263,63263,65930,68927,77299,81136,92298,103461,111833,116717
DistanceSpacing: 0.9
BeatDivisor: 4
GridSize: 4
TimelineZoom: 2.699999

[Metadata]
Title:TONDEMO-WONDERZ
TitleUnicode:トンデモワンダーズ
Artist:Wonderlands x Showtime x KAITO
ArtistUnicode:ワンダーランズ×ショウタイム × KAITO
Creator:chocomilku-
Version:NORMAL LV.15
Source:プロジェクトセカイ カラフルステージ! feat. 初音ミク
Tags:sasakure.UK Project SEKAI COLORFUL STAGE! rhythm mobile game vocaloid Hatsune Miku ProSekai Pjsekai Psekai Purosekai プロセカ SEGA Craft Egg Palette Wonders Outrageous Unthinkable Wonder Magical Showtime! cover vocal japanese pop jpop j-pop video commissioned song game size short ver version 鳳えむ Otori Emu 木野 日菜 Kino Hina 草薙寧々 Kusanagi Nene 齊藤 真知子 Saitou Machiko Machico 神代類 Kamishiro Rui 土岐 隼一 Toki Shunichi 天馬司 Tenma Tsukasa 廣瀬 大介 Hirose Daisuke カイト 風雅 なおと Fuuga Naoto ワンダショ Wondershow WxS バーチャル・シンガー Virtual Singer ボーカロイド ボカロ
BeatmapID:3624097
BeatmapSetID:1680354

[Difficulty]
HPDrainRate:6.5
CircleSize:4
OverallDifficulty:7
ApproachRate:5
SliderMultiplier:1.6
SliderTickRate:1

[Events]
//Background and Video events
0,0,"bg-normal.jpg",0,0
//Break Periods
//Storyboard Layer 0 (Background)
//Storyboard Layer 1 (Fail)
//Storyboard Layer 2 (Pass)
//Storyboard Layer 3 (Foreground)
//Storyboard Layer 4 (Overlay)
//Storyboard Sound Samples
Sample,5334,0,"drum-hitwhistle.wav",50
Sample,5567,0,"drum-hitwhistle.wav",50
Sample,5799,0,"drum-hitwhistle.wav",50
Sample,25218,0,"LR_Drum EDge.wav",70
Sample,25567,0,"soft-hitfinish.wav",50
Sample,25916,0,"LR_Drum EDge.wav",70
Sample,26613,0,"LR_Drum EDge.wav",70
Sample,27311,0,"LR_Drum EDge.wav",70
Sample,28009,0,"LR_Drum EDge.wav",70
Sample,32020,0,"drum-hitwhistle.wav",50
Sample,33416,0,"drum-hitwhistle.wav",50
Sample,34811,0,"drum-hitwhistle.wav",50
Sample,35857,0,"drum-hitwhistle.wav",50
Sample,36206,0,"drum-hitwhistle.wav",50
Sample,37602,0,"drum-hitwhistle.wav",50
Sample,38997,0,"drum-hitwhistle.wav",50
Sample,40392,0,"drum-hitwhistle.wav",50
Sample,43183,0,"drum-hitwhistle.wav",50
Sample,44578,0,"drum-hitwhistle.wav",50
Sample,45974,0,"drum-hitwhistle.wav",50
Sample,47020,0,"drum-hitwhistle.wav",50
Sample,47369,0,"drum-hitwhistle.wav",50
Sample,48764,0,"drum-hitwhistle.wav",50
Sample,50160,0,"drum-hitwhistle.wav",50
Sample,51555,0,"drum-hitwhistle.wav",50
Sample,52253,0,"drum-hitwhistle.wav",50
Sample,63263,0,"drum-hitwhistle.wav",50
Sample,63485,0,"drum-hitwhistle.wav",50
Sample,63707,0,"drum-hitwhistle.wav",50
Sample,63929,0,"drum-hitwhistle.wav",50
Sample,64151,0,"drum-hitwhistle.wav",50
Sample,64374,0,"drum-hitwhistle.wav",50
Sample,64596,0,"drum-hitwhistle.wav",50
Sample,64818,0,"drum-hitwhistle.wav",50
Sample,65040,0,"drum-hitwhistle.wav",50
Sample,65263,0,"drum-hitwhistle.wav",50
Sample,65485,0,"drum-hitwhistle.wav",50
Sample,65707,0,"drum-hitwhistle.wav",50
Sample,82008,0,"drum-hitwhistle.wav",50
Sample,83403,0,"drum-hitwhistle.wav",50
Sample,84798,0,"drum-hitwhistle.wav",50
Sample,85845,0,"drum-hitwhistle.wav",50
Sample,86194,0,"drum-hitwhistle.wav",50
Sample,87589,0,"drum-hitwhistle.wav",50
Sample,88984,0,"drum-hitwhistle.wav",50
Sample,90380,0,"drum-hitwhistle.wav",50
Sample,93170,0,"drum-hitwhistle.wav",50
Sample,94566,0,"drum-hitwhistle.wav",50
Sample,95961,0,"drum-hitwhistle.wav",50
Sample,97008,0,"drum-hitwhistle.wav",50
Sample,97356,0,"drum-hitwhistle.wav",50
Sample,98752,0,"drum-hitwhistle.wav",50
Sample,100147,0,"drum-hitwhistle.wav",50
Sample,101542,0,"drum-hitwhistle.wav",50
Sample,102240,0,"drum-hitwhistle.wav",50
Sample,116717,0,"drum-hitwhistle.wav",50
Sample,116939,0,"drum-hitwhistle.wav",50
Sample,117161,0,"drum-hitwhistle.wav",50
Sample,117383,0,"drum-hitwhistle.wav",50
Sample,117605,0,"drum-hitwhistle.wav",50
Sample,117828,0,"drum-hitwhistle.wav",50
Sample,118050,0,"drum-hitwhistle.wav",50
Sample,118272,0,"drum-hitwhistle.wav",50
Sample,118494,0,"drum-hitwhistle.wav",50
Sample,118717,0,"drum-hitwhistle.wav",50
Sample,118939,0,"drum-hitwhistle.wav",50
Sample,119161,0,"drum-hitwhistle.wav",50

[TimingPoints]
451,348.837209302326,4,2,1,50,1,0
31148,348.837209302326,4,2,1,50,1,1
56264,333.333333333333,3,2,1,50,1,0
56264,-104.166666666667,3,2,1,50,0,0
63263,222.222222222222,3,2,1,50,1,0
63263,-156.25,3,2,1,50,0,0
65930,333.333333333333,4,2,1,50,1,0
65930,-104.166666666667,4,2,1,50,0,0
66263,352.941176470588,4,2,1,50,1,8
66263,-99.009900990099,4,2,1,50,0,0
66439,428.571428571429,4,2,1,50,1,8
66439,-81.3008130081301,4,2,1,50,0,0
67296,545.454545454546,4,2,1,50,1,0
67296,-64.1025641025641,4,2,1,50,0,0
67568,705.882352941176,4,2,1,50,1,8
67568,-49.5049504950495,4,2,1,50,0,0
67920,857.142857142857,4,2,1,50,1,8
67920,-40.650406504065,4,2,1,50,0,0
68777,300,4,2,1,50,1,8
68777,-116.279069767442,4,2,1,50,0,0
68927,348.837209302326,4,2,1,50,1,0
81136,348.837209302326,4,2,1,50,1,1
111833,348.837209302326,4,2,1,50,1,0
116717,222.222222222222,3,2,1,50,1,0
116717,-156.985871271586,3,2,1,50,0,0

[HitObjects]
448,192,451,5,4,0:2:0:0:
64,192,451,1,8,0:3:0:0:
320,192,625,1,0,0:0:0:0:
64,192,799,1,0,0:0:0:0:
192,192,974,1,0,0:0:0:0:
320,192,1148,1,0,0:0:0:0:
448,192,1323,1,2,0:3:0:0:
64,192,1323,1,8,0:3:0:0:
448,192,1671,1,8,0:3:0:0:
64,192,1671,1,2,0:3:0:0:
192,192,2020,1,0,0:0:0:0:
320,192,2195,1,0,0:0:0:0:
448,192,2369,1,8,0:3:0:0:
64,192,2369,1,2,0:3:0:0:
320,192,2544,1,0,0:0:0:0:
192,192,2718,1,0,0:0:0:0:
64,192,2892,1,0,0:0:0:0:
448,192,3067,1,2,0:3:0:0:
64,192,3067,128,8,3241:0:3:0:0:
192,192,3416,1,0,0:0:0:0:
320,192,3590,1,0,0:0:0:0:
448,192,3764,128,2,3939:0:3:0:0:
64,192,3764,1,8,0:3:0:0:
320,192,4113,1,0,0:0:0:0:
192,192,4288,1,8,0:3:0:0:
64,192,4288,128,2,4462:0:3:0:0:
192,192,4637,1,0,0:0:0:0:
448,192,4811,128,2,4985:0:3:0:0:
320,192,4811,1,8,0:3:0:0:
320,192,5160,1,0,0:0:0:0:
192,192,5334,1,8,0:3:0:0:
64,192,5334,1,4,0:2:0:0:
448,192,5567,1,8,0:3:0:0:
320,192,5567,1,4,0:2:0:0:
192,192,5799,1,8,0:3:0:0:
64,192,5799,1,4,0:2:0:0:
448,192,6032,1,2,0:2:0:0:
64,192,6032,1,4,0:2:0:0:
320,192,6206,1,8,0:2:0:0:
192,192,6381,1,0,0:0:0:0:
64,192,6381,1,2,0:2:0:0:
320,192,6555,1,8,0:2:0:0:
64,192,6730,1,10,0:2:0:0:
192,192,6904,1,8,0:2:0:0:
448,192,7078,1,0,0:0:0:0:
320,192,7078,1,2,0:2:0:0:
448,192,7427,1,0,0:0:0:0:
64,192,7427,1,2,0:2:0:0:
192,192,7602,1,8,0:2:0:0:
448,192,7776,1,0,0:0:0:0:
320,192,7776,1,2,0:2:0:0:
192,192,7951,1,8,0:2:0:0:
64,192,8125,1,10,0:2:0:0:
320,192,8299,1,8,0:2:0:0:
192,192,8474,1,0,0:0:0:0:
64,192,8474,1,2,0:2:0:0:
448,192,8823,1,0,0:0:0:0:
64,192,8823,1,2,0:2:0:0:
192,192,8997,1,8,0:2:0:0:
448,192,9171,1,0,0:0:0:0:
320,192,9171,1,2,0:2:0:0:
192,192,9346,1,8,0:2:0:0:
448,192,9520,1,10,0:2:0:0:
320,192,9695,1,8,0:2:0:0:
192,192,9869,1,0,0:0:0:0:
64,192,9869,1,2,0:2:0:0:
448,192,10218,1,0,0:0:0:0:
64,192,10218,1,2,0:2:0:0:
320,192,10392,1,8,0:2:0:0:
192,192,10567,1,0,0:0:0:0:
64,192,10567,1,2,0:2:0:0:
320,192,10741,1,8,0:2:0:0:
64,192,10916,1,10,0:2:0:0:
192,192,11090,1,8,0:2:0:0:
448,192,11264,1,0,0:0:0:0:
320,192,11264,1,2,0:2:0:0:
448,192,11613,1,0,0:0:0:0:
64,192,11613,1,2,0:2:0:0:
192,192,11788,1,8,0:2:0:0:
320,192,11962,1,0,0:0:0:0:
64,192,11962,1,2,0:2:0:0:
448,192,12137,1,8,0:2:0:0:
320,192,12311,1,10,0:2:0:0:
192,192,12485,1,8,0:2:0:0:
448,192,12660,1,0,0:0:0:0:
320,192,12660,1,2,0:2:0:0:
448,192,13009,1,0,0:0:0:0:
64,192,13009,1,2,0:2:0:0:
320,192,13183,1,8,0:2:0:0:
448,192,13357,1,0,0:0:0:0:
192,192,13357,1,2,0:2:0:0:
64,192,13532,1,8,0:2:0:0:
192,192,13706,1,10,0:2:0:0:
320,192,13881,1,8,0:2:0:0:
192,192,14055,1,0,0:0:0:0:
64,192,14055,1,2,0:2:0:0:
448,192,14404,1,0,0:0:0:0:
64,192,14404,1,2,0:2:0:0:
320,192,14578,1,8,0:2:0:0:
448,192,14753,1,0,0:0:0:0:
192,192,14753,1,2,0:2:0:0:
64,192,14927,1,8,0:2:0:0:
448,192,15102,1,10,0:2:0:0:
320,192,15276,1,8,0:2:0:0:
192,192,15451,1,0,0:0:0:0:
64,192,15451,1,2,0:2:0:0:
448,192,15799,1,0,0:0:0:0:
64,192,15799,1,2,0:2:0:0:
192,192,15974,1,8,0:2:0:0:
320,192,16148,1,0,0:0:0:0:
64,192,16148,1,2,0:2:0:0:
448,192,16323,1,8,0:2:0:0:
192,192,16497,1,2,0:2:0:0:
64,192,16497,128,8,16846:0:2:0:0:
448,192,16846,128,0,17195:0:0:0:0:
320,192,16846,1,2,0:2:0:0:
64,192,17195,128,2,17369:0:2:0:0:
192,192,17195,1,2,0:3:0:0:
448,192,17369,128,0,17544:0:0:0:0:
448,192,17892,128,0,18067:0:0:0:0:
64,192,18067,128,0,18241:0:0:0:0:
192,192,18590,128,0,18764:0:0:0:0:
320,192,18764,128,0,18939:0:0:0:0:
320,192,19288,128,0,19462:0:0:0:0:
192,192,19462,128,0,19637:0:0:0:0:
320,192,19985,128,0,20160:0:0:0:0:
64,192,20160,128,0,20334:0:0:0:0:
192,192,20683,128,0,20857:0:0:0:0:
448,192,20857,128,0,21032:0:0:0:0:
448,192,21381,1,2,0:3:0:0:
320,192,21381,1,6,0:2:0:0:
192,192,21730,1,2,0:3:0:0:
64,192,21730,1,4,0:2:0:0:
448,192,22078,1,2,0:3:0:0:
320,192,22078,1,4,0:2:0:0:
192,192,22427,1,2,0:3:0:0:
64,192,22427,1,4,0:2:0:0:
448,192,22776,128,2,22951:0:2:0:0:
320,192,22776,1,2,0:3:0:0:
64,192,22951,128,0,23125:0:0:0:0:
64,192,23474,128,0,23648:0:0:0:0:
448,192,23648,128,0,23823:0:0:0:0:
320,192,24171,128,0,24346:0:0:0:0:
192,192,24346,128,0,24520:0:0:0:0:
192,192,24869,128,0,25044:0:0:0:0:
320,192,25044,128,0,25218:0:0:0:0:
448,192,25218,128,2,25567:0:3:0:0:
192,192,25567,1,2,0:2:0:0:
64,192,25567,1,0,0:0:0:70:LR_Drum EDge.wav
320,192,25741,1,0,0:0:0:70:LR_Drum EDge.wav
448,192,25916,1,2,0:2:0:0:
192,192,26090,1,0,0:0:0:70:LR_Drum EDge.wav
64,192,26264,1,0,0:0:0:70:LR_Drum EDge.wav
448,192,26439,1,0,0:0:0:70:LR_Drum EDge.wav
320,192,26613,1,2,0:2:0:0:
64,192,26788,1,0,0:0:0:70:LR_Drum EDge.wav
192,192,26962,1,0,0:0:0:70:LR_Drum EDge.wav
448,192,27137,1,0,0:0:0:70:LR_Drum EDge.wav
320,192,27311,1,2,0:2:0:0:
192,192,27485,1,0,0:0:0:70:LR_Drum EDge.wav
64,192,27660,1,0,0:0:0:70:LR_Drum EDge.wav
320,192,27834,1,0,0:0:0:70:LR_Drum EDge.wav
448,192,28009,1,2,0:2:0:0:
64,192,28183,1,0,0:0:0:70:LR_Drum EDge.wav
192,192,28357,128,0,28706:0:0:0:70:LR_Drum EDge.wav
448,192,28706,128,2,29055:0:2:0:0:
64,192,29055,128,2,29404:0:2:0:0:
320,192,29404,128,2,29753:0:2:0:0:
192,192,29753,128,2,30451:0:2:0:0:
448,192,30102,128,2,30451:0:2:0:0:
64,192,30451,128,0,30799:0:0:0:70:LR_Drum EDge.wav
320,192,30799,1,2,0:3:0:0:
448,192,31148,1,2,0:2:0:0:
64,192,31148,1,4,0:2:0:0:
192,192,31322,1,2,0:3:0:0:
448,192,31496,1,0,0:0:0:0:
320,192,31496,1,2,0:2:0:0:
192,192,31671,1,2,0:3:0:0:
448,192,31845,1,0,0:0:0:0:
64,192,31845,1,2,0:2:0:0:
320,192,32020,1,8,0:2:0:0:
192,192,32194,1,0,0:0:0:0:
64,192,32194,1,2,0:2:0:0:
64,192,32368,128,2,32717:0:3:0:0:
448,192,32543,1,2,0:2:0:0:
192,192,32717,1,2,0:3:0:0:
448,192,32892,1,0,0:0:0:0:
320,192,32892,1,2,0:2:0:0:
448,192,33066,128,2,33415:0:3:0:0:
64,192,33241,1,2,0:2:0:0:
320,192,33415,1,8,0:2:0:0:
192,192,33589,1,0,0:0:0:0:
64,192,33589,1,2,0:2:0:0:
320,192,33764,1,2,0:3:0:0:
448,192,33938,1,0,0:0:0:0:
64,192,33938,1,2,0:2:0:0:
192,192,34113,1,2,0:3:0:0:
448,192,34287,1,0,0:0:0:0:
64,192,34287,1,2,0:2:0:0:
320,192,34461,1,2,0:3:0:0:
192,192,34636,1,0,0:0:0:0:
64,192,34636,1,2,0:2:0:0:
192,192,34810,1,8,0:2:0:0:
448,192,34985,1,0,0:0:0:0:
320,192,34985,1,2,0:2:0:0:
320,192,35159,1,2,0:3:0:0:
192,192,35334,1,0,0:0:0:0:
64,192,35334,1,2,0:2:0:0:
448,192,35508,1,2,0:3:0:0:
320,192,35682,1,0,0:0:0:0:
192,192,35682,1,2,0:2:0:0:
64,192,35857,1,8,0:2:0:0:
448,192,36031,1,8,0:2:0:0:
320,192,36031,1,2,0:2:0:0:
192,192,36206,128,8,36554:0:2:0:0:
448,192,36380,1,2,0:2:0:0:
320,192,36554,1,2,0:3:0:0:
448,192,36729,1,0,0:0:0:0:
64,192,36729,1,2,0:2:0:0:
320,192,36903,1,2,0:3:0:0:
192,192,37078,1,0,0:0:0:0:
64,192,37078,1,2,0:2:0:0:
320,192,37252,1,2,0:3:0:0:
448,192,37427,1,0,0:0:0:0:
64,192,37427,1,2,0:2:0:0:
192,192,37601,1,8,0:2:0:0:
448,192,37775,1,0,0:0:0:0:
320,192,37775,1,2,0:2:0:0:
448,192,37950,128,2,38299:0:3:0:0:
64,192,38124,1,2,0:2:0:0:
320,192,38299,1,2,0:3:0:0:
192,192,38473,1,0,0:0:0:0:
64,192,38473,1,2,0:2:0:0:
64,192,38648,128,2,38996:0:3:0:0:
448,192,38822,1,2,0:2:0:0:
192,192,38996,1,8,0:2:0:0:
448,192,39171,1,0,0:0:0:0:
320,192,39171,1,2,0:2:0:0:
192,192,39345,1,2,0:3:0:0:
448,192,39520,1,0,0:0:0:0:
64,192,39520,1,2,0:2:0:0:
320,192,39694,1,2,0:3:0:0:
192,192,39868,1,0,0:0:0:0:
64,192,39868,1,2,0:2:0:0:
448,192,40043,1,2,0:3:0:0:
320,192,40217,1,0,0:0:0:0:
192,192,40217,1,2,0:2:0:0:
64,192,40392,1,8,0:2:0:0:
448,192,40566,1,0,0:0:0:0:
320,192,40566,1,2,0:2:0:0:
64,192,40741,1,2,0:3:0:0:
320,192,40915,1,0,0:0:0:0:
192,192,40915,1,2,0:2:0:0:
448,192,41089,1,2,0:3:0:0:
192,192,41264,1,0,0:0:0:0:
64,192,41264,1,2,0:2:0:0:
320,192,41438,1,2,0:3:0:0:
448,192,41613,128,2,41961:0:2:0:0:
192,192,41961,128,2,42310:0:2:0:0:
448,192,42310,1,4,0:2:0:0:
64,192,42310,1,2,0:2:0:0:
320,192,42485,1,2,0:3:0:0:
192,192,42659,1,0,0:0:0:0:
64,192,42659,1,2,0:2:0:0:
320,192,42834,1,2,0:3:0:0:
448,192,43008,1,0,0:0:0:0:
64,192,43008,1,2,0:2:0:0:
192,192,43182,1,8,0:2:0:0:
448,192,43357,1,0,0:0:0:0:
320,192,43357,1,2,0:2:0:0:
448,192,43531,128,2,43880:0:3:0:0:
64,192,43706,1,2,0:2:0:0:
320,192,43880,1,2,0:3:0:0:
192,192,44054,1,0,0:0:0:0:
64,192,44054,1,2,0:2:0:0:
64,192,44229,128,2,44578:0:3:0:0:
448,192,44403,1,2,0:2:0:0:
192,192,44578,1,8,0:2:0:0:
448,192,44752,1,0,0:0:0:0:
320,192,44752,1,2,0:2:0:0:
192,192,44927,1,2,0:3:0:0:
448,192,45101,1,0,0:0:0:0:
64,192,45101,1,2,0:2:0:0:
320,192,45275,1,2,0:3:0:0:
448,192,45450,1,0,0:0:0:0:
64,192,45450,1,2,0:2:0:0:
192,192,45624,1,2,0:3:0:0:
448,192,45799,1,0,0:0:0:0:
320,192,45799,1,2,0:2:0:0:
320,192,45973,1,8,0:2:0:0:
192,192,46148,1,0,0:0:0:0:
64,192,46148,1,2,0:2:0:0:
192,192,46322,1,2,0:3:0:0:
448,192,46496,1,0,0:0:0:0:
320,192,46496,1,2,0:2:0:0:
64,192,46671,1,2,0:3:0:0:
320,192,46845,1,0,0:0:0:0:
192,192,46845,1,2,0:2:0:0:
448,192,47020,1,8,0:2:0:0:
192,192,47194,1,8,0:2:0:0:
64,192,47194,1,2,0:2:0:0:
320,192,47368,128,8,47717:0:2:0:0:
64,192,47543,1,2,0:2:0:0:
192,192,47717,1,2,0:3:0:0:
448,192,47892,1,0,0:0:0:0:
64,192,47892,1,2,0:2:0:0:
192,192,48066,1,2,0:3:0:0:
448,192,48241,1,0,0:0:0:0:
320,192,48241,1,2,0:2:0:0:
192,192,48415,1,2,0:3:0:0:
448,192,48589,1,0,0:0:0:0:
64,192,48589,1,2,0:2:0:0:
320,192,48764,1,8,0:2:0:0:
192,192,48938,1,0,0:0:0:0:
64,192,48938,1,2,0:2:0:0:
64,192,49113,128,2,49461:0:3:0:0:
448,192,49287,1,2,0:2:0:0:
192,192,49461,1,2,0:3:0:0:
448,192,49636,1,0,0:0:0:0:
320,192,49636,1,2,0:2:0:0:
448,192,49810,128,2,50159:0:3:0:0:
64,192,49985,1,2,0:2:0:0:
320,192,50159,1,8,0:2:0:0:
192,192,50334,1,0,0:0:0:0:
64,192,50334,1,2,0:2:0:0:
320,192,50508,1,2,0:3:0:0:
448,192,50682,1,0,0:0:0:0:
64,192,50682,1,2,0:2:0:0:
192,192,50857,1,2,0:3:0:0:
448,192,51031,1,0,0:0:0:0:
320,192,51031,1,2,0:2:0:0:
64,192,51206,1,2,0:3:0:0:
320,192,51380,1,0,0:0:0:0:
192,192,51380,1,2,0:2:0:0:
448,192,51554,1,8,0:2:0:0:
192,192,51729,1,0,0:0:0:0:
64,192,51729,1,2,0:2:0:0:
448,192,51903,1,2,0:3:0:0:
320,192,52078,1,0,0:0:0:0:
64,192,52078,1,2,0:2:0:0:
192,192,52252,1,8,0:2:0:0:
448,192,52427,1,0,0:0:0:0:
320,192,52427,1,2,0:2:0:0:
192,192,52601,1,2,0:3:0:0:
64,192,52775,128,2,53124:0:2:0:0:
320,192,53124,128,2,53473:0:2:0:0:
448,192,53473,1,2,0:2:0:0:
64,192,53473,1,4,0:2:0:0:
320,192,53648,1,0,0:0:0:0:
192,192,53822,1,0,0:0:0:0:
448,192,53996,1,0,0:0:0:0:
64,192,53996,1,4,0:2:0:0:
192,192,54171,1,0,0:0:0:0:
320,192,54345,1,0,0:0:0:0:
448,192,54520,1,4,0:2:0:0:
64,192,54520,1,2,0:2:0:0:
320,192,54694,1,0,0:0:0:0:
192,192,54868,1,0,0:0:0:0:
448,192,55043,1,0,0:0:0:0:
64,192,55043,1,4,0:2:0:0:
192,192,55217,1,0,0:0:0:0:
320,192,55392,1,0,0:0:0:0:
448,192,55566,1,2,0:2:0:0:
64,192,55566,1,4,0:2:0:0:
192,192,55741,1,0,0:0:0:0:
448,192,55915,1,0,0:0:0:0:
64,192,55915,1,4,0:2:0:0:
320,192,56089,128,0,56264:0:0:0:0:
192,192,56264,1,4,0:2:0:0:
64,192,56264,1,8,0:3:0:0:
448,192,56430,1,0,0:0:0:0:
64,192,56597,1,0,0:0:0:0:
192,192,56764,1,0,0:0:0:0:
320,192,56930,1,0,0:0:0:0:
448,192,57097,1,0,0:0:0:0:
192,192,57264,1,8,0:3:0:0:
64,192,57264,1,4,0:2:0:0:
448,192,57430,1,0,0:0:0:0:
320,192,57597,1,0,0:0:0:0:
192,192,57764,1,0,0:0:0:0:
64,192,57930,1,0,0:0:0:0:
320,192,58097,1,0,0:0:0:0:
192,192,58264,1,4,0:2:0:0:
64,192,58264,1,8,0:3:0:0:
448,192,58430,1,0,0:0:0:0:
64,192,58597,1,0,0:0:0:0:
192,192,58764,1,0,0:0:0:0:
320,192,58930,1,0,0:0:0:0:
448,192,59097,1,0,0:0:0:0:
192,192,59264,1,4,0:2:0:0:
64,192,59264,1,8,0:3:0:0:
448,192,59430,1,0,0:0:0:0:
320,192,59597,1,0,0:0:0:0:
192,192,59764,1,0,0:0:0:0:
64,192,59930,1,0,0:0:0:0:
320,192,60097,1,0,0:0:0:0:
192,192,60263,1,4,0:2:0:0:
64,192,60263,128,8,61263:0:3:0:0:
448,192,60597,1,0,0:0:0:0:
320,192,60763,1,0,0:0:0:0:
192,192,60930,1,0,0:0:0:0:
448,192,61263,128,8,62263:0:3:0:0:
320,192,61263,1,4,0:2:0:0:
64,192,61597,1,0,0:0:0:0:
192,192,61763,1,0,0:0:0:0:
320,192,61930,1,0,0:0:0:0:
192,192,62263,128,4,63263:0:2:0:0:
64,192,62263,1,8,0:3:0:0:
448,192,62597,1,0,0:0:0:0:
320,192,62763,1,0,0:0:0:0:
64,192,62930,1,0,0:0:0:0:
448,192,63263,1,8,0:3:0:0:
320,192,63263,1,4,0:2:0:0:
192,192,63485,1,8,0:3:0:0:
64,192,63485,1,4,0:2:0:0:
448,192,63707,1,8,0:3:0:0:
320,192,63707,1,4,0:2:0:0:
192,192,63929,1,8,0:3:0:0:
64,192,63929,1,4,0:2:0:0:
448,192,64151,1,8,0:3:0:0:
320,192,64151,1,4,0:2:0:0:
192,192,64374,1,8,0:3:0:0:
64,192,64374,1,4,0:2:0:0:
448,192,64596,1,8,0:3:0:0:
320,192,64596,1,4,0:2:0:0:
320,192,64818,1,8,0:3:0:0:
64,192,64818,1,4,0:2:0:0:
448,192,65040,1,8,0:3:0:0:
192,192,65040,1,4,0:2:0:0:
192,192,65263,1,8,0:3:0:0:
64,192,65263,1,4,0:2:0:0:
448,192,65485,1,8,0:3:0:0:
320,192,65485,1,4,0:2:0:0:
192,192,65707,1,8,0:3:0:0:
64,192,65707,1,4,0:2:0:0:
448,192,65929,128,0,68348:0:0:0:0:
448,192,68927,1,2,0:3:0:0:
64,192,68927,1,2,0:2:0:0:
320,192,69275,128,0,69450:0:0:0:70:LR_Drum EDge.wav
64,192,69624,1,0,0:0:0:0:
192,192,69973,128,0,70147:0:0:0:70:LR_Drum EDge.wav
320,192,70322,1,0,0:0:0:0:
448,192,70671,128,0,70845:0:0:0:70:LR_Drum EDge.wav
192,192,71020,1,0,0:0:0:0:
320,192,71194,1,0,0:0:0:0:
64,192,71368,128,0,71543:0:0:0:70:LR_Drum EDge.wav
448,192,71717,1,0,0:0:0:0:
192,192,72066,128,0,72240:0:0:0:70:LR_Drum EDge.wav
448,192,72415,1,0,0:0:0:0:
320,192,72764,128,0,72938:0:0:0:70:LR_Drum EDge.wav
64,192,72938,1,0,0:0:0:0:
192,192,73287,1,0,0:0:0:0:
448,192,73461,128,0,73636:0:0:0:70:LR_Drum EDge.wav
192,192,73810,1,0,0:0:0:0:
192,192,74159,1,0,0:0:0:70:LR_Drum EDge.wav
448,192,74508,1,0,0:0:0:0:
64,192,74508,1,0,0:0:0:0:
448,192,74857,128,2,75031:0:3:0:0:
192,192,75206,1,0,0:0:0:0:
320,192,75554,128,2,75729:0:3:0:0:
64,192,75903,1,0,0:0:0:0:
448,192,76252,128,2,76427:0:3:0:0:
192,192,76601,1,0,0:0:0:0:
320,192,76950,128,2,77299:0:3:0:0:
448,192,77299,1,4,0:2:0:0:
64,192,77299,1,2,0:2:0:0:
448,192,77822,1,4,0:2:0:0:
64,192,77822,1,2,0:2:0:0:
448,192,78520,1,2,0:2:0:0:
192,192,78520,1,4,0:2:0:0:
320,192,79217,1,4,0:2:0:0:
64,192,79217,1,2,0:2:0:0:
64,192,79566,128,0,80089:0:0:0:0:
448,192,80089,128,4,80787:0:2:0:0:
320,192,80089,1,2,0:2:0:0:
192,192,80787,1,2,0:3:0:0:
448,192,81136,1,4,0:2:0:0:
64,192,81136,1,2,0:2:0:0:
320,192,81310,1,2,0:3:0:0:
192,192,81484,1,0,0:0:0:0:
64,192,81484,1,2,0:2:0:0:
320,192,81659,1,2,0:3:0:0:
448,192,81833,1,0,0:0:0:0:
64,192,81833,1,2,0:2:0:0:
192,192,82008,1,8,0:2:0:0:
448,192,82182,1,0,0:0:0:0:
320,192,82182,1,2,0:2:0:0:
448,192,82356,128,2,82705:0:3:0:0:
64,192,82531,1,2,0:2:0:0:
320,192,82705,1,2,0:3:0:0:
192,192,82880,1,0,0:0:0:0:
64,192,82880,1,2,0:2:0:0:
64,192,83054,128,2,83403:0:3:0:0:
448,192,83229,1,2,0:2:0:0:
192,192,83403,1,8,0:2:0:0:
448,192,83577,1,0,0:0:0:0:
320,192,83577,1,2,0:2:0:0:
192,192,83752,1,2,0:3:0:0:
448,192,83926,1,0,0:0:0:0:
64,192,83926,1,2,0:2:0:0:
320,192,84101,1,2,0:3:0:0:
448,192,84275,1,0,0:0:0:0:
64,192,84275,1,2,0:2:0:0:
192,192,84449,1,2,0:3:0:0:
448,192,84624,1,0,0:0:0:0:
320,192,84624,1,2,0:2:0:0:
320,192,84798,1,8,0:2:0:0:
192,192,84973,1,0,0:0:0:0:
64,192,84973,1,2,0:2:0:0:
192,192,85147,1,2,0:3:0:0:
448,192,85322,1,0,0:0:0:0:
320,192,85322,1,2,0:2:0:0:
64,192,85496,1,2,0:3:0:0:
320,192,85670,1,0,0:0:0:0:
192,192,85670,1,2,0:2:0:0:
448,192,85845,1,8,0:2:0:0:
192,192,86019,1,8,0:2:0:0:
64,192,86019,1,2,0:2:0:0:
320,192,86194,128,8,86542:0:2:0:0:
64,192,86368,1,2,0:2:0:0:
192,192,86542,1,2,0:3:0:0:
448,192,86717,1,0,0:0:0:0:
64,192,86717,1,2,0:2:0:0:
192,192,86891,1,2,0:3:0:0:
448,192,87066,1,0,0:0:0:0:
320,192,87066,1,2,0:2:0:0:
192,192,87240,1,2,0:3:0:0:
448,192,87415,1,0,0:0:0:0:
64,192,87415,1,2,0:2:0:0:
320,192,87589,1,8,0:2:0:0:
192,192,87763,1,0,0:0:0:0:
64,192,87763,1,2,0:2:0:0:
64,192,87938,128,2,88287:0:3:0:0:
448,192,88112,1,2,0:2:0:0:
192,192,88287,1,2,0:3:0:0:
448,192,88461,1,0,0:0:0:0:
320,192,88461,1,2,0:2:0:0:
448,192,88636,128,2,88984:0:3:0:0:
64,192,88810,1,2,0:2:0:0:
320,192,88984,1,8,0:2:0:0:
192,192,89159,1,0,0:0:0:0:
64,192,89159,1,2,0:2:0:0:
320,192,89333,1,2,0:3:0:0:
448,192,89508,1,0,0:0:0:0:
64,192,89508,1,2,0:2:0:0:
192,192,89682,1,2,0:3:0:0:
448,192,89856,1,0,0:0:0:0:
320,192,89856,1,2,0:2:0:0:
64,192,90031,1,2,0:3:0:0:
320,192,90205,1,0,0:0:0:0:
192,192,90205,1,2,0:2:0:0:
448,192,90380,1,8,0:2:0:0:
192,192,90554,1,0,0:0:0:0:
64,192,90554,1,2,0:2:0:0:
448,192,90729,1,2,0:3:0:0:
320,192,90903,1,0,0:0:0:0:
192,192,90903,1,2,0:2:0:0:
64,192,91077,1,2,0:3:0:0:
448,192,91252,1,0,0:0:0:0:
320,192,91252,1,2,0:2:0:0:
192,192,91426,1,2,0:3:0:0:
64,192,91601,128,2,91949:0:2:0:0:
320,192,91949,128,2,92298:0:2:0:0:
448,192,92298,1,4,0:2:0:0:
64,192,92298,1,2,0:2:0:0:
192,192,92473,1,2,0:3:0:0:
448,192,92647,1,0,0:0:0:0:
320,192,92647,1,2,0:2:0:0:
192,192,92822,1,2,0:3:0:0:
448,192,92996,1,0,0:0:0:0:
64,192,92996,1,2,0:2:0:0:
320,192,93170,1,8,0:2:0:0:
192,192,93345,1,0,0:0:0:0:
64,192,93345,1,2,0:2:0:0:
64,192,93519,128,2,93868:0:3:0:0:
448,192,93694,1,2,0:2:0:0:
192,192,93868,1,2,0:3:0:0:
448,192,94042,1,0,0:0:0:0:
320,192,94042,1,2,0:2:0:0:
448,192,94217,128,2,94566:0:3:0:0:
64,192,94391,1,2,0:2:0:0:
320,192,94566,1,8,0:2:0:0:
192,192,94740,1,0,0:0:0:0:
64,192,94740,1,2,0:2:0:0:
320,192,94915,1,2,0:3:0:0:
448,192,95089,1,0,0:0:0:0:
64,192,95089,1,2,0:2:0:0:
192,192,95263,1,2,0:3:0:0:
448,192,95438,1,0,0:0:0:0:
64,192,95438,1,2,0:2:0:0:
320,192,95612,1,2,0:3:0:0:
192,192,95787,1,0,0:0:0:0:
64,192,95787,1,2,0:2:0:0:
192,192,95961,1,8,0:2:0:0:
448,192,96136,1,0,0:0:0:0:
320,192,96136,1,2,0:2:0:0:
320,192,96310,1,2,0:3:0:0:
192,192,96484,1,0,0:0:0:0:
64,192,96484,1,2,0:2:0:0:
448,192,96659,1,2,0:3:0:0:
320,192,96833,1,0,0:0:0:0:
192,192,96833,1,2,0:2:0:0:
64,192,97008,1,8,0:2:0:0:
448,192,97182,1,8,0:2:0:0:
320,192,97182,1,2,0:2:0:0:
192,192,97356,128,8,97705:0:2:0:0:
448,192,97531,1,2,0:2:0:0:
320,192,97705,1,2,0:3:0:0:
448,192,97880,1,0,0:0:0:0:
64,192,97880,1,2,0:2:0:0:
320,192,98054,1,2,0:3:0:0:
192,192,98229,1,0,0:0:0:0:
64,192,98229,1,2,0:2:0:0:
320,192,98403,1,2,0:3:0:0:
448,192,98577,1,0,0:0:0:0:
64,192,98577,1,2,0:2:0:0:
192,192,98752,1,8,0:2:0:0:
448,192,98926,1,0,0:0:0:0:
320,192,98926,1,2,0:2:0:0:
448,192,99101,128,2,99449:0:3:0:0:
64,192,99275,1,2,0:2:0:0:
320,192,99449,1,2,0:3:0:0:
192,192,99624,1,0,0:0:0:0:
64,192,99624,1,2,0:2:0:0:
64,192,99798,128,2,100147:0:3:0:0:
448,192,99973,1,2,0:2:0:0:
192,192,100147,1,8,0:2:0:0:
448,192,100322,1,0,0:0:0:0:
320,192,100322,1,2,0:2:0:0:
192,192,100496,1,2,0:3:0:0:
448,192,100670,1,0,0:0:0:0:
64,192,100670,1,2,0:2:0:0:
320,192,100845,1,2,0:3:0:0:
192,192,101019,1,0,0:0:0:0:
64,192,101019,1,2,0:2:0:0:
448,192,101194,1,2,0:3:0:0:
320,192,101368,1,0,0:0:0:0:
192,192,101368,1,2,0:2:0:0:
64,192,101542,1,8,0:2:0:0:
448,192,101717,1,0,0:0:0:0:
320,192,101717,1,2,0:2:0:0:
64,192,101891,1,2,0:3:0:0:
448,192,102066,1,0,0:0:0:0:
192,192,102066,1,2,0:2:0:0:
320,192,102240,1,8,0:2:0:0:
192,192,102415,1,0,0:0:0:0:
64,192,102415,1,2,0:2:0:0:
320,192,102589,1,2,0:3:0:0:
448,192,102763,128,2,103112:0:2:0:0:
192,192,103112,128,2,103461:0:2:0:0:
448,192,103461,1,4,0:2:0:0:
64,192,103461,1,2,0:2:0:0:
192,192,103636,1,0,0:0:0:0:
320,192,103810,1,0,0:0:0:0:
448,192,103984,1,2,0:2:0:0:
64,192,103984,1,4,0:2:0:0:
320,192,104159,1,0,0:0:0:0:
192,192,104333,1,0,0:0:0:0:
448,192,104508,1,2,0:2:0:0:
64,192,104508,1,4,0:2:0:0:
192,192,104682,1,0,0:0:0:0:
320,192,104856,1,0,0:0:0:0:
448,192,105031,1,4,0:2:0:0:
64,192,105031,1,2,0:2:0:0:
320,192,105205,1,0,0:0:0:0:
192,192,105380,1,0,0:0:0:0:
448,192,105554,1,4,0:2:0:0:
64,192,105554,1,2,0:2:0:0:
320,192,105729,1,0,0:0:0:0:
448,192,105903,1,2,0:2:0:0:
64,192,105903,1,4,0:2:0:0:
448,192,106252,1,4,0:2:0:0:
64,192,106252,1,2,0:2:0:0:
320,192,106426,1,0,0:0:0:0:
192,192,106601,1,0,0:0:0:0:
448,192,106775,1,2,0:2:0:0:
64,192,106775,1,4,0:2:0:0:
192,192,106949,1,0,0:0:0:0:
320,192,107124,1,0,0:0:0:0:
448,192,107298,1,4,0:2:0:0:
64,192,107298,1,2,0:2:0:0:
320,192,107473,1,0,0:0:0:0:
192,192,107647,1,0,0:0:0:0:
448,192,107822,1,2,0:2:0:0:
64,192,107822,1,4,0:2:0:0:
192,192,107996,1,0,0:0:0:0:
320,192,108170,1,0,0:0:0:0:
448,192,108345,1,4,0:2:0:0:
64,192,108345,1,2,0:2:0:0:
192,192,108519,1,0,0:0:0:0:
448,192,108694,1,2,0:2:0:0:
64,192,108694,1,4,0:2:0:0:
448,192,109042,1,4,0:2:0:0:
64,192,109042,1,2,0:2:0:0:
320,192,109217,1,0,0:0:0:0:
320,192,109391,1,0,0:0:0:0:
448,192,109566,1,2,0:2:0:0:
64,192,109566,1,4,0:2:0:0:
192,192,109740,1,0,0:0:0:0:
192,192,109915,1,0,0:0:0:0:
448,192,110089,1,4,0:2:0:0:
64,192,110089,1,2,0:2:0:0:
320,192,110263,1,0,0:0:0:0:
320,192,110438,1,0,0:0:0:0:
448,192,110612,1,2,0:2:0:0:
64,192,110612,1,4,0:2:0:0:
192,192,110787,1,0,0:0:0:0:
192,192,110961,1,0,0:0:0:0:
448,192,111136,1,4,0:2:0:0:
320,192,111136,128,2,111484:0:2:0:0:
192,192,111484,128,2,111833:0:2:0:0:
64,192,111484,1,4,0:2:0:0:
448,192,111833,1,4,0:2:0:0:
64,192,111833,1,8,0:3:0:0:
192,192,112007,1,0,0:0:0:0:
448,192,112181,1,0,0:0:0:0:
320,192,112356,1,0,0:0:0:0:
192,192,112530,1,0,0:0:0:0:
448,192,112705,1,8,0:3:0:0:
64,192,112705,1,2,0:3:0:0:
448,192,113053,1,2,0:3:0:0:
64,192,113053,1,8,0:3:0:0:
320,192,113402,1,0,0:0:0:0:
192,192,113577,1,0,0:0:0:0:
448,192,113751,1,2,0:3:0:0:
64,192,113751,1,8,0:3:0:0:
192,192,113926,1,0,0:0:0:0:
320,192,114100,1,0,0:0:0:0:
448,192,114274,1,0,0:0:0:0:
448,192,114449,128,8,114798:0:3:0:0:
64,192,114449,1,2,0:3:0:0:
320,192,114798,1,0,0:0:0:0:
192,192,114972,1,0,0:0:0:0:
448,192,115146,1,8,0:3:0:0:
64,192,115146,128,2,115321:0:3:0:0:
192,192,115495,1,0,0:0:0:0:
448,192,115670,128,2,115844:0:3:0:0:
320,192,115670,1,8,0:3:0:0:
320,192,116019,1,0,0:0:0:0:
192,192,116193,1,8,0:3:0:0:
64,192,116193,128,2,116367:0:3:0:0:
192,192,116542,1,0,0:0:0:0:
448,192,116717,1,8,0:3:0:0:
320,192,116717,1,4,0:2:0:0:
192,192,116939,1,8,0:3:0:0:
64,192,116939,1,4,0:2:0:0:
448,192,117161,1,8,0:3:0:0:
320,192,117161,1,4,0:2:0:0:
192,192,117383,1,8,0:3:0:0:
64,192,117383,1,4,0:2:0:0:
448,192,117605,1,8,0:3:0:0:
320,192,117605,1,4,0:2:0:0:
192,192,117828,1,8,0:3:0:0:
64,192,117828,1,4,0:2:0:0:
448,192,118050,1,8,0:3:0:0:
320,192,118050,1,4,0:2:0:0:
448,192,118272,1,8,0:3:0:0:
320,192,118272,1,4,0:2:0:0:
448,192,118494,1,8,0:3:0:0:
320,192,118494,1,4,0:2:0:0:
192,192,118717,1,8,0:3:0:0:
64,192,118717,1,4,0:2:0:0:
192,192,118939,1,8,0:3:0:0:
64,192,118939,1,4,0:2:0:0:
192,192,119161,1,8,0:3:0:0:
64,192,119161,1,4,0:2:0:0:
448,192,119717,128,4,120050:0:2:0:0:
64,192,119717,128,8,120050:0:3:0:0:
