osu file format v14

[General]
AudioFilename: audio1.mp3
AudioLeadIn: 0
PreviewTime: 30680
Countdown: 0
SampleSet: Soft
StackLeniency: 0.4
Mode: 0
LetterboxInBreaks: 0
WidescreenStoryboard: 0

[Editor]
Bookmarks: 41926,53089,56233,57883,72037,126873
DistanceSpacing: 1.1
BeatDivisor: 4
GridSize: 4
TimelineZoom: 2.599999

[Metadata]
Title:TONDEMO-WONDERZ
TitleUnicode:トンデモワンダーズ
Artist:Wonderlands x Showtime
ArtistUnicode:ワンダーランズ×ショウタイム
Creator:sahuang
Version:Stan's NORMAL
Source:プロジェクトセカイ カラフルステージ! feat. 初音ミク
Tags:Project SEKAI COLORFUL STAGE rhythm mobile game sasakure.UK Hatsune Miku 初音ミク KAITO Frey Imakuri Regraz Mafumafu _Stan My_Angel_Azusa vocaloid japanese pop jpop プロセカ puroseka 草薙寧々 kusanagi nene 天馬司 tenma tsukasa 鳳えむ otori emu 神代類 kamishiro rui
BeatmapID:3216926
BeatmapSetID:1547596

[Difficulty]
HPDrainRate:4
CircleSize:3.6
OverallDifficulty:5
ApproachRate:6
SliderMultiplier:1.1
SliderTickRate:1

[Events]
//Background and Video events
0,0,"EjVIu-9XcAAzx7c.jpg",0,0
//Break Periods
2,56079,61828
//Storyboard Layer 0 (Background)
//Storyboard Layer 1 (Fail)
//Storyboard Layer 2 (Pass)
//Storyboard Layer 3 (Foreground)
//Storyboard Layer 4 (Overlay)
//Storyboard Sound Samples

[TimingPoints]
66,348.837209302326,4,2,1,70,1,0
30763,-100,4,2,1,70,0,1
53089,-100,4,2,1,70,0,0
55879,333.333333333333,3,2,1,70,1,0
62878,333.333333333333,4,2,1,60,1,0
65544,375,4,2,1,60,1,0
68545,348.837209302326,4,2,1,70,1,0
79707,348.837209302326,3,2,1,80,1,0
80754,348.837209302326,4,2,1,80,1,1
103079,-100,4,2,1,80,0,0
114241,348.837209302326,3,2,1,80,1,0
116334,333.333333333333,4,2,1,50,1,0

[Colours]
Combo1 : 227,233,22
Combo2 : 128,128,255
Combo3 : 18,124,255
Combo4 : 159,98,168
SliderBorder : 0,125,251
SliderTrackOverride : 192,192,192

[HitObjects]
65,16,66,22,0,P|102:72|62:180,1,165,6|0,0:0|0:0,0:0:0:0:
56,219,763,1,2,0:0:0:0:
56,219,938,1,6,0:0:0:0:
68,339,1286,2,0,P|125:358|177:352,1,110,6|0,0:0|0:0,0:0:0:0:
270,279,1984,2,0,P|324:275|375:293,1,110,4|2,0:0|0:0,0:0:0:0:
415,339,2507,1,2,0:0:0:0:
415,339,2682,6,0,P|394:266|448:200,1,165,6|0,0:0|3:0,0:0:0:0:
453,141,3379,2,0,P|429:90|384:56,1,110,6|0,0:0|3:0,0:0:0:0:
328,43,3903,2,0,P|276:60|240:101,1,110,6|0,3:2|3:0,0:0:0:0:
239,161,4426,2,0,P|249:201|296:254,1,110,6|0,3:2|3:0,0:0:0:0:
353,257,4949,2,0,P|388:255|427:235,2,73.3333333333333,6|6|6,3:2|3:2|3:2,0:0:0:0:
316,329,5647,5,2,3:2:0:0:
198,358,5996,1,8,0:0:0:0:
87,329,6345,1,2,3:2:0:0:
87,329,6519,2,0,B|56:294|56:294|46:216,1,110,0|0,0:0|0:0,0:0:0:0:
42,170,7042,1,2,3:2:0:0:
145,106,7391,1,8,0:0:0:0:
253,166,7740,2,0,L|259:234,2,55,2|0|8,3:2|0:0|0:0,0:0:0:0:
346,88,8438,6,0,P|391:52|451:43,1,110,2|8,3:2|0:0,0:0:0:0:
480,88,8961,1,0,0:0:0:0:
480,88,9135,2,0,P|479:141|478:215,1,110,2|8,3:2|0:0,0:0:0:0:
358,218,9833,2,0,P|304:196|244:204,1,110,2|8,3:2|0:0,0:0:0:0:
180,297,10530,2,0,P|230:318|284:314,1,110,2|8,3:2|0:0,0:0:0:0:
394,365,11228,5,2,3:2:0:0:
501,305,11577,1,8,0:0:0:0:
501,305,11752,2,0,P|503:235|474:188,1,110,0|0,0:0|0:0,0:0:0:0:
440,160,12275,1,8,0:0:0:0:
318,145,12624,2,0,P|296:94|302:40,1,110,2|8,3:2|0:0,0:0:0:0:
417,77,13321,2,0,L|482:59,2,55,2|0|8,3:2|0:0|0:0,0:0:0:0:
318,145,14019,5,2,3:2:0:0:
216,88,14368,1,8,0:0:0:0:
216,88,14542,2,0,P|171:67|99:84,1,110,0|0,0:0|0:0,0:0:0:0:
58,103,15066,2,0,L|69:164,1,55,8|0,0:0|0:0,0:0:0:0:
35,207,15414,2,0,P|19:252|41:319,1,110,2|8,3:2|0:0,0:0:0:0:
81,357,15938,1,2,0:0:0:0:
81,357,16112,2,0,P|133:372|185:356,1,110,2|8,3:2|0:0,0:0:0:0:
293,301,16810,6,0,P|312:253|303:196,1,110,2|0,0:0|0:0,0:0:0:0:
281,145,17333,1,0,0:0:0:0:
281,145,17507,2,0,P|272:92|292:41,1,110,2|2,0:0|0:0,0:0:0:0:
413,38,18205,2,0,P|434:93|407:163,1,110,2|0,0:0|0:0,0:0:0:0:
406,202,18728,1,0,0:0:0:0:
406,202,18903,2,0,L|410:327,1,110,2|2,0:0|0:0,0:0:0:0:
296,356,19600,6,0,P|245:341|213:290,1,110,2|2,0:0|0:0,0:0:0:0:
273,185,20298,1,0,3:0:0:0:
392,168,20647,1,0,3:0:0:0:
358,51,20996,2,0,B|306:24|306:24|255:32,1,110,6|6,0:0|0:0,0:0:0:0:
171,120,21693,2,0,B|116:126|116:126|68:101,1,110,6|6,0:0|0:0,0:0:0:0:
23,214,22391,6,0,L|38:330,1,110,2|0,3:2|0:0,0:0:0:0:
96,350,22914,1,0,0:0:0:0:
96,350,23089,2,0,P|147:360|202:322,1,110,2|0,3:2|0:0,0:0:0:0:
281,247,23786,2,0,L|397:232,1,110,2|0,3:2|3:0,0:0:0:0:
471,143,24484,1,2,3:2:0:0:
362,88,24833,1,6,0:0:0:0:
253,34,25182,6,0,L|172:39,1,55,2|0,3:2|3:0,0:0:0:0:
148,72,25531,2,0,L|67:67,1,55,2|0,3:2|3:0,0:0:0:0:
33,80,25879,2,0,P|63:124|66:200,1,110,2|2,3:2|3:2,3:3:0:0:
42,233,26403,1,2,3:2:0:0:
42,233,26577,2,0,L|109:228,1,55,2|0,3:2|3:0,0:0:0:0:
147,262,26926,2,0,L|214:257,1,55,2|0,3:2|3:0,3:3:0:0:
261,245,27275,2,0,P|242:300|249:344,2,82.5,2|0|2,3:2|3:0|3:2,3:3:0:0:
256,192,27972,12,6,30066,0:0:0:0:
486,339,30763,6,0,B|430:350|430:350|354:334,1,110,6|8,0:0|0:0,0:0:0:0:
273,278,31461,2,0,L|206:284,1,55,2|0,3:2|0:0,0:0:0:0:
168,316,31810,1,8,0:0:0:0:
168,316,31984,2,0,P|109:298|72:250,1,110,2|0,3:2|0:0,0:0:0:0:
54,212,32507,1,8,0:0:0:0:
54,212,32682,2,0,P|54:154|82:105,1,110,0|0,0:0|3:0,0:0:0:0:
128,73,33205,1,8,0:0:0:0:
249,73,33554,6,0,P|315:49|366:54,1,110,2|8,3:2|0:0,0:0:0:0:
472,78,34252,1,2,3:2:0:0:
452,197,34600,2,0,L|461:270,1,55,8|0,0:0|0:0,0:0:0:0:
415,293,34949,2,0,L|405:355,2,55,2|0|8,3:2|0:0|0:0,0:0:0:0:
297,324,35647,2,0,P|242:332|188:323,1,110,2|8,3:2|0:0,0:0:0:0:
70,295,36345,6,0,L|78:349,2,55,6|0|8,0:0|0:0|0:0,0:0:0:0:
51,242,36868,1,0,0:0:0:0:
51,242,37042,2,0,L|64:166,1,55,2|0,3:2|0:0,0:0:0:0:
83,134,37391,1,8,0:0:0:0:
83,134,37565,2,0,P|103:76|150:38,1,110,2|0,3:2|0:0,0:0:0:0:
192,13,38088,1,8,0:0:0:0:
192,13,38263,2,0,P|248:16|297:47,1,110,0|0,0:0|0:0,0:0:0:0:
342,79,38786,1,8,0:0:0:0:
449,134,39135,6,0,P|469:184|468:239,1,110,2|10,3:2|3:2,0:0:0:0:
442,294,39659,1,2,3:2:0:0:
400,338,39833,2,0,P|349:358|294:357,1,110,2|8,3:2|0:0,0:0:0:0:
199,281,40531,2,0,P|175:228|176:173,1,110,0|8,3:0|0:0,0:0:0:0:
208,125,41054,1,2,3:2:0:0:
259,94,41228,2,0,L|336:83,2,55,8|10|8,0:0|3:2|0:0,0:0:0:0:
150,39,41926,6,0,B|100:19|100:19|42:32,1,110,6|8,0:0|0:0,0:0:0:0:
22,150,42624,2,0,L|27:210,1,55,2|0,3:2|3:0,0:0:0:0:
34,268,42972,1,8,0:0:0:0:
34,268,43147,2,0,P|89:289|146:277,1,110,2|0,3:2|0:0,0:0:0:0:
199,265,43669,1,8,0:0:0:0:
199,265,43845,2,0,P|232:219|240:163,1,110,0|0,0:0|3:0,0:0:0:0:
216,111,44367,1,8,0:0:0:0:
334,90,44717,6,0,B|350:35|350:35|412:0,1,110,2|8,3:2|0:0,0:0:0:0:
456,114,45414,1,2,3:2:0:0:
502,225,45763,2,0,L|490:281,1,55,8|0,0:0|0:0,0:0:0:0:
435,303,46112,2,0,L|443:376,2,55,2|0|8,3:2|0:0|0:0,0:0:0:0:
324,253,46810,2,0,P|263:243|206:259,1,110,2|8,3:2|0:0,0:0:0:0:
154,355,47507,6,0,P|118:348|95:332,1,55,2|0,3:2|0:0,0:0:0:0:
83,281,47856,2,0,P|61:263|46:240,1,55,8|0,0:0|0:0,0:0:0:0:
38,180,48205,1,2,3:2:0:0:
12,66,48554,1,8,0:0:0:0:
12,66,48728,2,0,L|129:47,1,110,2|0,3:2|0:0,0:0:0:0:
177,22,49252,1,8,0:0:0:0:
177,22,49426,2,0,L|294:41,1,110,0|0,0:0|0:0,0:0:0:0:
343,57,49949,1,8,0:0:0:0:
461,33,50298,6,0,P|462:87|434:137,1,110,2|8,3:2|0:0,0:0:0:0:
392,178,50821,1,2,3:2:0:0:
350,222,50996,2,0,P|323:269|325:323,1,110,2|8,3:2|0:0,0:0:0:0:
443,300,51693,2,0,P|460:282|472:253,1,55,2|2,3:2|3:2,0:0:0:0:
495,198,52042,2,0,P|485:168|471:146,1,55,8|2,0:0|3:2,0:0:0:0:
431,103,52391,2,0,P|395:60|335:49,1,110,2|8,3:2|0:0,0:0:0:0:
227,82,53089,6,0,P|177:55|120:55,1,110,6|2,0:0|0:0,0:0:0:0:
72,85,53613,2,0,P|40:129|36:184,1,110,6|2,0:0|0:0,0:0:0:0:
62,237,54136,2,0,P|94:262|163:276,1,110,6|10,0:0|0:0,0:0:0:0:
217,254,54659,2,0,P|256:212|269:154,1,110,2|2,0:0|0:0,0:0:0:0:
285,103,55182,1,6,0:0:0:0:
395,53,55531,1,6,0:0:0:0:
451,168,55879,5,6,0:0:0:0:
455,205,62878,6,0,P|493:180|515:144,2,73.3333333333333,4|4|4,0:0|0:0|0:0,0:0:0:0:
436,126,63544,2,0,P|434:80|413:44,2,73.3333333333333,4|4|4,0:0|0:0|0:0,0:0:0:0:
357,107,64210,2,0,L|273:86,1,73.3333333333333,4|4,0:0|0:0,0:0:0:0:
245,159,64655,2,0,L|161:138,1,73.3333333333333,4|4,0:0|0:0,0:0:0:0:
126,207,65100,2,0,L|42:186,1,73.3333333333333,4|4,0:0|0:0,0:0:0:0:
256,192,65544,12,0,67794,0:0:0:0:
208,316,68545,6,0,P|183:267|137:239,1,110,2|8,0:0|0:0,0:0:0:0:
33,177,69242,2,0,L|27:115,1,55,2|0,0:0|0:0,0:0:0:0:
33,65,69591,1,8,0:0:0:0:
33,65,69765,2,0,P|86:79|140:73,1,110,2|0,0:0|0:0,0:0:0:0:
181,28,70289,2,0,L|257:14,1,55,8|0,0:0|0:0,0:0:0:0:
291,41,70638,2,0,L|400:19,1,110,2|8,0:0|0:0,0:0:0:0:
359,132,71335,6,0,B|412:121|412:121|479:138,1,110,2|8,0:0|0:0,0:0:0:0:
408,239,72033,2,0,L|414:306,1,55,2|0,0:0|0:0,0:0:0:0:
420,354,72382,1,8,0:0:0:0:
420,354,72556,2,0,P|365:341|311:350,1,110,0|0,0:0|0:0,0:0:0:0:
258,321,73079,2,0,L|179:316,1,55,8|0,0:0|0:0,0:0:0:0:
151,349,73428,2,0,L|81:344,2,55,8|0|2,0:0|0:0|3:2,0:0:0:0:
78,251,74126,6,0,P|41:204|33:144,1,110,2|8,3:2|0:0,0:0:0:0:
154,154,74824,2,0,P|150:117|140:93,1,55,2|2,3:2|0:0,0:0:0:0:
138,48,75172,1,8,0:0:0:0:
138,48,75347,2,0,L|254:42,1,110,2|0,3:2|0:0,0:0:0:0:
310,60,75870,1,8,0:0:0:0:
310,60,76045,2,0,L|426:54,1,110,0|0,0:0|0:0,0:0:0:0:
480,50,76568,1,8,0:0:0:0:
437,163,76917,5,6,0:0:0:0:
460,342,77440,1,4,0:0:0:0:
255,212,78138,1,6,0:0:0:0:
48,338,78835,2,0,B|32:321|27:297|42:279|68:269|68:269|49:247|41:218|53:194|74:175|105:168|132:184|145:202|144:233,1,275,6|2,0:0|0:0,0:0:0:0:
445,24,80754,6,0,L|435:103,1,55,6|0,0:0|0:0,0:0:0:0:
399,124,81102,2,0,L|409:203,1,55,8|0,0:0|0:0,0:0:0:0:
426,235,81451,2,0,L|416:295,1,55,2|0,3:2|0:0,0:0:0:0:
420,353,81800,1,8,0:0:0:0:
420,353,81974,2,0,L|296:342,1,110,2|0,3:2|0:0,0:0:0:0:
254,357,82498,1,8,0:0:0:0:
254,357,82672,2,0,L|130:346,1,110,0|0,0:0|3:0,0:0:0:0:
84,341,83195,1,8,0:0:0:0:
57,222,83544,6,0,L|-13:231,2,55,2|0|8,3:2|0:0|0:0,0:0:0:0:
99,178,84067,1,0,0:0:0:0:
99,178,84242,2,0,P|83:129|96:63,1,110,2|8,3:2|0:0,0:0:0:0:
134,29,84765,1,0,0:0:0:0:
134,29,84940,2,0,L|203:18,1,55,2|0,3:2|0:0,0:0:0:0:
245,39,85288,2,0,B|317:28|317:28|358:38,1,110,8|2,0:0|3:2,0:0:0:0:
474,37,85986,1,8,0:0:0:0:
417,144,86335,6,0,L|427:223,1,55,6|0,0:0|0:0,0:0:0:0:
429,259,86684,2,0,L|419:323,1,55,8|0,0:0|0:0,0:0:0:0:
364,335,87032,2,0,L|298:329,1,55,2|0,3:2|0:0,0:0:0:0:
260,304,87381,1,8,0:0:0:0:
260,304,87556,2,0,P|211:333|138:338,1,110,2|0,3:2|0:0,0:0:0:0:
103,331,88079,1,8,0:0:0:0:
103,331,88254,2,0,P|63:289|44:218,1,110,0|0,0:0|0:0,0:0:0:0:
37,181,88776,1,8,0:0:0:0:
91,74,89126,5,2,3:2:0:0:
91,74,89300,2,0,B|124:77|144:92|144:92|166:77|214:79,1,110,0|0,3:0|3:0,0:0:0:0:
245,44,89823,2,0,L|308:51,1,55,2|0,3:2|3:0,0:0:0:0:
360,52,90172,1,8,0:0:0:0:
420,59,90347,2,0,B|461:93|461:93|484:151,2,110,0|0|2,3:0|3:0|3:2,0:0:0:0:
364,168,91393,1,10,3:2:0:0:
364,168,91567,1,10,3:2:0:0:
439,266,91916,6,0,L|359:260,1,55,6|0,0:0|0:0,0:0:0:0:
342,306,92265,2,0,L|262:312,1,55,8|0,0:0|0:0,0:0:0:0:
235,341,92613,2,0,L|175:327,1,55,2|0,3:2|0:0,0:0:0:0:
126,316,92963,1,8,0:0:0:0:
126,316,93137,2,0,P|67:298|27:254,1,110,2|0,3:2|0:0,0:0:0:0:
19,210,93660,1,8,0:0:0:0:
19,210,93835,2,0,P|19:152|47:103,1,110,0|0,0:0|3:0,0:0:0:0:
88,67,94358,1,8,0:0:0:0:
202,107,94707,6,0,L|194:164,2,55,2|0|8,3:2|0:0|0:0,0:0:0:0:
250,72,95230,1,0,0:0:0:0:
250,72,95405,2,0,P|282:73|307:80,1,55,2|0,3:2|3:0,0:0:0:0:
362,61,95754,2,0,P|390:74|410:91,1,55,8|0,0:0|3:0,0:0:0:0:
466,77,96102,2,0,P|485:98|496:123,2,55,2|0|8,3:2|3:0|0:0,0:0:0:0:
428,202,96800,2,0,P|421:257|436:309,1,110,2|8,3:2|0:0,0:0:0:0:
317,335,97498,6,0,L|237:329,1,55,6|0,0:0|0:0,0:0:0:0:
208,358,97847,2,0,L|128:352,1,55,8|0,0:0|0:0,0:0:0:0:
95,337,98195,2,0,P|99:308|98:278,1,55,2|0,3:2|3:0,0:0:0:0:
73,232,98545,1,8,0:0:0:0:
73,232,98719,2,0,P|35:182|29:123,1,110,0|0,3:0|0:0,0:0:0:0:
49,82,99242,1,8,0:0:0:0:
49,82,99417,2,0,P|83:35|134:11,1,110,2|0,3:2|0:0,0:0:0:0:
189,14,99940,1,8,0:0:0:0:
289,81,100288,6,0,P|328:76|353:65,1,55,2|0,3:2|3:0,0:0:0:0:
380,23,100637,2,0,P|407:18|458:29,1,55,8|0,0:0|3:0,0:0:0:0:
489,45,100986,2,0,P|491:103|488:171,1,110,2|8,3:2|0:0,0:0:0:0:
474,213,101509,1,0,3:0:0:0:
450,269,101684,2,0,L|458:343,2,55,2|0|8,0:0|3:0|0:0,0:0:0:0:
404,237,102207,1,0,3:0:0:0:
404,237,102381,2,0,P|353:233|301:265,1,110,2|8,3:2|0:0,0:0:0:0:
189,302,103079,6,0,L|70:295,1,110,6|8,0:0|0:0,0:0:0:0:
31,258,103602,2,0,L|1:143,1,110,2|2,0:0|0:0,0:0:0:0:
22,94,104126,2,0,L|121:30,1,110,8|10,0:0|0:0,0:0:0:0:
175,38,104649,2,0,L|266:113,1,110,2|2,0:0|0:0,0:0:0:0:
306,146,105172,1,6,0:0:0:0:
254,255,105521,1,6,0:0:0:0:
362,309,105870,6,0,P|417:305|465:268,1,110,6|8,0:0|0:0,0:0:0:0:
484,218,106393,2,0,P|480:162|443:114,1,110,2|2,0:0|0:0,0:0:0:0:
394,95,106916,2,0,P|338:98|290:135,1,110,8|10,0:0|0:0,0:0:0:0:
272,186,107439,2,0,P|275:241|312:289,1,110,2|2,0:0|3:2,0:0:0:0:
362,309,107963,1,6,0:0:0:0:
401,194,108312,1,6,0:0:0:0:
295,128,108660,6,0,B|178:110,1,110,6|8,0:0|0:0,0:0:0:0:
148,159,109184,2,0,B|190:269,1,110,2|2,0:0|0:0,0:0:0:0:
247,270,109707,2,0,B|321:177,1,110,8|10,0:0|0:0,0:0:0:0:
295,128,110230,2,0,B|178:110,1,110,2|2,0:0|0:0,0:0:0:0:
125,104,110754,1,6,0:0:0:0:
5,89,111102,1,6,0:0:0:0:
49,201,111451,22,0,P|42:252|91:312,1,110,6|2,0:0|0:0,0:0:0:0:
133,320,111974,1,0,0:0:0:0:
133,320,112149,2,0,L|187:310,1,55,2|6,0:0|0:0,0:0:0:0:
281,234,112671,2,0,P|332:203|440:239,1,165,6|2,0:0|0:0,0:0:0:0:
478,263,113370,2,0,L|486:188,1,55,6|2,3:2|0:0,0:0:0:0:
487,147,113719,1,2,0:0:0:0:
405,58,114067,6,0,B|336:18|318:104|236:43,1,165,6|0,0:0|3:0,0:0:0:0:
217,103,114764,2,0,P|251:150|257:206,1,110,6|0,0:0|3:2,0:0:0:0:
233,260,115287,2,0,P|194:297|140:308,1,110,6|0,3:2|3:2,0:0:0:0:
81,292,115810,1,6,3:2:0:0:
43,181,116159,1,0,3:2:0:0:
43,181,116334,6,0,B|27:146|27:146|26:84,2,73.3333333333333,4|4|4,0:0|0:0|0:0,0:0:0:0:
107,132,117000,2,0,B|129:100|129:100|182:69,2,73.3333333333333,4|4|4,0:0|0:0|0:0,0:0:0:0:
182,161,117667,2,0,B|220:164|220:164|274:194,2,73.3333333333333,4|4|4,0:0|0:0|0:0,0:0:0:0:
200,239,118334,2,0,B|215:274|215:274|217:335,2,73.3333333333333,4|4|4,0:0|0:0|0:0,0:0:0:0:
30,129,119334,5,14,0:0:0:0:
