osu file format v14

[General]
AudioFilename: audio1.mp3
AudioLeadIn: 0
PreviewTime: 30680
Countdown: 0
SampleSet: Soft
StackLeniency: 0.4
Mode: 0
LetterboxInBreaks: 0
WidescreenStoryboard: 0

[Editor]
Bookmarks: 56233,57883,72037,126873
DistanceSpacing: 1.4
BeatDivisor: 4
GridSize: 4
TimelineZoom: 3.099998

[Metadata]
Title:TONDEMO-WONDERZ
TitleUnicode:トンデモワンダーズ
Artist:Wonderlands x Showtime
ArtistUnicode:ワンダーランズ×ショウタイム
Creator:sahuang
Version:Regraz's HARD
Source:プロジェクトセカイ カラフルステージ! feat. 初音ミク
Tags:Project SEKAI COLORFUL STAGE rhythm mobile game sasakure.UK Hatsune Miku 初音ミク KAITO Frey Imakuri Regraz Mafumafu _Stan My_Angel_Azusa vocaloid japanese pop jpop プロセカ puroseka 草薙寧々 kusanagi nene 天馬司 tenma tsukasa 鳳えむ otori emu 神代類 kamishiro rui
BeatmapID:3216953
BeatmapSetID:1547596

[Difficulty]
HPDrainRate:5
CircleSize:3.8
OverallDifficulty:7
ApproachRate:8
SliderMultiplier:1.5
SliderTickRate:1

[Events]
//Background and Video events
0,0,"bg1.jpg",0,0
//Break Periods
2,65744,67795
//Storyboard Layer 0 (Background)
//Storyboard Layer 1 (Fail)
//Storyboard Layer 2 (Pass)
//Storyboard Layer 3 (Foreground)
//Storyboard Layer 4 (Overlay)
//Storyboard Sound Samples

[TimingPoints]
66,348.837209302326,4,2,1,70,1,0
30763,-86.9565217391304,4,2,1,80,0,1
53089,-100,4,2,1,80,0,0
55879,333.333333333333,3,2,1,70,1,0
62878,333.333333333333,4,2,1,60,1,0
65544,375,4,2,1,70,1,0
68545,348.837209302326,4,2,1,70,1,0
79707,348.837209302326,3,2,1,80,1,0
80754,348.837209302326,4,2,1,80,1,0
80754,-86.9565217391304,4,2,1,80,0,1
103079,-100,4,2,1,70,0,0
114241,348.837209302326,3,2,1,70,1,0
116334,333.333333333333,4,2,1,55,1,0

[Colours]
Combo1 : 227,233,22
Combo2 : 128,128,255
Combo3 : 18,124,255
Combo4 : 159,98,168
SliderBorder : 0,125,251
SliderTrackOverride : 192,192,192

[HitObjects]
75,70,66,6,0,B|63:109|63:109|77:154,1,75,6|0,0:0|0:0,0:0:0:0:
142,184,414,2,0,L|240:176,1,75,2|0,0:0|0:0,0:0:0:0:
294,214,763,1,2,0:0:0:0:
225,264,938,6,0,B|169:270|169:270|149:289|149:289|78:301,1,150,6|6,0:0|0:0,0:0:0:0:
216,352,1635,1,0,0:0:0:0:
216,352,1722,1,2,0:0:0:0:
216,352,1810,1,2,0:0:0:0:
300,313,1984,1,4,0:0:0:0:
386,322,2159,2,0,P|435:335|466:356,2,75,2|2|2,0:0|0:0|0:0,0:0:0:0:
300,313,2682,6,0,P|271:266|306:183,1,150,6|0,0:0|3:0,0:0:0:0:
393,171,3205,1,0,3:0:0:0:
351,251,3379,2,0,L|176:249,1,150,6|0,0:0|3:0,0:0:0:0:
129,305,3903,2,0,L|43:303,2,75,6|0|0,3:2|3:0|3:0,0:0:0:0:
201,249,4426,2,0,P|209:199|199:158,2,75,6|0|0,3:2|3:0|3:0,0:0:0:0:
130,155,4949,5,6,3:2:0:0:
246,95,5182,1,6,3:2:0:0:
346,182,5414,1,6,3:2:0:0:
346,182,5647,6,0,L|436:176,1,75,2|0,3:2|0:0,0:0:0:0:
422,256,5996,2,0,L|320:263,1,75,8|0,0:0|0:0,0:0:0:0:
267,317,6345,1,2,3:2:0:0:
267,317,6519,2,0,P|191:342|145:297,1,150,0|0,0:0|0:0,0:0:0:0:
104,232,7042,6,0,P|46:229|22:206,1,75,2|0,3:2|0:0,0:0:0:0:
32,183,7304,1,0,0:0:0:0:
32,183,7391,2,0,L|42:99,1,75,8|0,0:0|0:0,0:0:0:0:
97,51,7740,1,2,3:2:0:0:
163,98,7914,1,0,0:0:0:0:
163,98,8089,2,0,P|218:109|260:93,1,75,8|0,0:0|0:0,0:0:0:0:
297,54,8438,6,0,L|385:52,2,75,2|0|8,3:2|0:0|0:0,0:0:0:0:
235,105,8961,2,0,P|231:155|247:185,2,75,0|2|0,0:0|3:2|0:0,0:0:0:0:
161,58,9484,2,0,P|112:51|72:57,1,75,8|0,0:0|0:0,0:0:0:0:
33,111,9833,6,0,L|45:203,1,75,2|0,3:2|0:0,0:0:0:0:
77,182,10095,1,0,0:0:0:0:
77,182,10182,2,0,L|66:277,1,75,8|0,0:0|0:0,0:0:0:0:
137,302,10531,1,2,3:2:0:0:
137,302,10705,2,0,P|205:308|244:230,1,150,0|0,0:0|0:0,0:0:0:0:
296,178,11228,6,0,L|294:88,1,75,2|0,3:2|0:0,0:0:0:0:
306,21,11577,1,8,0:0:0:0:
406,26,11752,2,0,P|459:32|483:132,1,150,0|0,0:0|0:0,0:0:0:0:
443,178,12275,2,0,L|353:172,1,75,8|0,0:0|0:0,0:0:0:0:
299,242,12624,6,0,L|233:249,2,37.5,2|0|0,3:2|3:0|3:0,0:0:0:0:
351,312,12972,1,8,0:0:0:0:
351,312,13147,1,0,0:0:0:0:
430,289,13321,2,0,P|437:239|433:205,1,75,2|0,3:2|0:0,0:0:0:0:
458,181,13583,1,0,0:0:0:0:
458,181,13670,2,0,P|456:155|445:98,1,75,8|0,0:0|0:0,0:0:0:0:
372,35,14019,6,0,P|302:53|265:116,1,150,2|8,3:2|0:0,0:0:0:0:
338,154,14542,2,0,B|251:127|270:193|161:162,1,150,0|0,0:0|0:0,0:0:0:0:
137,225,15066,2,0,P|153:274|154:309,1,75,8|0,0:0|0:0,0:0:0:0:
231,331,15414,6,0,P|281:321|317:326,1,75,2|2,3:2|0:0,0:0:0:0:
383,352,15763,1,8,0:0:0:0:
383,352,15938,1,2,0:0:0:0:
365,267,16112,2,0,L|353:179,1,75,2|0,3:2|3:0,0:0:0:0:
377,165,16374,1,0,0:0:0:0:
377,165,16461,2,0,L|384:84,1,75,8|0,0:0|3:0,0:0:0:0:
269,50,16810,6,0,B|223:54|223:54|179:89|179:89|129:93,1,150,2|0,0:0|0:0,0:0:0:0:
61,134,17333,1,0,0:0:0:0:
61,134,17507,2,0,P|47:203|74:288,1,150,2|2,0:0|0:0,0:0:0:0:
138,320,18031,6,0,L|229:312,2,75,0|2|0,0:0|0:0|0:0,0:0:0:0:
303,308,18728,1,0,0:0:0:0:
303,308,18903,2,0,P|294:264|307:232,1,75,2|0,0:0|0:0,0:0:0:0:
389,236,19252,2,0,P|398:272|386:310,1,75,2|0,0:0|0:0,0:0:0:0:
303,308,19600,6,0,P|232:289|176:291,2,112.5,2|0|0,0:0|0:0|0:0,0:0:0:0:
252,208,20298,2,0,P|223:149|257:67,1,150,0|0,3:0|3:0,0:0:0:0:
350,42,20821,1,2,0:0:0:0:
452,124,20996,6,0,B|432:117|432:117|334:145|334:145|302:137,3,150,6|6|6|6,0:0|0:0|0:0|0:0,0:0:0:0:
447,219,22391,6,0,P|475:294|440:362,1,150,2|2,3:2|0:0,0:0:0:0:
369,332,22914,1,0,0:0:0:0:
369,332,23089,2,0,P|310:327|281:333,2,75,2|0|0,3:2|0:0|0:0,0:0:0:0:
292,248,23612,6,0,P|249:199|278:115,1,150,2|0,0:0|0:0,0:0:0:0:
333,73,24135,2,0,L|425:79,1,75,0|0,3:0|0:0,0:0:0:0:
471,137,24484,2,0,B|479:179|479:179|460:226,2,75,2|2|6,3:2|3:2|0:0,0:0:0:0:
343,64,25182,6,0,P|289:73|265:52,1,75,2|0,3:2|3:0,0:0:0:0:
259,36,25443,1,0,3:0:0:0:
259,36,25531,2,0,P|263:92|256:130,1,75,2|0,3:2|3:0,0:0:0:0:
188,156,25879,2,0,L|136:148,2,37.5,2|0|0,3:2|3:0|3:0,3:3:0:0:
252,210,26228,2,0,L|342:206,1,75,2|2,3:2|3:2,3:3:0:0:
363,207,26490,1,0,3:0:0:0:
363,207,26577,6,0,P|373:266|364:290,1,75,2|0,3:2|3:0,0:0:0:0:
305,334,26926,1,2,3:2:0:0:
230,293,27100,2,0,L|186:287,1,37.5,0|0,3:0|3:0,0:0:0:0:
166,311,27275,2,0,P|73:318|48:335,2,112.5,2|0|2,3:2|3:0|3:2,3:3:0:0:
305,334,27972,5,2,3:2:0:0:
256,192,28060,12,6,30066,0:0:0:0:
165,39,30763,6,0,P|185:85|180:126,1,86.2500016450882,6|0,0:0|0:0,0:0:0:0:
149,151,31025,1,0,0:0:0:0:
149,151,31112,2,0,P|208:129|259:131,1,86.2500016450882,8|0,0:0|0:0,0:0:0:0:
273,146,31374,1,0,0:0:0:0:
273,146,31461,1,2,3:2:0:0:
341,83,31635,1,0,0:0:0:0:
392,158,31810,1,8,0:0:0:0:
322,265,31984,6,0,P|223:258|146:264,1,172.500003290176,2|0,3:2|0:0,0:0:0:0:
123,288,32420,1,0,0:0:0:0:
123,288,32507,1,8,0:0:0:0:
230,245,32682,2,0,P|253:175|201:86,1,172.500003290176,0|0,0:0|3:0,0:0:0:0:
170,80,33118,1,0,3:0:0:0:
170,80,33205,2,0,L|175:25,2,43.1250008225441,8|0|0,0:0|3:0|3:0,0:0:0:0:
99,126,33554,6,0,L|112:223,1,86.2500016450882,2|0,3:2|0:0,0:0:0:0:
95,237,33816,1,0,0:0:0:0:
95,237,33903,2,0,L|195:225,1,86.2500016450882,8|0,0:0|0:0,0:0:0:0:
211,248,34164,1,0,0:0:0:0:
211,248,34252,2,0,L|201:344,2,86.2500016450882,2|0|8,3:2|3:0|0:0,0:0:0:0:
295,229,34775,1,0,0:0:0:0:
374,321,34949,6,0,P|423:302|446:266,1,86.2500016450882,2|0,3:2|0:0,0:0:0:0:
449,238,35211,1,0,0:0:0:0:
449,238,35298,2,0,L|446:137,1,86.2500016450882,8|0,0:0|0:0,0:0:0:0:
438,52,35647,1,2,3:2:0:0:
346,76,35821,1,2,3:2:0:0:
346,76,35909,1,2,3:2:0:0:
346,76,35996,2,0,L|288:70,2,43.1250008225441,8|2|2,0:0|3:2|3:2,0:0:0:0:
305,168,36345,6,0,L|178:161,1,86.2500016450882,6|0,0:0|0:0,0:0:0:0:
185,186,36606,1,0,0:0:0:0:
185,186,36693,2,0,L|93:179,1,86.2500016450882,8|0,0:0|0:0,0:0:0:0:
74,150,36955,1,0,0:0:0:0:
74,150,37042,2,0,P|86:209|81:262,1,86.2500016450882,2|0,3:2|0:0,0:0:0:0:
65,319,37391,1,8,0:0:0:0:
174,270,37566,6,0,B|263:257|228:340|323:345,1,172.500003290176,2|0,3:2|0:0,0:0:0:0:
345,322,38002,1,0,0:0:0:0:
345,322,38089,1,8,0:0:0:0:
434,229,38263,2,0,B|368:182|368:182|258:178,1,172.500003290176,0|0,0:0|0:0,0:0:0:0:
191,135,38786,2,0,P|179:72|196:40,1,86.2500016450882,8|0,0:0|0:0,0:0:0:0:
292,55,39135,5,2,3:2:0:0:
292,55,39310,2,0,P|278:146|283:229,1,172.500003290176,2|2,3:2|3:2,0:0:0:0:
309,249,39746,1,2,3:2:0:0:
309,249,39833,2,0,L|379:246,2,43.1250008225441,2|0|0,3:2|0:0|3:0,0:0:0:0:
196,249,40182,1,8,0:0:0:0:
119,338,40356,6,0,L|304:325,1,172.500003290176,0|0,3:0|3:0,0:0:0:0:
314,348,40792,1,0,3:0:0:0:
314,348,40879,2,0,L|414:342,1,86.2500016450882,8|2,0:0|3:2,0:0:0:0:
445,264,41228,1,8,0:0:0:0:
378,201,41403,2,0,L|385:141,1,43.1250008225441,10|0,3:2|0:0,0:0:0:0:
401,126,41577,2,0,L|395:77,2,43.1250008225441,10|10|10,3:2|3:2|3:2,0:0:0:0:
288,60,41926,6,0,P|222:69|186:51,1,86.2500016450882,6|0,0:0|0:0,0:0:0:0:
168,41,42188,1,0,0:0:0:0:
168,41,42275,2,0,P|177:110|173:155,1,86.2500016450882,8|0,0:0|3:0,0:0:0:0:
149,151,42536,1,0,3:0:0:0:
149,151,42624,2,0,P|93:163|50:140,1,86.2500016450882,2|0,3:2|3:0,0:0:0:0:
35,77,42972,1,8,0:0:0:0:
9,199,43147,6,0,P|74:152|180:165,1,172.500003290176,2|0,3:2|0:0,0:0:0:0:
190,201,43583,1,0,0:0:0:0:
190,201,43670,2,0,L|179:299,1,86.2500016450882,8|0,0:0|0:0,0:0:0:0:
271,254,44019,1,2,3:2:0:0:
271,254,44193,1,0,3:0:0:0:
176,307,44368,2,0,L|80:300,1,86.2500016450882,8|0,0:0|0:0,0:0:0:0:
54,298,44629,1,0,0:0:0:0:
54,298,44717,6,0,P|73:249|67:207,1,86.2500016450882,2|0,3:2|0:0,0:0:0:0:
65,119,45066,2,0,L|164:125,1,86.2500016450882,8|0,0:0|0:0,0:0:0:0:
178,98,45327,1,0,0:0:0:0:
178,98,45414,2,0,L|283:91,1,86.2500016450882,2|0,3:2|3:0,0:0:0:0:
336,149,45763,1,8,0:0:0:0:
336,149,45938,1,0,0:0:0:0:
285,227,46112,6,0,P|226:224|197:179,1,86.2500016450882,2|0,3:2|0:0,0:0:0:0:
183,181,46374,1,0,0:0:0:0:
183,181,46461,2,0,P|198:238|187:303,1,86.2500016450882,8|0,0:0|0:0,0:0:0:0:
185,299,46722,1,0,0:0:0:0:
185,299,46810,2,0,P|125:299|71:314,1,86.2500016450882,2|2,3:2|3:2,0:0:0:0:
49,228,47159,2,0,L|53:134,1,86.2500016450882,8|2,0:0|3:2,0:0:0:0:
161,56,47507,6,0,P|213:73|276:63,1,86.2500016450882,2|0,3:2|0:0,0:0:0:0:
276,60,47769,1,0,0:0:0:0:
276,60,47856,2,0,P|274:118|289:163,1,86.2500016450882,8|0,0:0|0:0,0:0:0:0:
311,180,48118,1,0,0:0:0:0:
311,180,48205,2,0,P|253:198|226:223,2,86.2500016450882,2|0|8,3:2|0:0|0:0,0:0:0:0:
173,158,48728,6,0,P|221:231|213:323,1,172.500003290176,2|0,3:2|0:0,0:0:0:0:
204,352,49164,1,0,0:0:0:0:
204,352,49252,1,8,0:0:0:0:
127,317,49426,2,0,P|221:299|325:313,1,172.500003290176
344,289,49862,1,0,0:0:0:0:
344,289,49949,2,0,L|356:181,1,86.2500016450882,8|0,0:0|3:0,0:0:0:0:
344,109,50298,5,2,3:2:0:0:
269,62,50472,1,2,3:2:0:0:
209,124,50647,1,8,0:0:0:0:
136,90,50821,2,0,L|139:37,1,43.1250008225441,2|2,3:2|3:2,0:0:0:0:
101,45,50996,2,0,L|40:50,2,43.1250008225441,2|2|2,3:2|3:2|3:2,0:0:0:0:
35,139,51345,2,0,P|57:187|53:234,1,86.2500016450882,8|2,0:0|3:2,0:0:0:0:
26,247,51606,1,0,0:0:0:0:
26,247,51693,6,0,P|92:241|143:254,1,86.2500016450882,2|2,3:2|3:2,0:0:0:0:
179,183,52042,1,8,0:0:0:0:
215,305,52217,2,0,L|265:298,1,43.1250008225441,2|2,3:2|3:2,0:0:0:0:
286,319,52391,2,0,L|297:219,1,86.2500016450882,2|2,3:2|3:2,0:0:0:0:
300,193,52653,1,0,3:0:0:0:
300,193,52740,2,0,P|364:211|404:202,1,86.2500016450882,8|2,0:0|3:2,0:0:0:0:
448,94,53089,6,0,L|456:-6,2,75,6|2|2,0:0|0:0|0:0,0:0:0:0:
391,152,53612,2,0,L|396:226,2,75,6|2|2,0:0|0:0|0:0,0:0:0:0:
330,96,54135,2,0,L|335:21,1,75,6|2,0:0|0:0,0:0:0:0:
253,38,54484,5,10,0:0:0:0:
175,21,54659,1,2,0:0:0:0:
158,98,54833,1,10,0:0:0:0:
237,119,55007,1,2,0:0:0:0:
176,189,55182,2,0,B|110:172|103:244|24:225,2,150,6|6|6,0:0|0:0|0:0,0:0:0:0:
248,236,56045,6,0,P|297:235|330:208,1,75,0|2,0:0|0:0,0:0:0:0:
359,152,56379,1,0,0:0:0:0:
359,152,56545,2,0,P|416:154|456:176,1,75,2|0,0:0|0:0,0:0:0:0:
292,96,56879,6,0,P|288:50|307:15,2,75,6|0|2,0:0|0:0|0:0,0:0:0:0:
209,107,57379,2,0,P|162:99|117:108,2,75,0|2|0,0:0|0:0|0:0,0:0:0:0:
250,211,57879,6,0,L|236:314,2,75,6|0|2,0:0|0:0|0:0,0:0:0:0:
326,178,58379,1,0,0:0:0:0:
326,178,58545,2,0,P|374:205|394:235,1,75
239,285,58879,6,0,P|179:275|137:283,2,75,6|0|2,0:0|0:0|0:0,0:0:0:0:
229,201,59379,2,0,L|241:102,2,75,0|2|0,0:0|0:0|0:0,0:0:0:0:
365,202,59878,6,0,P|422:198|462:177,2,75,6|0|2,0:0|0:0|0:0,0:0:0:0:
285,235,60378,1,0,0:0:0:0:
285,235,60545,2,0,P|233:234|204:216,1,75
121,326,60878,6,0,L|131:232,2,75,6|0|2,0:0|0:0|0:0,0:0:0:0:
197,357,61378,2,0,P|232:367|270:363,2,75,0|2|0,0:0|0:0|0:0,0:0:0:0:
198,208,61878,6,0,L|188:112,2,75,6|2|2,3:2|0:0|0:0,0:0:0:0:
128,251,62378,1,0,0:0:0:0:
128,251,62545,2,0,P|76:253|39:232,1,75
129,133,62878,6,0,B|145:122|145:122|142:63|142:63|160:29,2,100,4|4|4,0:0|0:0|0:0,0:0:0:0:
243,167,63544,2,0,B|259:156|259:156|256:97|256:97|274:63,2,100,4|4|4,0:0|0:0|0:0,0:0:0:0:
309,254,64211,6,0,B|325:265|325:265|322:324|322:324|340:358,2,100,4|4|4,0:0|0:0|0:0,0:0:0:0:
423,220,64877,2,0,B|439:231|439:231|436:290|436:290|454:324,2,100,4|4|4,0:0|0:0|0:0,0:0:0:0:
347,156,65544,5,0,3:2:0:0:
299,67,68545,6,0,L|391:69,1,75,2|0,0:0|0:0,0:0:0:0:
376,150,68893,2,0,L|301:148,1,75,8|0,0:0|0:0,0:0:0:0:
230,195,69242,2,0,P|223:246|238:280,2,75,2|0|8,0:0|0:0|0:0,0:0:0:0:
184,116,69765,6,0,P|123:95|47:146,1,150,2|0,0:0|0:0,0:0:0:0:
94,206,70289,2,0,P|113:253|113:287,2,75,8|0|2,0:0|0:0|0:0,0:0:0:0:
52,135,70812,1,0,0:0:0:0:
213,88,71161,5,0,0:0:0:0:
276,137,71335,2,0,P|322:130|345:107,1,75,2|0,0:0|0:0,0:0:0:0:
390,49,71684,2,0,L|478:58,1,75,8|0,0:0|0:0,0:0:0:0:
477,131,72033,2,0,P|487:177|482:217,1,75,2|0,0:0|0:0,0:0:0:0:
423,261,72382,1,8,0:0:0:0:
423,261,72556,1,0,0:0:0:0:
344,224,72731,6,0,P|293:215|259:223,1,75,2|0,0:0|0:0,0:0:0:0:
206,280,73079,2,0,P|143:277|114:183,1,150,8|8,0:0|0:0,0:0:0:0:
109,126,73603,1,0,0:0:0:0:
109,126,73777,2,0,L|113:36,1,75,2|2,3:2|3:2,0:0:0:0:
190,28,74126,6,0,P|244:41|268:62,1,75,2|0,3:2|0:0,0:0:0:0:
294,122,74475,2,0,P|343:106|375:106,1,75,8|0,0:0|0:0,0:0:0:0:
444,127,74824,2,0,P|453:70|472:38,2,75,2|2|8,3:2|0:0|0:0,0:0:0:0:
386,184,75347,6,0,P|406:247|404:347,1,150,2|0,3:2|0:0,0:0:0:0:
324,310,75870,1,8,0:0:0:0:
250,341,76045,2,0,B|227:326|227:326|127:348|127:348|98:331,1,150,0|0,0:0|0:0,0:0:0:0:
49,277,76568,2,0,L|50:191,1,75,8|0,0:0|3:0,0:0:0:0:
53,53,76917,6,0,B|127:43|130:111|202:105,1,150,6|0,0:0|0:0,0:0:0:0:
257,67,77440,2,0,P|308:65|251:83,1,150,4|0,0:0|0:0,0:0:0:0:
188,105,77963,1,0,0:0:0:0:
58,146,78138,6,0,B|99:178|104:238|104:238|135:226|171:228,1,150,6|0,0:0|0:0,0:0:0:0:
209,274,78661,1,0,0:0:0:0:
289,186,78835,2,0,P|368:189|423:257,1,150,6|6,0:0|0:0,0:0:0:0:
401,265,79271,1,0,0:0:0:0:
401,265,79358,2,0,P|436:235|482:216,1,75,0|0,0:0|0:0,0:0:0:0:
392,158,79707,6,0,B|318:83|356:-9|409:-16|463:6|482:67|448:101,1,300,2|2,0:0|0:0,0:0:0:0:
281,62,80754,6,0,L|178:52,1,86.2500016450882,6|0,0:0|0:0,0:0:0:0:
172,79,81015,1,0,0:0:0:0:
172,79,81102,2,0,P|163:137|181:165,1,86.2500016450882,8|0,0:0|0:0,0:0:0:0:
203,171,81364,1,0,0:0:0:0:
203,171,81451,2,0,P|216:223|203:267,2,86.2500016450882,2|0|8,3:2|0:0|0:0,0:0:0:0:
150,312,81974,6,0,P|248:324|294:256,1,172.500003290176,2|0,3:2|0:0,0:0:0:0:
303,234,82410,1,0,0:0:0:0:
303,234,82498,1,8,0:0:0:0:
255,135,82672,2,0,B|223:124|208:133|208:133|154:185|205:259,1,172.500003290176,0|0,0:0|3:0,0:0:0:0:
171,232,83108,1,0,3:0:0:0:
171,232,83195,2,0,P|117:232|84:246,1,86.2500016450882,8|0,0:0|3:0,0:0:0:0:
31,167,83544,6,0,L|20:68,1,86.2500016450882,2|0,3:2|0:0,0:0:0:0:
53,50,83806,1,0,0:0:0:0:
53,50,83893,2,0,L|148:40,1,86.2500016450882,8|0,0:0|0:0,0:0:0:0:
214,74,84242,1,2,3:2:0:0:
224,155,84416,1,0,3:0:0:0:
312,149,84591,1,8,0:0:0:0:
302,68,84765,1,0,0:0:0:0:
385,100,84940,6,0,P|437:106|465:142,1,86.2500016450882,2|0,3:2|0:0,0:0:0:0:
461,165,85201,1,0,0:0:0:0:
461,165,85288,2,0,L|448:266,1,86.2500016450882,8|0,0:0|0:0,0:0:0:0:
366,296,85637,1,2,3:2:0:0:
288,260,85812,1,2,3:2:0:0:
288,260,85899,1,2,3:2:0:0:
288,260,85986,2,0,L|294:212,2,43.1250008225441,8|2|2,0:0|3:2|3:2,0:0:0:0:
194,322,86335,6,0,P|139:312|97:319,1,86.2500016450882,6|0,0:0|0:0,0:0:0:0:
81,343,86597,1,0,0:0:0:0:
81,343,86684,2,0,L|86:235,1,86.2500016450882,8|0,0:0|0:0,0:0:0:0:
102,215,86945,1,0,0:0:0:0:
102,215,87033,2,0,L|111:116,2,86.2500016450882,2|0|8,3:2|0:0|0:0,0:0:0:0:
191,191,87556,6,0,P|258:215|239:300,1,172.500003290176,2|0,3:2|0:0,0:0:0:0:
207,327,87992,1,0,0:0:0:0:
207,327,88079,1,8,0:0:0:0:
128,253,88254,2,0,P|108:177|195:108,1,172.500003290176,0|0,0:0|0:0,0:0:0:0:
193,87,88690,1,0,0:0:0:0:
193,87,88777,2,0,L|297:92,1,86.2500016450882,8|0,0:0|0:0,0:0:0:0:
404,12,89126,6,0,L|408:122,1,86.2500016450882,2|0,3:2|3:0,0:0:0:0:
438,92,89387,1,0,3:0:0:0:
438,92,89474,2,0,L|490:83,2,43.1250008225441,10|0|0,3:2|3:0|3:0,0:0:0:0:
356,184,89823,2,0,L|241:170,1,86.2500016450882,2|0,3:2|3:0,0:0:0:0:
238,192,90085,1,0,3:0:0:0:
238,192,90172,1,8,0:0:0:0:
377,271,90347,6,0,L|183:282,1,172.500003290176,0|0,3:0|3:0,0:0:0:0:
168,259,90783,1,0,3:0:0:0:
168,259,90870,1,8,0:0:0:0:
77,188,91044,2,0,P|96:126|43:31,1,172.500003290176,2|2,3:2|3:2,0:0:0:0:
29,55,91480,1,0,0:0:0:0:
29,55,91567,2,0,P|89:58|122:37,1,86.2500016450882,10|2,3:2|3:2,0:0:0:0:
229,32,91916,6,0,L|334:35,1,86.2500016450882,6|0,0:0|0:0,0:0:0:0:
345,52,92178,1,0,0:0:0:0:
345,52,92265,2,0,P|371:101|368:136,1,86.2500016450882,8|0,0:0|0:0,0:0:0:0:
349,153,92527,1,0,0:0:0:0:
349,153,92614,2,0,L|438:145,2,86.2500016450882,2|0|8,3:2|0:0|0:0,0:0:0:0:
218,119,93137,6,0,P|195:194|214:299,1,172.500003290176,2|0,3:2|0:0,0:0:0:0:
247,306,93573,1,0,0:0:0:0:
247,306,93660,1,8,0:0:0:0:
334,377,93835,2,0,B|408:407|416:306|496:328,1,172.500003290176,0|0,0:0|3:0,0:0:0:0:
477,303,94271,1,0,3:0:0:0:
477,303,94358,2,0,P|477:247|466:208,1,86.2500016450882,8|0,0:0|0:0,0:0:0:0:
390,137,94707,6,0,L|284:139,1,86.2500016450882,2|0,3:2|0:0,0:0:0:0:
267,125,94969,1,0,0:0:0:0:
267,125,95056,2,0,L|160:131,1,86.2500016450882,8|0,0:0|0:0,0:0:0:0:
146,154,95317,1,0,0:0:0:0:
146,154,95405,2,0,L|134:246,1,86.2500016450882,2|0,3:2|3:0,0:0:0:0:
208,307,95754,1,8,0:0:0:0:
208,307,95928,1,0,3:0:0:0:
115,342,96102,6,0,P|55:341|23:311,1,86.2500016450882,2|0,3:2|3:0,0:0:0:0:
208,307,96451,2,0,B|292:290|266:373|374:358,1,172.500003290176,8|2,0:0|3:2,0:0:0:0:
359,254,96974,1,2,3:2:0:0:
359,254,97062,1,2,3:2:0:0:
359,254,97149,2,0,L|365:154,1,86.2500016450882,8|2,0:0|3:2,0:0:0:0:
327,57,97498,6,0,P|264:47|228:61,1,86.2500016450882,6|0,0:0|0:0,0:0:0:0:
217,76,97759,1,0,0:0:0:0:
217,76,97847,2,0,P|153:58|111:58,1,86.2500016450882,8|0,0:0|0:0,0:0:0:0:
97,45,98108,1,0,0:0:0:0:
97,45,98195,2,0,P|116:113|118:147,2,86.2500016450882,2|0|8,3:2|3:0|0:0,0:0:0:0:
143,143,98719,6,0,P|91:197|100:304,1,172.500003290176,2|0,3:2|0:0,0:0:0:0:
126,317,99155,1,0,0:0:0:0:
126,317,99242,1,8,0:0:0:0:
237,256,99416,2,0,B|279:250|279:250|377:296|377:296|410:292,1,172.500003290176,2|0,3:2|0:0,0:0:0:0:
430,277,99852,1,0,0:0:0:0:
430,277,99940,2,0,L|429:382,1,86.2500016450882,8|0,0:0|3:0,0:0:0:0:
431,194,100288,5,2,3:2:0:0:
357,125,100463,2,0,L|305:112,1,43.1250008225441,0|0,3:0|3:0,0:0:0:0:
295,139,100637,2,0,L|230:145,2,43.1250008225441,8|0|0,0:0|3:0|3:0,0:0:0:0:
161,104,100986,2,0,L|177:211,1,86.2500016450882,2|0,3:2|3:2,0:0:0:0:
181,222,101248,1,0,3:2:0:0:
181,222,101335,2,0,P|113:218|76:229,1,86.2500016450882,8|0,0:0|3:0,0:0:0:0:
179,336,101684,6,0,L|233:333,1,43.1250008225441,2|0,0:0|3:0,0:0:0:0:
251,307,101858,2,0,L|299:304,1,43.1250008225441,0|0,3:0|3:0,0:0:0:0:
332,331,102033,2,0,L|342:230,1,86.2500016450882,8|0,0:0|3:0,0:0:0:0:
365,204,102294,1,0,3:0:0:0:
365,204,102381,2,0,P|313:211|271:195,1,86.2500016450882,2|0,3:2|3:2,0:0:0:0:
261,163,102643,1,0,3:0:0:0:
261,163,102730,1,8,0:0:0:0:
250,68,102905,2,0,L|201:84,1,43.1250008225441,0|0,3:0|3:0,0:0:0:0:
183,113,103079,6,0,P|122:109|84:124,2,75,6|2|8,0:0|0:0|0:0,0:0:0:0:
226,182,103602,2,0,L|219:272,2,75,2|2|2,0:0|3:2|0:0,0:0:0:0:
306,67,104126,2,0,P|370:72|405:50,1,75,8|2,0:0|0:0,0:0:0:0:
455,34,104474,5,10,0:0:0:0:
447,116,104649,1,2,0:0:0:0:
370,150,104823,1,10,0:0:0:0:
378,68,104998,1,2,0:0:0:0:
284,80,105172,2,0,P|229:59|180:115,1,112.5,6|0,0:0|0:0,0:0:0:0:
159,95,105521,2,0,P|183:146|186:189,1,75,6|0,0:0|0:0,0:0:0:0:
133,283,105870,6,0,L|45:274,2,75,6|2|8,0:0|0:0|0:0,0:0:0:0:
186,346,106393,2,0,L|270:341,2,75,2|2|2,0:0|3:2|0:0,0:0:0:0:
324,284,106916,2,0,L|423:293,1,75,8|2,0:0|0:0,0:0:0:0:
447,224,107265,5,10,0:0:0:0:
429,143,107440,1,2,0:0:0:0:
365,205,107614,1,10,0:0:0:0:
347,124,107789,1,2,3:2:0:0:
274,183,107963,2,0,P|211:161|184:107,1,112.5,6|0,0:0|0:0,0:0:0:0:
179,97,108312,2,0,P|130:124|94:122,1,75,6|0,0:0|0:0,0:0:0:0:
239,39,108660,6,0,P|302:50|329:64,2,75,6|2|8,0:0|0:0|0:0,0:0:0:0:
179,97,109184,2,0,P|130:124|94:122,2,75,2|2|2,0:0|3:2|0:0,0:0:0:0:
269,125,109707,2,0,L|264:215,1,75,8|2,0:0|0:0,0:0:0:0:
203,251,110056,5,10,0:0:0:0:
123,240,110230,1,2,0:0:0:0:
113,320,110405,1,10,0:0:0:0:
193,331,110579,1,2,0:0:0:0:
277,298,110754,1,6,0:0:0:0:
277,298,110928,2,0,P|347:302|389:230,1,150,0|0,0:0|0:0,0:0:0:0:
324,114,111451,6,0,P|276:109|235:124,2,75,6|0|2,0:0|0:0|0:0,0:0:0:0:
383,59,111974,1,0,0:0:0:0:
383,59,112149,1,2,0:0:0:0:
308,138,112323,6,0,P|236:137|195:54,2,150,6|6|0,0:0|0:0|0:0,0:0:0:0:
343,154,113108,1,2,0:0:0:0:
343,154,113195,2,0,P|350:231|344:253,1,75,2|6,0:0|3:2,0:0:0:0:
283,288,113544,2,0,L|188:279,2,75,2|2|2,0:0|0:0|0:0,0:0:0:0:
148,333,114067,6,0,B|93:346|93:346|98:221,1,150,6|0,0:0|3:0,0:0:0:0:
101,206,114502,1,0,0:0:0:0:
101,206,114589,1,0,3:0:0:0:
195,126,114764,2,0,P|252:142|272:166,2,75,6|0|0,0:0|3:0|3:2,0:0:0:0:
96,78,115287,6,0,L|94:-14,2,75,6|0|0,3:2|3:0|3:2,0:0:0:0:
33,162,115810,2,0,L|25:259,2,75,6|0|0,3:2|3:0|3:2,0:0:0:0:
131,221,116334,6,0,P|173:207|243:223,2,100,4|4|4,0:0|0:0|0:0,0:0:0:0:
185,114,117000,2,0,P|171:72|187:2,2,100,4|4|4,0:0|0:0|0:0,0:0:0:0:
305,107,117667,6,0,P|347:121|417:105,2,100,4|4|4,0:0|0:0|0:0,0:0:0:0:
359,214,118333,2,0,P|345:256|361:326,2,100,4|4|4,0:0|0:0|0:0,0:0:0:0:
105,321,119334,5,14,0:0:0:0:
