osu file format v14

[General]
AudioFilename: audio1.mp3
AudioLeadIn: 0
PreviewTime: 30680
Countdown: 0
SampleSet: Soft
StackLeniency: 0.4
Mode: 0
LetterboxInBreaks: 0
WidescreenStoryboard: 0

[Editor]
Bookmarks: 41926,53089,56233,57883,72037,126873
DistanceSpacing: 1.4
BeatDivisor: 4
GridSize: 4
TimelineZoom: 2.599999

[Metadata]
Title:TONDEMO-WONDERZ
TitleUnicode:トンデモワンダーズ
Artist:Wonderlands x Showtime
ArtistUnicode:ワンダーランズ×ショウタイム
Creator:sahuang
Version:Imakuri's MASTER
Source:プロジェクトセカイ カラフルステージ! feat. 初音ミク
Tags:Project SEKAI COLORFUL STAGE rhythm mobile game sasakure.UK Hatsune Miku 初音ミク KAITO Frey Imakuri Regraz Mafumafu _Stan My_Angel_Azusa vocaloid japanese pop jpop プロセカ puroseka 草薙寧々 kusanagi nene 天馬司 tenma tsukasa 鳳えむ otori emu 神代類 kamishiro rui
BeatmapID:3164480
BeatmapSetID:1547596

[Difficulty]
HPDrainRate:6
CircleSize:4
OverallDifficulty:9
ApproachRate:9
SliderMultiplier:1.8
SliderTickRate:1

[Events]
//Background and Video events
0,0,"Eu5ojMoXYAEecam.jpg",0,0
//Break Periods
//Storyboard Layer 0 (Background)
//Storyboard Layer 1 (Fail)
//Storyboard Layer 2 (Pass)
//Storyboard Layer 3 (Foreground)
//Storyboard Layer 4 (Overlay)
//Storyboard Sound Samples

[TimingPoints]
66,348.837209302326,4,2,1,70,1,0
66,-133.333333333333,4,2,1,70,0,0
938,-200,4,2,1,65,0,0
1199,-200,4,2,1,5,0,0
1286,-125,4,2,1,75,0,0
2682,-100,4,2,1,75,0,0
5647,-100,4,2,1,75,0,0
16810,-111.111111111111,4,2,1,75,0,0
20996,-133.333333333333,4,2,1,75,0,0
21257,-133.333333333333,4,2,1,5,0,0
21345,-100,4,2,1,80,0,0
21606,-100,4,2,1,5,0,0
21693,-80,4,2,1,80,0,0
21955,-80,4,2,1,5,0,0
22042,-66.6666666666667,4,2,1,80,0,0
22304,-66.6666666666667,4,2,1,5,0,0
22391,-111.111111111111,4,2,1,80,0,0
24833,-80,4,2,1,80,0,0
25182,-100,4,2,1,80,0,0
27972,-83.3333333333333,4,2,1,60,0,0
30763,-83.3333333333333,4,2,1,80,0,1
53089,-80,4,2,1,80,0,0
55182,-133.333333333333,4,2,1,80,0,0
55531,-66.6666666666667,4,2,1,80,0,0
55879,333.333333333333,3,2,1,70,1,0
55879,-100,3,2,1,70,0,0
59878,-100,3,2,1,70,0,0
61212,-166.666666666667,3,2,1,70,0,0
61545,-250,3,2,1,70,0,0
61878,-100,3,2,1,70,0,0
62878,333.333333333333,4,2,1,60,1,0
62878,-80,4,2,1,60,0,0
64211,-125,4,2,1,60,0,0
64878,-166.666666666667,4,2,1,60,0,0
65544,375,4,2,1,60,1,0
68545,348.837209302326,4,2,1,70,1,0
68545,-133.333333333333,4,2,1,70,0,0
74126,-111.111111111111,4,2,1,70,0,0
78138,-83.3333333333333,4,2,1,70,0,0
79184,-62.5,4,2,1,70,0,0
79707,348.837209302326,3,2,1,80,1,0
79707,-90.9090909090909,3,2,1,80,0,0
80754,348.837209302326,4,2,1,80,1,0
80754,-76.9230769230769,4,2,1,80,0,1
103079,-83.3333333333333,4,2,1,80,0,0
111451,-111.111111111111,4,2,1,80,0,0
114241,348.837209302326,3,2,1,80,1,0
114764,-125,3,2,1,80,0,0
115287,-133.333333333333,3,2,1,80,0,0
115810,-166.666666666667,3,2,1,80,0,0
116334,333.333333333333,4,2,1,50,1,0
116334,-100,4,2,1,50,0,0

[Colours]
Combo1 : 227,233,22
Combo2 : 128,128,255
Combo3 : 18,124,255
Combo4 : 159,98,168
SliderBorder : 0,125,251
SliderTrackOverride : 192,192,192

[HitObjects]
156,222,66,5,6,0:0:0:0:
84,141,240,1,0,0:0:0:0:
140,50,414,1,2,0:0:0:0:
253,78,589,1,0,0:0:0:0:
265,169,763,1,2,0:0:0:0:
265,169,938,6,0,P|299:169|333:178,1,67.5,6|0,0:0|0:0,0:0:0:0:
367,255,1286,6,0,B|379:162|379:162|361:107,1,144,6|0,0:0|0:0,0:0:0:0:
333,46,1722,1,2,0:0:0:0:
333,46,1810,1,2,0:0:0:0:
111,120,1984,1,4,0:0:0:0:
283,182,2159,1,2,0:0:0:0:
163,21,2333,1,2,0:0:0:0:
106,236,2507,1,2,0:0:0:0:
253,97,2682,6,0,P|206:67|110:94,1,135,6|0,0:0|0:0,0:0:0:0:
60,121,3031,1,0,3:0:0:0:
212,240,3205,1,0,3:0:0:0:
376,87,3379,2,0,B|407:69|402:26|402:26|343:20|336:53,1,135,6|0,0:0|0:0,0:0:0:0:
298,110,3728,1,0,3:0:0:0:
212,240,3903,2,0,B|198:263|240:302|240:302|280:259|265:237,1,135,6|0,3:2|0:0,0:0:0:0:
253,172,4252,1,0,3:0:0:0:
376,337,4426,5,6,3:2:0:0:
166,357,4600,1,0,3:0:0:0:
253,172,4775,1,0,3:0:0:0:
417,251,4949,6,0,L|322:244,1,60,6|0,3:2|0:0,0:0:0:0:
253,172,5182,2,0,L|338:164,1,60,6|0,3:2|0:0,0:0:0:0:
372,83,5414,1,6,3:2:0:0:
372,83,5647,6,0,P|320:70|274:86,1,90,2|0,3:2|0:0,0:0:0:0:
211,109,5909,1,0,0:0:0:0:
211,109,5996,1,8,0:0:0:0:
107,67,6170,1,0,0:0:0:0:
46,213,6345,1,2,3:2:0:0:
46,213,6432,1,0,0:0:0:0:
46,213,6519,2,0,L|140:204,1,90,0|8,0:0|0:0,0:0:0:0:
244,306,6868,1,0,0:0:0:0:
330,194,7042,6,0,P|343:144|325:90,1,90,2|0,3:2|0:0,0:0:0:0:
293,41,7304,1,0,0:0:0:0:
293,41,7391,2,0,L|231:36,1,45,8|0,0:0|0:0,0:0:0:0:
111,202,7566,2,0,L|171:195,1,45,0|0,0:0|0:0,0:0:0:0:
239,187,7740,1,2,3:2:0:0:
87,66,7914,1,0,0:0:0:0:
87,66,8002,1,0,0:0:0:0:
87,66,8089,1,8,0:0:0:0:
48,278,8263,1,0,0:0:0:0:
187,95,8438,6,0,L|280:89,1,90,2|0,3:2|0:0,0:0:0:0:
357,85,8699,1,0,0:0:0:0:
357,85,8786,1,8,0:0:0:0:
259,217,8961,1,0,0:0:0:0:
382,378,9135,1,2,3:2:0:0:
382,378,9222,1,0,0:0:0:0:
382,378,9310,2,0,P|391:322|375:284,1,90,0|8,0:0|0:0,0:0:0:0:
259,217,9659,1,0,0:0:0:0:
82,359,9833,6,0,P|137:360|171:328,1,90,2|0,3:2|0:0,0:0:0:0:
214,285,10095,1,0,0:0:0:0:
214,285,10182,1,8,0:0:0:0:
33,208,10356,1,0,0:0:0:0:
169,111,10531,2,0,P|181:57|168:16,2,90,2|0|8,3:2|0:0|0:0,0:0:0:0:
108,263,11054,1,0,0:0:0:0:
108,263,11141,1,0,0:0:0:0:
108,263,11228,5,2,3:2:0:0:
288,347,11403,2,0,L|233:357,1,45,0|0,0:0|0:0,0:0:0:0:
170,368,11577,1,8,0:0:0:0:
276,210,11752,2,0,P|329:208|371:241,1,90,0|2,0:0|3:2,0:0:0:0:
418,283,12013,1,0,0:0:0:0:
418,283,12100,1,0,0:0:0:0:
310,100,12275,1,8,0:0:0:0:
305,291,12449,1,0,0:0:0:0:
478,168,12624,5,2,3:2:0:0:
443,171,12711,1,0,3:0:0:0:
408,174,12798,1,0,3:0:0:0:
374,176,12885,1,0,3:0:0:0:
339,180,12972,2,0,L|245:184,1,90,8|0,0:0|0:0,0:0:0:0:
65,141,13321,2,0,P|54:91|65:50,1,90,2|0,3:2|0:0,0:0:0:0:
233,166,13583,1,0,0:0:0:0:
249,183,13670,2,0,P|260:233|249:274,1,90,8|0,0:0|0:0,0:0:0:0:
96,318,14019,6,0,P|136:325|151:325,1,45,2|0,3:2|0:0,0:0:0:0:
206,276,14193,2,0,P|241:269|262:270,1,45,0|0,0:0|0:0,0:0:0:0:
336,340,14368,1,8,0:0:0:0:
381,135,14542,2,0,L|371:83,1,45,0|0,0:0|0:0,0:0:0:0:
291,70,14717,2,0,L|299:122,1,45,2|0,3:2|0:0,0:0:0:0:
315,199,14891,1,0,0:0:0:0:
440,268,15066,1,8,0:0:0:0:
373,91,15240,1,0,0:0:0:0:
289,285,15414,6,0,P|218:285|191:258,1,90,2|2,3:2|0:0,0:0:0:0:
109,54,15763,2,0,P|155:76|173:112,1,90,8|2,0:0|0:0,0:0:0:0:
28,291,16025,1,0,0:0:0:0:
28,291,16112,2,0,P|31:235|81:209,1,90,2|0,3:2|3:0,0:0:0:0:
201,362,16461,2,0,L|105:356,1,90,8|0,0:0|3:0,0:0:0:0:
255,268,16810,5,2,0:0:0:0:
255,268,16984,1,0,0:0:0:0:
340,216,17159,2,0,L|330:131,1,80.9999975280763,0|0,0:0|0:0,0:0:0:0:
380,36,17507,2,0,P|413:34|461:73,1,80.9999975280763,2|0,0:0|0:0,0:0:0:0:
496,164,17856,1,2,0:0:0:0:
292,348,18031,6,0,P|334:309|445:330,1,161.999995056153,0|0,0:0|0:0,0:0:0:0:
330,193,18728,1,0,0:0:0:0:
330,193,18903,2,0,L|242:187,1,80.9999975280763,2|0,0:0|0:0,0:0:0:0:
103,303,19252,2,0,L|183:292,1,80.9999975280763,2|0,0:0|0:0,0:0:0:0:
61,168,19600,6,0,B|42:129|42:129|66:30,2,121.499996292114,2|0|0,0:0|0:0|0:0,0:0:0:0:
128,234,20298,1,0,3:0:0:0:
193,131,20472,1,2,0:0:0:0:
259,286,20647,2,0,L|348:277,1,80.9999975280763,0|2,3:0|0:0,0:0:0:0:
384,153,20996,6,0,P|359:116|343:156,1,101.250003862381,6|0,0:0|0:0,0:0:0:0:
340,151,21345,6,0,P|364:103|384:153,1,135,6|0,0:0|0:0,0:0:0:0:
384,153,21693,6,0,P|356:92|342:153,1,168.75,6|0,0:0|0:0,0:0:0:0:
336,147,22042,6,0,P|368:77|384:153,1,202.500007724762,6|0,0:0|0:0,0:0:0:0:
348,238,22391,5,2,3:2:0:0:
348,238,22566,1,0,0:0:0:0:
389,324,22740,2,0,L|477:317,1,80.9999975280763,2|0,0:0|0:0,0:0:0:0:
348,238,23089,2,0,L|262:245,1,80.9999975280763,2|0,3:2|0:0,0:0:0:0:
169,323,23438,1,0,0:0:0:0:
79,238,23612,6,0,P|58:159|114:89,1,161.999995056153,2|0,0:0|0:0,0:0:0:0:
282,139,24135,1,0,3:0:0:0:
146,176,24310,1,0,0:0:0:0:
248,53,24484,2,0,L|337:59,1,80.9999975280763,2|2,3:2|3:2,0:0:0:0:
402,118,24746,1,0,0:0:0:0:
402,118,24833,6,0,B|396:240|396:240|354:212,1,168.75,6|0,0:0|0:0,0:0:0:0:
289,172,25182,6,0,L|226:167,3,45,2|0|0|0,3:2|0:0|3:0|3:0,0:0:0:0:
189,243,25531,2,0,L|129:252,3,45,2|0|0|0,3:2|3:0|3:0|3:0,0:0:0:0:
67,194,25879,2,0,P|58:150|60:125,3,45,2|0|0|0,3:2|3:0|3:0|3:0,3:3:0:0:
145,96,26228,2,0,P|150:52|148:37,3,45,2|0|2|0,3:2|3:0|3:2|3:0,3:3:0:0:
227,13,26577,6,0,L|291:4,1,45,2|0,3:2|3:0,0:0:0:0:
425,167,26752,2,0,L|357:162,1,45,0|0,3:0|3:0,0:0:0:0:
257,45,26926,2,0,L|321:36,1,45,2|0,3:2|3:0,3:3:0:0:
455,203,27101,2,0,L|387:198,1,45,0|0,3:0|3:0,0:0:0:0:
282,75,27275,2,0,L|346:66,1,45,2|0,3:2|3:0,0:0:0:0:
480,233,27450,2,0,L|412:228,1,45,0|0,3:0|3:0,0:0:0:0:
305,103,27624,2,0,L|369:94,1,45,2|0,3:2|3:0,3:3:0:0:
503,261,27799,2,0,L|435:256,1,45,2|0,3:2|3:0,3:3:0:0:
324,342,27972,5,2,3:2:0:0:
329,306,28060,1,2,3:2:0:0:
333,268,28147,2,0,L|339:215,1,53.9999983520508,2|2,3:2|3:2,0:0:0:0:
187,41,28321,5,2,3:2:0:0:
182,77,28409,1,2,3:2:0:0:
178,115,28496,2,0,L|171:173,1,53.9999983520508,2|2,3:2|3:2,0:0:0:0:
401,97,28670,5,2,3:2:0:0:
366,101,28757,1,2,3:2:0:0:
332,104,28845,2,0,L|278:109,1,53.9999983520508,2|2,3:2|3:2,0:0:0:0:
110,286,29019,5,2,3:2:0:0:
145,282,29106,1,2,3:2:0:0:
179,279,29194,2,0,L|233:274,1,53.9999983520508,2|2,3:2|3:2,0:0:0:0:
327,195,29368,5,2,3:0:0:0:
342,144,29455,1,2,3:2:0:0:
325,93,29542,1,2,3:2:0:0:
282,62,29629,1,2,3:2:0:0:
229,62,29716,1,2,3:0:0:0:
185,93,29804,1,2,3:2:0:0:
168,143,29891,1,2,3:2:0:0:
183,194,29978,1,2,3:2:0:0:
221,227,30066,6,0,P|258:186|231:74,1,161.999995056153,6|0,0:0|0:0,0:0:0:0:
229,62,30414,1,2,0:0:0:0:
141,363,30763,6,0,P|189:371|260:330,1,107.999996704102,6|0,0:0|0:0,0:0:0:0:
91,150,31025,1,0,0:0:0:0:
75,182,31112,2,0,P|57:238|85:299,1,107.999996704102,8|0,0:0|0:0,0:0:0:0:
291,241,31374,1,0,0:0:0:0:
291,210,31461,2,0,P|268:157|215:124,1,107.999996704102,2|0,3:2|0:0,0:0:0:0:
170,237,31810,1,8,0:0:0:0:
340,337,31984,6,0,B|484:326|484:326|416:281,1,215.999993408203,2|0,3:2|0:0,0:0:0:0:
308,191,32420,1,0,0:0:0:0:
308,191,32507,2,0,P|291:119|322:67,1,107.999996704102,8|0,0:0|0:0,0:0:0:0:
431,181,32856,1,2,3:2:0:0:
283,301,33031,2,0,L|204:297,1,53.9999983520508,0|0,3:0|3:0,0:0:0:0:
189,297,33205,1,8,0:0:0:0:
139,278,33292,1,0,3:0:0:0:
116,230,33379,1,0,3:0:0:0:
131,180,33466,1,0,3:0:0:0:
174,151,33554,5,2,3:2:0:0:
298,289,33728,1,0,0:0:0:0:
390,111,33903,1,8,0:0:0:0:
189,297,34077,1,0,0:0:0:0:
403,321,34252,1,2,3:2:0:0:
313,133,34426,1,0,3:0:0:0:
313,133,34513,1,0,3:0:0:0:
313,133,34600,2,0,L|320:16,1,107.999996704102,8|0,0:0|0:0,0:0:0:0:
222,227,34949,6,0,L|234:345,1,107.999996704102,2|0,3:2|0:0,0:0:0:0:
414,143,35298,2,0,P|359:122|294:146,1,107.999996704102,8|0,0:0|0:0,0:0:0:0:
168,231,35647,2,0,L|238:225,1,53.9999983520508,2|0,3:2|0:0,0:0:0:0:
264,220,35821,1,2,3:2:0:0:
294,176,35908,1,2,3:2:0:0:
294,123,35995,1,8,0:0:0:0:
264,79,36082,1,2,3:2:0:0:
215,59,36169,1,2,3:2:0:0:
163,71,36257,1,0,3:0:0:0:
132,112,36345,6,0,P|122:167|153:219,1,107.999996704102,6|0,0:0|0:0,0:0:0:0:
349,64,36606,1,0,0:0:0:0:
329,38,36693,2,0,P|283:9|210:28,1,107.999996704102,8|0,0:0|0:0,0:0:0:0:
246,246,36955,1,0,0:0:0:0:
283,247,37042,2,0,P|329:241|370:190,1,107.999996704102,2|0,3:2|0:0,0:0:0:0:
257,131,37391,1,8,0:0:0:0:
85,310,37566,6,0,B|143:285|185:325|185:325|187:265|247:245,1,215.999993408203,2|0,3:2|0:0,0:0:0:0:
394,352,38002,1,0,0:0:0:0:
394,352,38089,2,0,L|262:334,1,107.999996704102,8|0,0:0|0:0,0:0:0:0:
142,218,38438,1,2,3:2:0:0:
268,78,38612,2,0,L|276:141,1,53.9999983520508,0|0,0:0|0:0,0:0:0:0:
289,212,38786,1,8,0:0:0:0:
161,99,38961,1,0,0:0:0:0:
330,21,39135,6,0,L|404:27,3,53.9999983520508,2|2|2|2,3:2|3:2|3:2|3:2,0:0:0:0:
423,100,39484,2,0,L|488:103,3,53.9999983520508,10|2|2|2,3:2|3:2|3:2|3:2,0:0:0:0:
364,167,39833,2,0,L|294:172,3,53.9999983520508,2|0|0|0,3:2|0:0|3:0|0:0,0:0:0:0:
277,245,40182,2,0,L|213:252,3,53.9999983520508,8|0|0|0,0:0|0:0|3:0|0:0,0:0:0:0:
391,337,40531,5,0,3:0:0:0:
391,337,40618,1,0,3:0:0:0:
391,337,40705,2,0,P|395:294|390:265,1,53.9999983520508,0|0,3:0|3:0,0:0:0:0:
310,170,40879,1,8,0:0:0:0:
310,170,40966,1,0,0:0:0:0:
310,170,41053,2,0,P|305:143|307:116,1,53.9999983520508,2|0,3:2|0:0,0:0:0:0:
262,44,41228,5,8,0:0:0:0:
214,18,41315,1,0,0:0:0:0:
161,17,41402,1,10,3:2:0:0:
113,40,41489,1,0,0:0:0:0:
80,83,41576,1,10,3:2:0:0:
71,136,41664,1,10,3:2:0:0:
86,187,41751,1,10,3:2:0:0:
123,226,41838,1,10,3:2:0:0:
173,242,41926,6,0,P|223:247|282:214,1,107.999996704102,6|0,0:0|0:0,0:0:0:0:
400,65,42188,1,0,0:0:0:0:
363,74,42275,2,0,P|318:119|315:185,1,107.999996704102,8|0,0:0|3:0,0:0:0:0:
397,365,42536,1,0,3:0:0:0:
413,336,42624,2,0,P|415:310|400:270,1,53.9999983520508,2|0,3:2|3:0,0:0:0:0:
349,225,42798,1,0,3:0:0:0:
254,355,42972,1,8,0:0:0:0:
116,223,43147,6,0,B|186:214|206:134|206:134|232:183|286:174,1,215.999993408203,2|0,3:2|0:0,0:0:0:0:
329,13,43583,1,0,0:0:0:0:
329,13,43670,2,0,P|285:60|274:112,1,107.999996704102,8|0,0:0|0:0,0:0:0:0:
366,267,44019,1,2,3:2:0:0:
493,167,44193,2,0,L|411:174,1,53.9999983520508,0|0,3:0|3:0,0:0:0:0:
392,176,44368,1,8,0:0:0:0:
339,180,44455,1,0,0:0:0:0:
294,152,44542,1,0,0:0:0:0:
274,103,44629,1,0,0:0:0:0:
289,54,44717,5,2,3:2:0:0:
489,25,44891,1,0,0:0:0:0:
229,0,45066,1,8,0:0:0:0:
334,193,45240,1,0,0:0:0:0:
410,39,45414,1,2,3:2:0:0:
479,261,45589,1,0,3:0:0:0:
479,261,45676,1,0,3:0:0:0:
479,261,45763,2,0,B|495:300|495:300|480:370,1,107.999996704102,8|0,0:0|0:0,0:0:0:0:
339,180,46112,6,0,B|323:141|323:141|338:71,1,107.999996704102,2|0,3:2|0:0,0:0:0:0:
403,265,46461,2,0,P|347:291|289:276,1,107.999996704102,8|0,0:0|0:0,0:0:0:0:
104,157,46810,2,0,P|131:155|162:166,1,53.9999983520508,2|0,3:2|0:0,0:0:0:0:
192,184,46984,1,2,3:2:0:0:
218,227,47071,1,2,3:2:0:0:
216,281,47158,1,8,0:0:0:0:
185,324,47245,1,2,3:2:0:0:
135,344,47332,1,2,3:2:0:0:
83,334,47420,1,0,0:0:0:0:
44,303,47507,6,0,P|17:253|23:186,1,107.999996704102,2|0,3:2|0:0,0:0:0:0:
240,140,47769,1,0,0:0:0:0:
227,175,47856,2,0,P|193:219|133:227,1,107.999996704102,8|0,0:0|0:0,0:0:0:0:
21,18,48118,1,0,0:0:0:0:
47,32,48205,2,0,P|93:68|101:134,1,107.999996704102,2|0,3:2|0:0,0:0:0:0:
82,232,48554,1,8,0:0:0:0:
307,114,48728,6,0,B|249:82|202:116|202:116|151:151|89:103,1,215.999993408203,2|0,3:2|0:0,0:0:0:0:
254,186,49164,1,0,0:0:0:0:
254,186,49252,2,0,P|269:248|253:295,1,107.999996704102,8|0,0:0|0:0,0:0:0:0:
175,360,49600,1,2,3:2:0:0:
344,266,49775,2,0,L|406:269,1,53.9999983520508,0|0,0:0|0:0,0:0:0:0:
480,273,49949,1,8,0:0:0:0:
356,369,50124,1,0,3:0:0:0:
268,196,50298,6,0,L|275:138,3,53.9999983520508,2|0|2|2,3:2|0:0|3:2|3:2,0:0:0:0:
201,98,50647,2,0,L|214:33,3,53.9999983520508,8|2|2|2,0:0|3:2|3:2|3:2,0:0:0:0:
123,18,50996,2,0,L|55:22,3,53.9999983520508,2|2|2|2,3:2|3:2|3:2|3:2,0:0:0:0:
62,107,51345,2,0,L|-1:112,3,53.9999983520508,8|0|2|0,0:0|0:0|3:2|0:0,0:0:0:0:
134,176,51693,5,2,3:2:0:0:
134,176,51781,1,2,3:2:0:0:
134,176,51868,2,0,L|141:239,1,53.9999983520508,2|0,3:2|0:0,0:0:0:0:
43,349,52042,1,8,0:0:0:0:
43,349,52129,1,2,3:2:0:0:
43,349,52217,2,0,L|47:278,1,53.9999983520508,2|2,3:2|3:2,0:0:0:0:
137,231,52391,5,2,3:2:0:0:
180,262,52478,1,0,3:0:0:0:
233,270,52565,1,2,3:2:0:0:
284,255,52652,1,0,3:0:0:0:
323,218,52739,1,8,0:0:0:0:
342,168,52827,1,2,3:2:0:0:
337,115,52914,1,2,3:2:0:0:
308,70,53001,1,2,3:2:0:0:
264,42,53089,6,0,L|181:46,1,56.25,6|0,0:0|0:0,0:0:0:0:
123,46,53263,1,2,0:0:0:0:
233,270,53438,1,2,0:0:0:0:
296,114,53612,6,0,L|213:118,1,56.25,6|0,0:0|0:0,0:0:0:0:
155,118,53786,1,2,0:0:0:0:
265,342,53961,1,2,0:0:0:0:
416,207,54135,6,0,L|420:132,1,56.25,6|0,0:0|0:0,0:0:0:0:
421,59,54310,1,2,0:0:0:0:
278,203,54484,5,10,0:0:0:0:
456,298,54659,1,2,0:0:0:0:
325,90,54833,1,10,0:0:0:0:
265,342,55007,1,2,0:0:0:0:
469,184,55182,6,0,P|426:174|371:209,1,101.250003862381,6|0,0:0|0:0,0:0:0:0:
346,236,55531,2,0,P|296:297|276:204,1,202.500007724762,6|0,0:0|0:0,0:0:0:0:
308,145,55879,6,0,L|294:52,2,90,6|0|2,0:0|0:0|0:0,0:0:0:0:
260,215,56379,1,0,0:0:0:0:
177,174,56545,1,2,0:0:0:0:
260,215,56712,1,0,0:0:0:0:
134,257,56879,6,0,L|123:352,2,90,6|0|2,0:0|0:0|0:0,0:0:0:0:
67,198,57379,1,0,0:0:0:0:
105,116,57545,1,2,0:0:0:0:
67,198,57712,1,0,0:0:0:0:
140,36,57879,6,0,L|248:26,2,90,6|0|2,0:0|0:0|0:0,0:0:0:0:
195,115,58379,1,0,0:0:0:0:
229,27,58545,1,2,0:0:0:0:
195,115,58712,1,0,0:0:0:0:
327,53,58879,6,0,L|417:41,2,90,6|0|2,0:0|0:0|0:0,0:0:0:0:
292,137,59379,1,0,0:0:0:0:
338,217,59545,1,2,0:0:0:0:
292,137,59712,1,0,0:0:0:0:
198,349,59878,6,0,P|144:354|99:333,2,90,6|0|2,0:0|0:0|0:0,0:0:0:0:
292,289,60378,1,0,0:0:0:0:
385,350,60545,1,2,0:0:0:0:
292,289,60712,1,2,0:0:0:0:
470,283,60878,6,0,P|478:221|460:177,2,90,6|0|2,0:0|0:0|0:0,0:0:0:0:
385,350,61378,1,0,0:0:0:0:
292,289,61545,1,2,0:0:0:0:
385,350,61712,1,0,0:0:0:0:
173,226,61878,6,0,L|176:157,1,45,6|0,3:2|0:0,0:0:0:0:
359,42,62045,2,0,L|358:107,1,45,2|0,0:0|0:0,0:0:0:0:
165,40,62212,2,0,L|218:43,1,45,2|0,0:0|0:0,0:0:0:0:
359,239,62378,2,0,L|301:236,1,45,2|0,0:0|0:0,0:0:0:0:
264,231,62545,1,2,0:0:0:0:
219,227,62628,1,0,0:0:0:0:
174,223,62711,1,2,0:0:0:0:
129,219,62795,1,0,0:0:0:0:
80,213,62878,6,0,P|66:257|89:312,1,75,4|0,0:0|0:0,0:0:0:0:
128,325,63100,2,0,P|75:294|68:276,1,75,4|0,0:0|0:0,0:0:0:0:
80,213,63322,2,0,P|66:257|89:312,1,75,4|0,0:0|0:0,0:0:0:0:
150,172,63544,6,0,P|164:128|141:73,1,75,4|0,0:0|0:0,0:0:0:0:
102,60,63766,2,0,P|155:91|162:109,1,75,4|0,0:0|0:0,0:0:0:0:
150,172,63988,2,0,P|164:128|141:73,1,75,4|0,0:0|0:0,0:0:0:0:
220,47,64211,6,0,L|280:41,1,48,4|0,0:0|0:0,0:0:0:0:
335,80,64433,2,0,L|382:74,1,48,4|0,0:0|0:0,0:0:0:0:
446,116,64655,2,0,L|501:107,1,48,4|0,0:0|0:0,0:0:0:0:
422,197,64878,6,0,L|427:232,1,35.9999989013672,4|0,0:0|0:0,0:0:0:0:
346,256,65100,2,0,L|353:301,1,35.9999989013672,4|0,0:0|0:0,0:0:0:0:
272,328,65322,2,0,L|281:384,1,35.9999989013672,4|0,0:0|0:0,0:0:0:0:
256,192,65544,12,0,68356,0:0:0:0:
85,192,68545,6,0,P|76:145|81:113,1,67.5000025749208,2|0,0:0|0:0,0:0:0:0:
203,267,68893,2,0,P|211:307|202:352,1,67.5000025749208,8|0,0:0|0:0,0:0:0:0:
90,220,69242,1,2,0:0:0:0:
193,135,69417,1,0,0:0:0:0:
297,226,69591,1,8,0:0:0:0:
297,226,69765,6,0,B|438:205,1,135.000005149842,2|0,0:0|0:0,0:0:0:0:
316,108,70289,1,8,0:0:0:0:
435,205,70463,1,0,0:0:0:0:
316,108,70638,1,2,0:0:0:0:
443,29,70812,2,0,L|438:110,1,67.5000025749208,0|8,0:0|0:0,0:0:0:0:
435,205,71161,1,0,0:0:0:0:
435,205,71248,1,0,0:0:0:0:
435,205,71335,6,0,L|358:212,1,67.5000025749208,2|0,0:0|0:0,0:0:0:0:
231,319,71684,2,0,L|307:315,1,67.5000025749208,8|0,0:0|0:0,0:0:0:0:
170,223,72033,1,2,0:0:0:0:
81,286,72207,1,0,0:0:0:0:
231,319,72382,1,8,0:0:0:0:
186,135,72556,1,0,0:0:0:0:
103,210,72731,6,0,L|196:228,1,67.5000025749208,2|0,0:0|0:0,0:0:0:0:
254,84,73079,2,0,P|225:58|121:80,1,135.000005149842,8|8,0:0|0:0,0:0:0:0:
273,187,73603,1,0,0:0:0:0:
295,185,73690,1,0,0:0:0:0:
318,183,73777,1,2,3:2:0:0:
339,182,73864,1,2,3:2:0:0:
364,180,73951,2,0,L|407:179,1,33.7500012874604,2|2,3:2|3:2,0:0:0:0:
460,134,74126,6,0,L|463:44,1,80.9999975280763,2|0,3:2|0:0,0:0:0:0:
332,6,74475,2,0,L|329:104,1,80.9999975280763,8|0,0:0|0:0,0:0:0:0:
273,187,74824,1,2,3:2:0:0:
201,102,74998,1,2,0:0:0:0:
366,165,75172,1,8,0:0:0:0:
222,262,75347,6,0,L|60:248,1,161.999995056153,2|0,3:2|0:0,0:0:0:0:
273,187,75870,2,0,P|307:218|315:263,1,80.9999975280763,8|0,0:0|0:0,0:0:0:0:
250,354,76219,1,2,3:2:0:0:
396,354,76393,1,0,0:0:0:0:
222,262,76568,1,8,0:0:0:0:
381,150,76742,2,0,L|372:216,1,40.4999987640381,0|0,3:0|0:0,0:0:0:0:
358,271,76917,5,6,0:0:0:0:
283,118,77091,1,0,0:0:0:0:
476,140,77265,1,0,0:0:0:0:
344,283,77440,5,4,0:0:0:0:
269,130,77614,1,0,0:0:0:0:
462,152,77788,1,0,0:0:0:0:
462,152,77963,1,0,0:0:0:0:
329,295,78138,6,0,P|257:247|148:348,1,215.999993408203,6|0,0:0|0:0,0:0:0:0:
247,348,78661,1,0,0:0:0:0:
62,267,78835,2,0,B|94:226|94:226|69:93,1,161.999995056153,6|0,0:0|0:0,0:0:0:0:
70,42,79184,6,0,B|218:-19|192:162|387:43,1,288,6|0,0:0|0:0,0:0:0:0:
327,213,79707,6,0,P|313:268|372:188,1,346.500010574341,2|0,0:0|0:0,0:0:0:0:
345,139,80404,1,2,0:0:0:0:
105,303,80754,6,0,L|245:296,1,116.999994644165,6|0,0:0|0:0,0:0:0:0:
33,107,81015,1,0,0:0:0:0:
21,137,81102,2,0,L|29:258,1,116.999994644165,8|0,0:0|0:0,0:0:0:0:
228,66,81364,1,0,0:0:0:0:
205,43,81451,2,0,L|65:50,1,116.999994644165,2|0,3:2|0:0,0:0:0:0:
212,195,81800,1,8,0:0:0:0:
404,120,81974,6,0,B|332:99|330:35|330:35|291:85|195:58,1,233.999989288331,2|0,3:2|0:0,0:0:0:0:
424,37,82410,1,0,0:0:0:0:
424,37,82498,2,0,P|482:73|491:129,1,116.999994644165,8|0,0:0|0:0,0:0:0:0:
400,306,82847,1,2,3:2:0:0:
224,207,83021,2,0,L|295:197,1,58.4999973220826,0|0,3:0|3:0,0:0:0:0:
328,192,83195,1,8,0:0:0:0:
374,159,83282,1,0,3:0:0:0:
384,104,83369,1,0,3:0:0:0:
353,57,83456,1,0,3:0:0:0:
301,43,83544,5,2,3:2:0:0:
162,272,83719,1,0,0:0:0:0:
86,34,83893,1,8,0:0:0:0:
286,163,84067,1,0,0:0:0:0:
49,257,84242,1,2,3:2:0:0:
283,305,84416,1,0,3:0:0:0:
283,305,84504,1,0,3:0:0:0:
283,305,84591,6,0,L|158:319,1,116.999994644165,8|0,0:0|0:0,0:0:0:0:
278,132,84940,2,0,L|405:144,1,116.999994644165,2|0,3:2|0:0,0:0:0:0:
241,39,85201,1,0,0:0:0:0:
221,56,85288,2,0,P|183:112|196:174,1,116.999994644165,8|0,0:0|0:0,0:0:0:0:
297,272,85637,1,2,3:2:0:0:
99,354,85812,2,0,L|93:288,1,58.4999973220826,2|2,3:2|3:2,0:0:0:0:
91,245,85986,1,8,0:0:0:0:
86,192,86073,1,2,3:2:0:0:
81,139,86160,1,2,3:2:0:0:
76,87,86247,1,0,3:0:0:0:
71,34,86335,6,0,P|131:27|203:65,1,116.999994644165,6|0,0:0|0:0,0:0:0:0:
235,273,86597,1,0,0:0:0:0:
235,237,86684,2,0,P|216:179|235:108,1,116.999994644165,8|0,0:0|0:0,0:0:0:0:
420,26,86945,1,0,0:0:0:0:
391,25,87033,2,0,P|316:64|249:44,1,116.999994644165,2|0,3:2|0:0,0:0:0:0:
153,22,87381,1,8,0:0:0:0:
63,176,87556,6,0,B|137:161|170:215|170:215|202:155|299:164,1,233.999989288331,2|0,3:2|0:0,0:0:0:0:
313,349,87992,1,0,0:0:0:0:
313,349,88079,2,0,P|262:303|255:247,1,116.999994644165,8|0,0:0|0:0,0:0:0:0:
322,70,88428,1,2,3:2:0:0:
457,203,88602,2,0,L|378:210,1,58.4999973220826,0|0,0:0|0:0,0:0:0:0:
306,217,88777,1,8,0:0:0:0:
434,27,88951,1,0,0:0:0:0:
495,304,89126,6,0,L|423:298,3,58.4999973220826,2|0|0|0,3:2|3:0|3:0|3:0,0:0:0:0:
362,361,89474,2,0,L|292:368,3,58.4999973220826,10|0|0|0,3:2|3:0|3:0|3:0,0:0:0:0:
242,294,89823,2,0,L|170:288,3,58.4999973220826,2|0|0|0,3:2|0:0|3:0|3:0,0:0:0:0:
109,351,90172,2,0,L|39:358,3,58.4999973220826,8|0|0|0,0:0|0:0|3:0|0:0,0:0:0:0:
205,210,90521,5,0,3:0:0:0:
205,210,90608,1,0,3:0:0:0:
205,210,90695,2,0,L|214:134,1,58.4999973220826,0|0,3:0|3:0,0:0:0:0:
338,32,90870,1,8,0:0:0:0:
338,32,90957,1,0,0:0:0:0:
338,32,91044,2,0,L|358:94,1,58.4999973220826,2|0,3:2|0:0,0:0:0:0:
395,177,91219,5,8,0:0:0:0:
390,234,91306,1,0,0:0:0:0:
364,287,91393,1,10,3:2:0:0:
321,325,91480,1,0,0:0:0:0:
266,344,91567,1,10,3:2:0:0:
208,342,91655,1,10,3:2:0:0:
155,317,91742,1,10,3:2:0:0:
115,275,91829,1,10,3:2:0:0:
90,223,91916,6,0,P|74:150|107:93,1,116.999994644165,6|0,0:0|0:0,0:0:0:0:
296,181,92178,1,0,0:0:0:0:
291,210,92265,2,0,P|266:253|184:265,1,116.999994644165,8|0,0:0|0:0,0:0:0:0:
158,50,92527,1,0,0:0:0:0:
188,44,92614,2,0,P|249:48|296:109,1,116.999994644165,2|0,3:2|0:0,0:0:0:0:
192,160,92963,1,8,0:0:0:0:
477,130,93137,6,0,P|435:72|284:88,1,233.999989288331,2|0,3:2|0:0,0:0:0:0:
361,284,93573,1,0,0:0:0:0:
361,284,93660,2,0,L|370:153,1,116.999994644165,8|0,0:0|0:0,0:0:0:0:
214,258,94009,1,2,3:2:0:0:
431,358,94184,2,0,L|372:363,1,58.4999973220826,0|0,3:0|3:0,0:0:0:0:
297,372,94358,1,8,0:0:0:0:
214,258,94533,2,0,L|131:252,1,58.4999973220826,0|0,0:0|0:0,0:0:0:0:
73,240,94707,5,2,3:2:0:0:
191,71,94881,1,0,0:0:0:0:
248,281,95056,1,8,0:0:0:0:
84,123,95230,1,0,0:0:0:0:
300,56,95405,1,2,3:2:0:0:
236,201,95579,1,0,3:0:0:0:
236,201,95666,1,0,0:0:0:0:
236,201,95754,6,0,L|112:196,1,116.999994644165,8|0,0:0|3:0,0:0:0:0:
368,312,96102,2,0,L|247:311,1,116.999994644165,2|0,3:2|3:0,0:0:0:0:
446,366,96451,2,0,P|461:305|429:239,1,116.999994644165,8|0,0:0|0:0,0:0:0:0:
325,119,96800,1,2,3:2:0:0:
196,230,96974,2,0,L|268:233,1,58.4999973220826,2|2,3:2|3:2,0:0:0:0:
307,236,97149,1,8,0:0:0:0:
364,230,97236,1,2,3:2:0:0:
411,196,97323,1,2,3:2:0:0:
433,143,97410,1,0,0:0:0:0:
433,85,97498,6,0,L|339:6,1,116.999994644165,6|0,0:0|0:0,0:0:0:0:
228,217,97759,1,0,0:0:0:0:
263,231,97847,2,0,L|391:204,1,116.999994644165,8|0,0:0|0:0,0:0:0:0:
247,12,98108,1,0,0:0:0:0:
211,22,98195,2,0,L|176:143,1,116.999994644165,2|0,3:2|3:0,0:0:0:0:
280,310,98544,1,8,0:0:0:0:
397,127,98719,6,0,B|327:166|279:133|279:133|225:96|178:133,1,233.999989288331,0|0,3:0|0:0,0:0:0:0:
436,9,99155,1,0,0:0:0:0:
417,9,99242,2,0,P|353:30|323:85,1,116.999994644165,8|2,0:0|3:2,0:0:0:0:
357,259,99591,1,0,0:0:0:0:
195,133,99765,2,0,L|279:139,1,58.4999973220826,0|0,0:0|0:0,0:0:0:0:
336,142,99940,1,8,0:0:0:0:
241,336,100114,1,0,3:0:0:0:
104,219,100288,6,0,L|110:157,3,58.4999973220826,2|0|0|0,3:2|0:0|3:0|3:0,0:0:0:0:
195,133,100637,2,0,L|188:64,3,58.4999973220826,8|0|0|0,0:0|3:0|3:0|3:0,0:0:0:0:
248,17,100986,2,0,L|315:22,3,58.4999973220826,2|0|0|0,3:2|3:2|3:2|3:2,0:0:0:0:
374,67,101335,2,0,L|447:59,3,58.4999973220826,8|0|0|0,0:0|0:0|3:0|0:0,0:0:0:0:
257,293,101684,5,2,0:0:0:0:
257,293,101771,1,0,3:0:0:0:
257,293,101858,2,0,L|247:235,1,58.4999973220826,0|0,3:0|3:0,0:0:0:0:
494,135,102033,1,8,0:0:0:0:
494,135,102120,1,0,3:0:0:0:
494,135,102207,2,0,L|488:193,1,58.4999973220826,0|0,3:0|3:0,0:0:0:0:
424,290,102381,5,2,3:2:0:0:
370,312,102468,1,0,3:0:0:0:
312,314,102555,1,0,3:2:0:0:
257,293,102642,1,0,3:0:0:0:
207,263,102729,1,8,0:0:0:0:
150,254,102817,1,0,3:0:0:0:
93,269,102904,1,0,3:0:0:0:
43,298,102991,1,0,3:0:0:0:
4,346,103079,5,6,0:0:0:0:
250,365,103254,1,2,0:0:0:0:
138,148,103428,1,8,0:0:0:0:
21,330,103602,5,2,0:0:0:0:
267,350,103777,1,2,3:2:0:0:
156,133,103951,1,2,0:0:0:0:
40,314,104126,6,0,L|181:319,1,107.999996704102,8|2,0:0|0:0,0:0:0:0:
356,198,104474,1,10,0:0:0:0:
150,79,104649,1,2,0:0:0:0:
261,279,104823,1,10,0:0:0:0:
303,17,104998,1,2,0:0:0:0:
2,177,105172,6,0,P|66:198|118:176,1,107.999996704102,6|0,0:0|0:0,0:0:0:0:
403,26,105521,2,0,P|339:5|287:27,1,107.999996704102,6|0,0:0|0:0,0:0:0:0:
501,344,105870,5,6,0:0:0:0:
254,363,106045,1,2,0:0:0:0:
366,146,106219,1,8,0:0:0:0:
483,328,106393,5,2,0:0:0:0:
237,348,106568,1,2,3:2:0:0:
348,131,106742,1,2,0:0:0:0:
464,312,106917,6,0,L|322:317,1,107.999996704102,8|2,0:0|0:0,0:0:0:0:
120,126,107265,1,10,0:0:0:0:
74,313,107440,1,2,0:0:0:0:
294,207,107614,1,10,0:0:0:0:
91,138,107788,1,2,3:2:0:0:
346,26,107963,6,0,L|228:20,1,107.999996704102,6|0,0:0|0:0,0:0:0:0:
74,313,108312,2,0,L|193:301,1,107.999996704102,6|0,0:0|0:0,0:0:0:0:
407,146,108660,5,6,0:0:0:0:
168,82,108835,1,2,0:0:0:0:
372,318,109009,1,8,0:0:0:0:
130,289,109184,1,2,0:0:0:0:
265,55,109358,1,2,3:2:0:0:
367,235,109533,1,2,0:0:0:0:
183,72,109707,2,0,L|51:83,1,107.999996704102,8|2,0:0|0:0,0:0:0:0:
147,205,110056,5,10,0:0:0:0:
361,49,110230,1,2,0:0:0:0:
168,49,110405,1,10,0:0:0:0:
390,207,110579,1,2,0:0:0:0:
265,81,110754,5,6,0:0:0:0:
265,81,110928,2,0,B|283:136|241:175|241:175|293:232|251:310,1,215.999993408203,0|0,0:0|0:0,0:0:0:0:
133,355,111451,6,0,L|43:352,1,80.9999975280763,6|0,0:0|0:0,0:0:0:0:
266,279,111800,2,0,L|355:279,1,80.9999975280763,2|0,0:0|0:0,0:0:0:0:
484,278,112149,1,2,0:0:0:0:
310,366,112323,1,6,0:0:0:0:
484,278,112672,6,0,P|504:194|473:111,1,161.999995056153,6|0,0:0|0:0,0:0:0:0:
435,66,113108,1,2,0:0:0:0:
435,66,113195,1,2,0:0:0:0:
259,82,113370,1,6,3:2:0:0:
410,167,113544,1,2,0:0:0:0:
336,8,113719,1,2,0:0:0:0:
423,184,113893,1,2,0:0:0:0:
232,164,114067,6,0,P|179:200|78:172,1,161.999995056153,6|0,0:0|3:0,0:0:0:0:
17,42,114589,1,0,3:0:0:0:
87,181,114764,6,0,B|43:260|43:260|59:318,1,144,6|0,0:0|3:2,0:0:0:0:
152,336,115287,6,0,P|238:302|296:325,1,135.000005149842,6|0,3:2|3:2,0:0:0:0:
407,361,115810,6,0,P|388:313|401:253,1,107.999996704102,6|0,3:2|3:2,0:0:0:0:
472,152,116334,6,0,L|393:142,1,60,4|0,0:0|0:0,0:0:0:0:
266,121,116556,2,0,L|344:132,1,60,4|0,0:0|0:0,0:0:0:0:
417,221,116778,6,0,L|338:211,1,60,4|0,0:0|0:0,0:0:0:0:
211,190,117000,2,0,L|289:201,1,60,4|0,0:0|0:0,0:0:0:0:
321,275,117222,6,0,L|336:346,1,60,4|0,0:0|0:0,0:0:0:0:
178,333,117445,2,0,L|191:275,1,60,4|0,0:0|0:0,0:0:0:0:
307,133,117667,6,0,L|322:204,1,60,4|0,0:0|0:0,0:0:0:0:
194,194,117890,2,0,L|206:135,1,60,4|0,0:0|0:0,0:0:0:0:
172,55,118111,6,0,P|110:35|96:39,1,60,4|0,0:0|0:0,0:0:0:0:
38,137,118334,2,0,P|42:86|57:67,1,60,4|0,0:0|0:0,0:0:0:0:
139,214,118556,6,0,P|201:194|215:198,1,60,4|0,0:0|0:0,0:0:0:0:
273,296,118779,2,0,P|269:245|254:226,1,60,4|0,0:0|0:0,0:0:0:0:
154,340,119334,5,14,0:0:0:0:
