osu file format v14

[General]
AudioFilename: audio.mp3
AudioLeadIn: 0
PreviewTime: 161783
Countdown: 0
SampleSet: Soft
StackLeniency: 0.5
Mode: 0
LetterboxInBreaks: 0
EpilepsyWarning: 1
WidescreenStoryboard: 1

[Editor]
Bookmarks: 1554,12983,24412,35840,47269,58696,78933,101076,101790,107504,118933,130361,141789,162026,184883,202026,224883,226311,237740,248454,250597,262026,273454,284764,284883,285791,285865,285954,294764
DistanceSpacing: 2
BeatDivisor: 4
GridSize: 32
TimelineZoom: 2.499999

[Metadata]
Title:Oxalis
TitleUnicode:Oxalis
Artist:Wolpis Kater
ArtistUnicode:ウォルピスカーター
Creator:Tocorn
Version:Kaguya_Sama's Ultra
Source:
Tags:Carter SILVANA 西坂恭平 Hatsune Miku 初音ミク vocaloid Nishizaka Cover Japanese Rock ウォルピス社 j-rock jrock utaite 音坂 キョーヘイ Kyohei Kyouhei Taeyang Kyrian SirAeon Kaguya_Sama CutoNaito Houtaro Kyutei Anya Melfissa Anya_Melfissa Banter Nagaraia Himada
BeatmapID:2902513
BeatmapSetID:1347859

[Difficulty]
HPDrainRate:5
CircleSize:3.8
OverallDifficulty:9.4
ApproachRate:9.8
SliderMultiplier:2.05
SliderTickRate:1

[Events]
//Background and Video events
0,0,"BG.jpg",0,0
//Break Periods
2,101975,106775
2,185068,189868
2,226497,237008
//Storyboard Layer 0 (Background)
//Storyboard Layer 1 (Fail)
//Storyboard Layer 2 (Pass)
//Storyboard Layer 3 (Foreground)
//Storyboard Layer 4 (Overlay)
//Storyboard Sound Samples

[TimingPoints]
1540,238.095238095238,3,2,2,60,1,0
1540,-166.666666666667,3,2,2,60,0,0
1778,-166.666666666667,3,2,2,40,0,0
1897,-166.666666666667,3,2,1,40,0,0
2254,-166.666666666667,3,2,2,60,0,0
2492,-166.666666666667,3,2,2,40,0,0
2730,-166.666666666667,3,2,2,60,0,0
3325,-166.666666666667,3,2,1,40,0,0
3682,-166.666666666667,3,2,2,60,0,0
3920,-166.666666666667,3,2,2,40,0,0
4159,-166.666666666667,3,2,2,60,0,0
4754,-166.666666666667,3,2,1,40,0,0
5111,-166.666666666667,3,2,2,60,0,0
5349,-166.666666666667,3,2,2,40,0,0
5587,-166.666666666667,3,2,2,60,0,0
6182,-166.666666666667,3,2,1,40,0,0
6540,-166.666666666667,3,2,2,60,0,0
6778,-166.666666666667,3,2,2,40,0,0
7016,-166.666666666667,3,2,2,60,0,0
7254,-166.666666666667,3,2,1,60,0,0
7968,-166.666666666667,3,2,5,60,0,0
11540,-166.666666666667,3,2,5,65,0,0
12135,-166.666666666667,3,2,5,55,0,0
12254,-100,3,2,16,65,0,0
12432,-100,3,2,16,5,0,0
12492,-83.3333333333333,3,2,3,65,0,0
12670,-83.3333333333333,3,2,3,5,0,0
12730,-71.4285714285714,3,2,3,65,0,0
12968,-83.3333333333333,3,2,17,75,0,0
13206,-83.3333333333333,3,2,3,75,0,0
18206,-83.3333333333333,3,2,3,70,0,0
18325,-83.3333333333333,3,2,4,65,0,0
18444,-83.3333333333333,3,2,1,70,0,0
18563,-83.3333333333333,3,2,1,65,0,0
18682,-100,3,2,1,75,0,0
18920,-100,3,2,3,75,0,0
19397,-100,3,2,7,75,0,0
19635,-100,3,2,3,75,0,0
20825,-100,3,2,7,75,0,0
21063,-100,3,2,3,75,0,0
21540,-83.3333333333333,3,2,3,75,0,0
22968,-83.3333333333333,3,2,4,70,0,0
23206,-83.3333333333333,3,2,1,70,0,0
23444,-83.3333333333333,3,2,2,65,0,0
23682,-83.3333333333333,3,2,3,75,0,0
24397,-83.3333333333333,3,2,6,75,0,0
24635,-83.3333333333333,3,2,3,75,0,0
29635,-83.3333333333333,3,2,3,70,0,0
29754,-83.3333333333333,3,2,4,65,0,0
29873,-83.3333333333333,3,2,1,70,0,0
29992,-83.3333333333333,3,2,1,65,0,0
30111,-100,3,2,1,75,0,0
30349,-100,3,2,3,75,0,0
30825,-100,3,2,7,75,0,0
31063,-100,3,2,3,75,0,0
32254,-100,3,2,7,75,0,0
32492,-100,3,2,3,75,0,0
32968,-83.3333333333333,3,2,3,75,0,0
34397,-83.3333333333333,3,2,4,70,0,0
34635,-83.3333333333333,3,2,1,70,0,0
34873,-83.3333333333333,3,2,2,65,0,0
35111,-83.3333333333333,3,2,3,75,0,0
35825,-83.3333333333333,3,2,3,50,0,0
36540,-83.3333333333333,3,2,3,40,0,0
38444,-166.666666666667,3,2,3,40,0,0
40468,-166.666666666667,3,2,3,5,0,0
40587,-166.666666666667,3,2,3,40,0,0
41420,-166.666666666667,3,2,8,30,0,0
41540,-166.666666666667,3,2,8,40,0,0
44159,-166.666666666667,3,2,8,20,0,0
44278,-166.666666666667,3,2,8,30,0,0
44397,-166.666666666667,3,2,8,40,0,0
45825,-333.333333333333,3,2,5,50,0,0
46540,-333.333333333333,3,2,5,60,0,0
46659,-333.333333333333,3,2,5,40,0,0
47016,-333.333333333333,3,2,5,50,0,0
47254,-100,3,2,4,60,0,0
47432,-100,3,2,4,5,0,0
47492,-100,3,2,4,60,0,0
48444,-100,3,2,3,60,0,0
48920,-100,3,2,4,60,0,0
49873,-100,3,2,3,60,0,0
50349,-100,3,2,4,60,0,0
51301,-100,3,2,3,60,0,0
51778,-100,3,2,4,60,0,0
52730,-100,3,2,1,55,0,0
52968,-100,3,2,1,60,0,0
53146,-100,3,2,1,5,0,0
53206,-100,3,2,4,60,0,0
54159,-100,3,2,3,60,0,0
54635,-100,3,2,4,60,0,0
55587,-100,3,2,3,60,0,0
56003,-100,3,2,3,5,0,0
56063,-100,3,2,4,60,0,0
57016,-100,3,2,3,60,0,0
57254,-76.9230769230769,3,2,4,70,0,0
57611,-76.9230769230769,3,2,7,70,0,0
58206,-76.9230769230769,3,2,1,65,0,0
58682,238.095238095238,5,2,1,60,1,0
58920,-125,5,2,1,60,0,0
59039,-125,5,2,9,60,0,0
62848,-125,5,2,9,40,0,0
62967,-125,5,2,9,60,0,0
65229,-125,5,2,9,40,0,0
65348,-125,5,2,9,60,0,0
66420,-125,5,2,9,40,0,0
66539,-125,5,2,9,60,0,0
67015,238.095238095238,3,2,4,70,1,0
67015,-83.3333333333333,3,2,4,70,0,0
67372,-83.3333333333333,3,2,7,70,0,0
67729,-83.3333333333333,3,2,4,70,0,0
67788,-83.3333333333333,3,2,4,60,0,0
67967,-83.3333333333333,3,2,1,65,0,0
68205,-83.3333333333333,3,2,2,60,0,0
68443,238.095238095238,5,2,1,60,1,0
68681,-125,5,2,1,60,0,0
69038,-125,5,2,1,40,0,0
69157,-125,5,2,1,60,0,0
69395,-125,5,2,9,60,0,0
70228,-125,5,2,9,40,0,0
70347,-125,5,2,9,60,0,0
71419,-125,5,2,9,40,0,0
71538,-125,5,2,9,60,0,0
72847,-125,5,2,1,55,0,0
73085,-125,5,2,9,60,0,0
73204,238.095238095238,3,2,10,50,1,0
73204,-200,3,2,10,50,0,0
73918,-200.000000000001,3,2,10,50,0,0
75346,-100,3,2,3,60,0,0
75584,-100,3,2,4,50,0,0
75823,-100,3,2,1,50,0,0
76061,-100,3,2,4,70,0,0
76418,-100,3,2,7,70,0,0
76775,-100,3,2,4,70,0,0
77013,-100,3,2,7,70,0,0
77251,-100,3,2,4,70,0,0
77489,-100,3,2,4,40,0,0
77846,-100,3,2,4,50,0,0
78204,-100,3,2,15,60,0,0
78680,-250,3,2,15,60,0,0
78918,-83.3333333333333,3,2,6,75,0,1
79156,-83.3333333333333,3,2,3,75,0,1
86061,-71.4285714285714,3,2,3,75,0,1
88204,-83.3333333333333,3,2,3,75,0,1
89275,-83.3333333333333,3,2,7,75,0,1
89632,-83.3333333333333,3,2,7,70,0,1
89870,-83.3333333333333,3,2,1,65,0,1
90108,-83.3333333333333,3,2,4,70,0,1
90346,-83.3333333333333,3,2,6,75,0,1
90584,-83.3333333333333,3,2,3,75,0,1
94632,-71.4285714285714,3,2,3,75,0,1
95823,-83.3333333333333,3,2,3,75,0,1
96061,-83.3333333333333,3,2,5,70,0,0
98203,-83.3333333333333,3,2,4,80,0,1
98918,-71.4285714285714,3,2,4,75,0,1
99156,-71.4285714285714,3,2,3,75,0,1
100406,-71.4285714285714,3,2,4,75,0,1
100584,-71.4285714285714,3,2,1,70,0,1
100823,-71.4285714285714,3,2,2,65,0,1
101061,-71.4285714285714,3,2,3,70,0,0
101775,-71.4285714285714,3,2,3,60,0,0
107489,-83.3333333333333,3,2,6,75,0,0
107727,-83.3333333333333,3,2,3,75,0,0
112727,-83.3333333333333,3,2,3,70,0,0
112846,-83.3333333333333,3,2,4,65,0,0
112965,-83.3333333333333,3,2,1,70,0,0
113084,-83.3333333333333,3,2,1,65,0,0
113204,-100,3,2,1,75,0,0
113442,-100,3,2,3,75,0,0
113918,-100,3,2,7,75,0,0
114156,-100,3,2,3,75,0,0
115346,-100,3,2,7,75,0,0
115584,-100,3,2,3,75,0,0
116061,-83.3333333333333,3,2,3,75,0,0
117489,-83.3333333333333,3,2,4,70,0,0
117727,-83.3333333333333,3,2,1,70,0,0
117965,-83.3333333333333,3,2,2,65,0,0
118204,-83.3333333333333,3,2,3,75,0,0
118918,-83.3333333333333,3,2,6,75,0,0
119156,-83.3333333333333,3,2,3,75,0,0
124156,-83.3333333333333,3,2,3,70,0,0
124275,-83.3333333333333,3,2,4,65,0,0
124394,-83.3333333333333,3,2,1,70,0,0
124513,-83.3333333333333,3,2,1,65,0,0
124632,-100,3,2,1,75,0,0
124870,-100,3,2,3,75,0,0
125346,-100,3,2,7,75,0,0
125584,-100,3,2,3,75,0,0
126775,-100,3,2,7,75,0,0
127013,-100,3,2,3,75,0,0
127489,-83.3333333333333,3,2,3,75,0,0
128918,-83.3333333333333,3,2,4,70,0,0
129156,-83.3333333333333,3,2,1,70,0,0
129394,-83.3333333333333,3,2,2,65,0,0
129632,-83.3333333333333,3,2,3,75,0,0
130346,-100,3,2,3,60,0,0
130524,-100,3,2,3,5,0,0
130584,-100,3,2,4,60,0,0
131537,-100,3,2,3,60,0,0
132013,-100,3,2,4,60,0,0
132965,-100,3,2,3,60,0,0
133442,-100,3,2,4,60,0,0
134394,-100,3,2,3,60,0,0
134870,-100,3,2,4,60,0,0
135584,-100,3,2,4,65,0,0
135823,-100,3,2,1,60,0,0
136239,-100,3,2,1,5,0,0
136299,-100,3,2,4,60,0,0
137251,-100,3,2,3,60,0,0
137727,-100,3,2,4,60,0,0
138680,-100,3,2,3,60,0,0
139156,-100,3,2,4,60,0,0
140108,-100,3,2,3,60,0,0
140346,-83.3333333333333,3,2,4,70,0,0
140704,-83.3333333333333,3,2,7,70,0,0
141299,-83.3333333333333,3,2,1,65,0,0
141775,238.095238095238,5,2,1,60,1,0
142013,-166.666666666667,5,2,1,60,0,0
142489,-166.666666666667,5,2,5,60,0,0
150108,238.095238095238,3,2,5,50,1,0
150822,-100,3,2,4,70,0,0
151060,-166.666666666667,3,2,1,65,0,0
151298,-166.666666666667,3,2,2,60,0,0
151536,238.095238095238,5,2,1,60,1,0
151774,-125,5,2,1,60,0,0
152131,-125,5,2,1,40,0,0
152250,-125,5,2,1,60,0,0
152488,-125,5,2,9,60,0,0
153321,-125,5,2,9,40,0,0
153440,-125,5,2,9,60,0,0
154512,-125,5,2,9,40,0,0
154631,-125,5,2,9,60,0,0
155940,-125,5,2,1,55,0,0
156178,-125,5,2,9,60,0,0
156297,238.095238095238,3,2,10,50,1,0
156297,-200,3,2,10,50,0,0
158439,-100,3,2,3,60,0,0
158677,-100,3,2,4,50,0,0
158916,-100,3,2,1,50,0,0
159154,-100,3,2,4,70,0,0
159511,-100,3,2,7,70,0,0
159868,-100,3,2,4,70,0,0
160106,-100,3,2,7,70,0,0
160344,-100,3,2,4,70,0,0
160582,-100,3,2,4,40,0,0
161297,-100,3,2,12,60,0,0
162011,-83.3333333333333,3,2,6,75,0,1
162249,-83.3333333333333,3,2,3,75,0,1
169154,-71.4285714285714,3,2,3,75,0,1
170582,-83.3333333333333,3,2,3,75,0,1
172368,-83.3333333333333,3,2,7,75,0,1
172725,-83.3333333333333,3,2,7,70,0,1
172963,-83.3333333333333,3,2,1,65,0,1
173201,-83.3333333333333,3,2,4,70,0,1
173439,-83.3333333333333,3,2,6,75,0,1
173677,-83.3333333333333,3,2,3,75,0,1
177725,-71.4285714285714,3,2,3,75,0,1
178916,-83.3333333333333,3,2,3,75,0,1
179154,-83.3333333333333,3,2,5,70,0,0
181297,-83.3333333333333,3,2,4,80,0,1
182011,-62.5,3,2,4,75,0,1
182249,-62.5,3,2,3,75,0,1
183499,-62.5,3,2,4,80,0,1
183677,-66.6666666666667,3,2,1,70,0,1
183916,-66.6666666666667,3,2,2,65,0,1
184154,-66.6666666666667,3,2,3,75,0,1
184868,-66.6666666666667,3,2,3,60,0,0
190582,-125,3,2,3,50,0,0
190760,-125,3,2,3,5,0,0
190820,-125,3,2,3,50,0,0
190939,-125,3,2,5,50,0,0
193201,-125,3,2,10,50,0,0
193439,-125,3,2,5,50,0,0
196058,-125,3,2,10,50,0,0
196297,-125,3,2,1,60,0,0
196654,-125,3,2,5,60,0,0
198916,-125,3,2,10,60,0,0
199154,-125,3,2,5,60,0,0
200344,-125,3,2,10,60,0,0
200582,-125,3,2,5,60,0,0
201297,-125,3,2,4,60,0,0
201535,-125,3,2,1,55,0,0
201773,-125,3,2,1,50,0,0
202011,-125,3,2,1,65,0,0
202725,-125,3,2,4,65,0,0
207487,-125,3,2,1,60,0,0
207725,-125,3,2,1,65,0,0
208439,-125,3,2,4,65,0,0
210582,-125,3,2,4,70,0,0
210939,-125,3,2,4,65,0,0
211297,-125,3,2,7,70,0,0
211654,-125,3,2,7,65,0,0
212011,-125,3,2,7,70,0,0
212368,-125,3,2,7,65,0,0
212963,-125,3,2,1,60,0,0
213201,-125,3,2,2,55,0,0
213439,-125,3,2,4,65,0,0
218916,-125,3,2,1,60,0,0
219154,-125,3,2,1,65,0,0
219868,-125,3,2,4,65,0,0
222011,-100,3,2,3,80,0,0
223439,-100,3,2,4,80,0,0
223797,-100,3,2,7,80,0,0
224154,-100,3,2,4,80,0,0
224868,-100,3,2,4,40,0,0
225582,-100,3,2,15,60,0,0
226297,-100,3,2,13,60,0,0
237725,-83.3333333333333,3,2,6,75,0,1
237963,-83.3333333333333,3,2,3,75,0,1
242011,-71.4285714285714,3,2,3,75,0,1
242785,-71.4285714285714,3,2,4,75,0,1
242963,-71.4285714285714,3,2,1,70,0,1
243201,-83.3333333333333,3,2,2,65,0,1
243439,-83.3333333333333,3,2,5,70,0,0
245582,-83.3333333333333,3,2,4,80,0,1
246297,-71.4285714285714,3,2,4,75,0,1
246535,-71.4285714285714,3,2,3,75,0,1
247785,-71.4285714285714,3,2,4,80,0,1
247963,-62.5,3,2,1,70,0,1
248201,-62.5,3,2,2,65,0,1
248439,-62.5,3,2,3,75,0,1
249193,-166.666666666667,3,2,3,50,0,1
249868,-166.666666666667,3,2,15,60,0,1
250523,-166.666666666667,3,2,15,5,0,1
250582,-83.3333333333333,3,2,6,75,0,0
250820,-83.3333333333333,3,2,3,75,0,0
255820,-83.3333333333333,3,2,3,70,0,0
255939,-83.3333333333333,3,2,4,65,0,0
256058,-83.3333333333333,3,2,1,70,0,0
256177,-83.3333333333333,3,2,1,65,0,0
256297,-100,3,2,1,75,0,0
256535,-100,3,2,3,75,0,0
257011,-100,3,2,7,75,0,0
257249,-100,3,2,3,75,0,0
258439,-100,3,2,7,75,0,0
258677,-100,3,2,3,75,0,0
259154,-83.3333333333333,3,2,3,75,0,0
260582,-83.3333333333333,3,2,4,70,0,0
260820,-83.3333333333333,3,2,1,70,0,0
261058,-83.3333333333333,3,2,2,65,0,0
261297,-83.3333333333333,3,2,3,75,0,0
262011,-125,3,2,14,60,0,0
262368,-125,3,2,1,50,0,0
262606,-125,3,2,2,55,0,0
262963,-125,3,2,1,50,0,0
263201,-125,3,2,2,55,0,0
263439,-125,3,2,1,55,0,0
263797,-125,3,2,1,50,0,0
264035,-125,3,2,2,55,0,0
264392,-125,3,2,1,50,0,0
264630,-125,3,2,10,50,0,0
264868,-125,3,2,14,60,0,0
265225,-125,3,2,1,50,0,0
265463,-125,3,2,2,55,0,0
265820,-125,3,2,1,50,0,0
266058,-125,3,2,2,55,0,0
266297,-125,3,2,1,55,0,0
266654,-125,3,2,1,50,0,0
266892,-125,3,2,2,55,0,0
267249,-125,3,2,1,50,0,0
267487,-125,3,2,10,50,0,0
267725,-125,3,2,14,60,0,0
268082,-125,3,2,1,50,0,0
268320,-125,3,2,2,55,0,0
268677,-125,3,2,1,50,0,0
268916,-125,3,2,2,55,0,0
269154,-125,3,2,1,55,0,0
269511,-125,3,2,1,50,0,0
269749,-125,3,2,2,55,0,0
270106,-125,3,2,1,50,0,0
270344,-125,3,2,10,50,0,0
270582,-125,3,2,14,60,0,0
270939,-125,3,2,1,50,0,0
271177,-125,3,2,2,55,0,0
271535,-125,3,2,1,50,0,0
271773,-125,3,2,2,55,0,0
272011,-125,3,2,1,55,0,0
272368,-125,3,2,1,50,0,0
272606,-125,3,2,2,55,0,0
272963,-125,3,2,1,55,0,0
273201,-125,3,2,4,60,0,0
273439,-125,3,2,14,60,0,0
273797,-125,3,2,1,50,0,0
274035,-125,3,2,2,55,0,0
274392,-125,3,2,1,50,0,0
274630,-125,3,2,2,55,0,0
274868,-125,3,2,1,55,0,0
275225,-125,3,2,1,50,0,0
275463,-125,3,2,2,55,0,0
275820,-125,3,2,1,50,0,0
276058,-125,3,2,10,50,0,0
276297,-125,3,2,14,60,0,0
276654,-125,3,2,1,50,0,0
276892,-125,3,2,2,55,0,0
277249,-125,3,2,1,50,0,0
277487,-125,3,2,2,55,0,0
277725,-125,3,2,1,55,0,0
278082,-125,3,2,1,50,0,0
278320,-125,3,2,2,55,0,0
278677,-125,3,2,1,50,0,0
278916,-125,3,2,10,50,0,0
279154,-125,3,2,14,60,0,0
279511,-125,3,2,1,50,0,0
279749,-125,3,2,2,55,0,0
280106,-125,3,2,1,50,0,0
280344,-125,3,2,2,55,0,0
280582,-125,3,2,1,55,0,0
280939,-125,3,2,1,50,0,0
281177,-125,3,2,2,55,0,0
281535,-125,3,2,1,50,0,0
281773,-125,3,2,10,50,0,0
282011,-125,3,2,14,60,0,0
282368,-125,3,2,1,50,0,0
282606,-125,3,2,2,55,0,0
282963,-125,3,2,1,50,0,0
283201,-125,3,2,2,55,0,0
283439,-125,3,2,1,55,0,0
283797,-125,3,2,1,50,0,0
284035,-125,3,2,2,55,0,0
284392,-125,3,2,1,55,0,0
284630,-125,3,2,4,60,0,0
284749,-125,3,2,4,65,0,0
285701,-125,3,2,4,50,0,0
285939,-250,3,2,4,70,0,0
292725,-250,3,2,4,60,0,0
293439,-250,3,2,4,50,0,0
294154,-250,3,2,4,40,0,0
294748,-250,3,2,18,60,0,0

[Colours]
Combo1 : 129,131,131
Combo2 : 221,0,0
Combo3 : 250,194,67
Combo4 : 214,22,104
Combo5 : 0,119,176

[HitObjects]
56,148,1540,6,0,P|94:139|136:139,1,61.4999999999999,10|0,1:2|2:0,2:0:0:0:
229,186,1778,1,0,2:0:0:0:
151,213,1897,2,0,P|150:160|210:108,1,123,10|2,2:0|3:2,2:0:0:0:
337,70,2254,5,10,2:0:0:0:
368,86,2373,1,0,2:0:0:0:
434,153,2492,5,0,1:2:0:0:
345,177,2611,1,0,2:0:0:0:
378,265,2730,5,10,2:0:0:0:
409,249,2849,1,0,2:0:0:0:
311,320,2968,6,0,P|269:311|224:311,1,61.4999999999999,10|0,1:2|2:0,2:0:0:0:
143,358,3206,1,0,2:0:0:0:
218,383,3325,2,0,P|219:330|159:278,1,123,10|2,2:0|3:2,2:0:0:0:
0,320,3682,5,10,2:0:0:0:
31,304,3801,1,0,2:0:0:0:
97,237,3920,5,0,1:2:0:0:
8,213,4040,1,0,2:0:0:0:
41,125,4159,5,10,2:0:0:0:
72,141,4278,1,0,2:0:0:0:
175,66,4397,6,0,P|217:75|262:75,1,61.4999999999999,10|0,1:2|2:0,2:0:0:0:
343,28,4635,1,0,2:0:0:0:
267,2,4754,2,0,P|266:55|326:107,1,123,10|2,2:0|3:2,2:0:0:0:
486,66,5111,5,10,1:2:0:0:
455,82,5230,1,0,2:0:0:0:
389,149,5349,5,0,1:2:0:0:
478,173,5468,1,0,2:0:0:0:
445,261,5587,5,10,2:0:0:0:
414,245,5706,1,0,2:0:0:0:
330,346,5825,6,0,L|338:285,1,61.4999999999999,10|0,1:2|2:0,2:0:0:0:
272,224,6063,1,0,2:0:0:0:
250,357,6182,2,0,L|272:226,1,123,10|2,2:0|3:2,2:0:0:0:
157,251,6540,6,0,L|164:306,2,40.9999999999999,10|0|0,1:2|2:0|2:0,2:0:0:0:
142,234,6778,5,0,1:2:0:0:
58,224,6897,1,0,2:0:0:0:
4,137,7016,5,10,2:0:0:0:
10,146,7135,1,0,1:2:0:0:
244,22,7254,6,0,L|304:13,1,61.4999999999999,6|0,1:2|2:0,2:0:0:0:
198,138,7492,1,0,2:0:0:0:
166,66,7611,2,0,P|217:60|273:105,1,123,2|2,1:2|3:2,2:0:0:0:
415,81,7968,5,10,1:2:0:0:
384,65,8087,1,0,2:0:0:0:
354,164,8206,5,0,1:2:0:0:
475,155,8325,1,0,2:0:0:0:
422,235,8444,5,2,1:2:0:0:
391,251,8563,1,0,2:0:0:0:
201,306,8682,6,0,L|192:245,1,61.4999999999999,2|0,1:2|2:0,2:0:0:0:
317,352,8920,1,0,2:0:0:0:
245,384,9040,2,0,P|239:333|284:277,1,123,2|2,1:2|3:2,2:0:0:0:
107,173,9397,5,10,1:2:0:0:
91,204,9516,1,0,2:0:0:0:
190,234,9635,5,0,1:2:0:0:
181,113,9754,1,0,2:0:0:0:
261,166,9873,5,2,1:2:0:0:
277,197,9992,1,0,2:0:0:0:
423,99,10111,6,0,L|483:90,1,61.4999999999999,2|0,1:2|2:0,2:0:0:0:
377,215,10349,1,0,2:0:0:0:
345,143,10468,2,0,P|396:137|452:182,1,123,2|2,1:2|3:2,2:0:0:0:
216,280,10825,5,10,1:2:0:0:
247,296,10944,1,0,2:0:0:0:
277,197,11063,5,0,1:2:0:0:
156,206,11182,1,0,1:2:0:0:
209,126,11301,5,2,1:2:0:0:
240,110,11420,1,0,1:2:0:0:
77,7,11540,5,6,1:2:0:0:
8,185,12135,5,2,1:2:0:0:
8,185,12194,1,0,1:2:0:0:
8,185,12254,6,0,B|36:208|36:208|181:205,1,153.75,14|0,2:0|2:0,2:0:0:0:
236,231,12492,6,0,P|183:215|175:319,1,184.5,10|0,2:0|2:0,2:0:0:0:
281,304,12730,6,0,P|317:257|318:236,1,71.75,10|0,2:0|2:0,2:0:0:0:
398,268,12849,2,0,P|393:213|380:192,1,71.75,2|0,1:2|2:0,2:0:0:0:
295,81,12968,6,0,B|271:47|226:50|213:95|213:95|241:263,1,246,6|10,1:2|2:0,2:0:0:0:
479,284,13325,2,0,B|496:220|496:220|312:247,1,246,2|0,1:2|1:2,2:0:0:0:
88,329,13682,6,0,B|68:330|68:330|64:373|64:373|105:386|105:386|128:353,1,123,10|0,2:0|2:0,2:0:0:0:
31,170,13920,2,0,B|16:157|16:157|-16:184|-16:184|2:222|2:222|42:215,1,123,2|0,1:2|1:2,2:0:0:0:
105,14,14159,2,0,B|103:-5|103:-5|60:-9|60:-9|47:31|47:31|80:54,1,123,10|0,2:0|2:0,2:0:0:0:
235,230,14397,6,0,B|337:213|337:213|357:188|357:188|490:169,1,246,2|8,1:2|2:0,2:0:0:0:
512,0,14754,2,0,B|410:17|410:17|390:42|390:42|257:61,1,246,2|0,1:2|1:2,2:0:0:0:
170,174,15111,2,0,P|147:247|184:298,1,123,10|0,2:0|2:0,2:0:0:0:
387,310,15349,5,0,1:2:0:0:
235,230,15468,1,0,1:2:0:0:
338,111,15587,2,0,P|363:56|342:0,1,123,8|0,2:0|2:0,2:0:0:0:
109,123,15825,6,0,P|71:202|125:355,1,246,6|8,1:2|2:0,2:0:0:0:
445,371,16182,2,0,P|469:294|338:237,1,246,2|0,1:2|1:2,2:0:0:0:
249,314,16540,6,0,B|255:338|244:376|244:376|266:345|328:354,1,123,10|0,2:0|2:0,2:0:0:0:
170,174,16778,2,0,B|157:195|122:214|122:214|160:207|197:258,1,123,2|0,1:2|1:2,2:0:0:0:
213,19,17016,2,0,B|188:24|151:14|151:14|181:36|173:98,1,123,10|0,2:0|2:0,2:0:0:0:
489,89,17254,6,0,B|444:56|444:56|251:88,1,246,2|8,1:2|2:0,2:0:0:0:
408,211,17611,2,0,B|444:205|444:205|460:160|460:160|423:134|423:134|306:154,1,246,2|0,1:2|1:2,2:0:0:0:
176,234,17968,2,0,L|190:373,1,123,10|0,2:0|2:0,2:0:0:0:
29,231,18206,5,8,2:0:0:0:
247,98,18325,1,8,2:0:0:0:
33,134,18444,5,8,2:3:0:0:
264,256,18563,1,4,2:3:0:0:
45,349,18682,6,0,B|4:381|4:381|35:191,1,205,6|10,1:2|2:0,2:0:0:0:
176,47,19040,1,0,1:2:0:0:
270,267,19159,1,10,2:0:0:0:
390,63,19278,1,2,1:2:0:0:
325,329,19397,6,0,P|247:343|204:214,1,205,6|10,1:2|2:0,2:0:0:0:
283,93,19754,1,0,1:2:0:0:
402,306,19873,1,10,2:0:0:0:
481,92,19992,1,2,1:2:0:0:
207,211,20111,6,0,B|144:222|148:278|148:278|161:254|216:235,1,153.75,6|0,1:2|2:0,2:0:0:0:
213,322,20349,6,0,P|152:358|70:283,1,153.75,10|0,2:0|2:0,2:0:0:0:
52,253,20587,6,0,B|33:222|33:222|44:182|44:182|68:217|68:217|66:250,1,153.75,10|0,2:0|2:0,2:0:0:0:
10,342,20825,6,0,P|147:261|200:242,1,205,6|8,1:2|2:0,2:0:0:0:
411,313,21182,1,0,1:2:0:0:
153,384,21301,5,10,2:0:0:0:
263,143,21420,1,2,1:2:0:0:
349,384,21540,6,0,B|327:293|327:293|294:273|294:273|262:144,1,246,6|8,1:2|2:0,2:0:0:0:
137,0,21897,1,0,1:2:0:0:
189,245,22016,1,10,2:0:0:0:
399,82,22135,1,2,1:2:0:0:
134,167,22254,6,0,P|95:246|221:339,1,246,2|8,1:2|2:0,2:0:0:0:
449,230,22611,1,0,1:2:0:0:
189,245,22730,1,10,2:0:0:0:
429,372,22849,1,0,1:2:0:0:
273,106,22968,5,10,2:0:0:0:
273,106,23028,1,8,2:0:0:0:
273,106,23087,1,8,2:0:0:0:
273,106,23147,1,8,2:0:0:0:
273,106,23206,6,0,L|265:171,1,61.5,8|8,2:3|2:3,2:0:0:0:
349,133,23325,2,0,L|341:198,1,61.5,4|4,2:3|2:3,2:0:0:0:
284,246,23444,2,0,L|276:311,1,61.5,8|8,2:3|2:3,2:0:0:0:
360,273,23563,2,0,L|352:338,1,61.5,4|4,2:3|2:3,2:0:0:0:
203,336,23682,5,14,2:0:0:0:
432,239,23801,1,0,1:2:0:0:
173,240,23920,5,8,2:0:0:0:
436,226,24040,1,0,1:2:0:0:
180,142,24159,5,8,2:0:0:0:
441,213,24278,1,0,1:2:0:0:
159,233,24397,6,0,B|127:225|90:247|90:247|29:245|3:197|22:134|87:131,1,246,6|10,1:2|2:0,2:0:0:0:
145,317,24754,2,0,B|194:332|251:287|245:233|245:233|243:170|300:152,1,246,2|0,1:2|1:2,2:0:0:0:
422,43,25111,6,0,B|442:42|442:42|446:-1|446:-1|405:-14|405:-14|382:19,1,123,10|0,2:0|2:0,2:0:0:0:
479,206,25349,2,0,B|494:219|494:219|526:192|526:192|508:154|508:154|468:161,1,123,2|0,1:2|1:2,2:0:0:0:
405,362,25587,2,0,B|407:381|407:381|450:385|450:385|463:345|463:345|430:322,1,123,10|0,2:0|2:0,2:0:0:0:
287,156,25825,6,0,B|250:117|250:117|272:311,1,246,2|8,1:2|2:0,2:0:0:0:
68,347,26182,2,0,B|105:386|105:386|83:192,1,246,2|0,1:2|1:2,2:0:0:0:
192,59,26540,2,0,B|242:28|242:28|317:54,1,123,10|0,2:0|2:0,2:0:0:0:
397,225,26778,5,0,1:2:0:0:
250,117,26897,1,0,1:2:0:0:
83,194,27016,2,0,L|98:330,1,123,8|0,2:0|2:0,2:0:0:0:
395,311,27254,6,0,P|446:295|421:143,1,246,6|8,1:2|2:0,2:0:0:0:
69,76,27611,2,0,L|96:321,1,246,2|0,1:2|1:2,2:0:0:0:
272,327,27968,6,0,B|260:355|277:389|277:389|255:358|193:367,1,123,10|0,2:0|2:0,2:0:0:0:
351,187,28206,2,0,B|363:215|399:227|399:227|361:227|324:271,1,123,2|0,1:2|1:2,2:0:0:0:
308,32,28444,2,0,B|333:37|370:27|370:27|340:49|348:111,1,123,10|0,2:0|2:0,2:0:0:0:
157,190,28682,6,0,B|122:189|103:195|103:195|148:148|236:156|283:223,1,246,2|8,1:2|2:0,2:0:0:0:
53,136,29040,2,0,P|146:90|296:126,1,246,2|0,1:2|1:2,2:0:0:0:
408,304,29397,2,0,P|327:330|285:301,1,123,10|0,2:0|2:0,2:0:0:0:
134,272,29635,5,8,2:0:0:0:
281,115,29754,1,8,2:0:0:0:
205,328,29873,5,8,2:3:0:0:
53,136,29992,1,4,2:3:0:0:
8,338,30111,6,0,B|-22:381|-22:381|154:349,1,205,6|10,1:2|2:0,2:0:0:0:
438,224,30468,1,0,1:2:0:0:
205,169,30587,1,10,2:0:0:0:
353,369,30706,1,2,1:2:0:0:
281,115,30825,6,0,B|238:85|238:85|270:261,1,205,6|10,1:2|2:0,2:0:0:0:
434,88,31182,1,0,1:2:0:0:
181,26,31301,1,10,2:0:0:0:
349,233,31420,1,2,1:2:0:0:
30,210,31540,6,0,B|51:147|109:160|109:160|105:198|36:206,1,153.75,6|0,1:2|2:0,2:0:0:0:
77,273,31778,6,0,B|118:277|138:318|138:318|144:272|184:257,1,153.75,10|0,2:0|2:0,2:0:0:0:
69,359,32016,6,0,P|144:339|260:346,1,153.75,10|0,2:0|2:0,2:0:0:0:
311,383,32254,6,0,B|265:385|246:360|245:324|245:324|274:191,1,205,6|8,1:2|2:0,2:0:0:0:
428,81,32611,1,0,1:2:0:0:
459,309,32730,5,10,2:0:0:0:
232,141,32849,1,2,1:2:0:0:
481,7,32968,6,0,P|519:79|395:162,1,246,6|8,1:2|2:0,2:0:0:0:
175,16,33325,1,0,1:2:0:0:
260,237,33444,1,10,2:0:0:0:
428,81,33563,1,2,1:2:0:0:
153,173,33682,6,0,B|124:209|124:209|342:171,1,246,2|8,1:2|2:0,2:0:0:0:
70,135,34040,1,0,1:2:0:0:
229,313,34159,1,10,2:0:0:0:
287,68,34278,1,0,1:2:0:0:
460,235,34397,5,10,2:0:0:0:
460,235,34456,1,8,2:0:0:0:
460,235,34516,1,8,2:0:0:0:
460,235,34575,1,8,2:0:0:0:
460,235,34635,6,0,L|395:227,1,61.5,8|8,2:3|2:3,2:0:0:0:
429,314,34754,2,0,L|364:306,1,61.5,4|4,2:3|2:3,2:0:0:0:
321,244,34873,2,0,L|256:236,1,61.5,8|8,2:3|2:3,2:0:0:0:
290,320,34992,2,0,L|225:312,1,61.5,4|4,2:3|2:3,2:0:0:0:
51,137,35111,5,14,2:0:0:0:
147,366,35230,1,0,1:2:0:0:
146,107,35349,5,8,2:0:0:0:
160,370,35468,1,0,1:2:0:0:
244,114,35587,5,8,2:0:0:0:
173,375,35706,1,0,1:2:0:0:
64,165,35825,5,0,1:2:0:0:
74,173,36540,1,2,2:0:0:0:
84,181,37254,1,2,2:0:0:0:
94,189,37968,1,2,2:0:0:0:
45,285,38444,6,0,P|80:273|108:272,1,61.4999999999999,0|0,2:0|2:0,2:0:0:0:
164,328,38682,2,0,P|150:282|254:268,1,184.5,2|0,2:0|2:0,2:0:0:0:
313,314,39159,2,0,L|302:385,1,61.4999999999999,0|0,2:0|2:0,2:0:0:0:
251,263,39397,6,0,P|328:274|380:254,1,123,2|0,2:0|2:0,2:0:0:0:
441,216,39754,1,0,2:0:0:0:
441,216,39873,2,0,L|431:131,1,61.4999999999999,0|0,2:0|2:0,2:0:0:0:
369,260,40111,6,0,L|347:72,1,184.5,2|0,2:0|2:0,2:0:0:0:
267,37,40587,2,0,P|261:64|273:116,1,61.4999999999999,0|0,2:0|2:0,2:0:0:0:
192,129,40825,2,0,P|206:152|252:180,1,61.4999999999999,2|0,2:0|2:0,2:0:0:0:
204,247,41063,2,0,P|231:253|283:241,1,61.4999999999999,0|0,2:0|2:0,2:0:0:0:
295,321,41301,2,0,P|318:306|346:260,1,61.4999999999999,0|2,2:0|2:0,2:0:0:0:
342,270,41480,5,0,2:0:0:0:
340,260,41540,1,2,2:0:0:0:
489,135,41778,5,0,2:0:0:0:
420,71,42016,1,0,2:0:0:0:
218,91,42254,6,0,B|190:126|190:126|330:107,1,184.5,2|0,2:0|2:0,2:0:0:0:
420,71,42730,1,0,2:0:0:0:
362,183,42968,6,0,L|159:210,1,184.5,2|0,2:0|2:0,2:0:0:0:
110,257,43444,2,0,P|63:240|52:226,1,61.4999999999999,0|0,2:0|2:0,2:0:0:0:
127,146,43682,2,0,P|141:232|154:338,1,184.5,2|0,2:0|2:0,2:0:0:0:
217,377,44159,5,2,2:0:0:0:
233,372,44278,1,2,2:0:0:0:
312,381,44397,5,2,2:0:0:0:
435,348,44635,2,0,P|444:296|426:257,1,92.2499999999998,0|0,2:0|2:0,2:0:0:0:
421,246,44873,2,0,P|412:194|430:155,1,92.2499999999998,0|0,2:0|2:0,2:0:0:0:
497,209,45111,6,0,P|368:221|304:241,1,184.5,2|0,2:0|2:0,2:0:0:0:
253,192,45587,1,2,2:0:0:0:
102,243,45825,6,0,B|70:260|41:241|41:241|61:211|97:221,1,123,2|0,2:0|2:0,2:0:0:0:
170,293,46420,5,0,1:2:0:0:
168,303,46480,1,0,1:2:0:0:
166,313,46540,5,6,1:2:0:0:
355,275,46659,1,2,2:0:0:0:
180,210,46778,5,2,2:0:0:0:
360,242,46897,1,2,2:0:0:0:
204,119,47016,5,2,2:0:0:0:
370,208,47135,1,2,2:0:0:0:
263,357,47254,6,0,P|208:356|92:386,1,153.75,4|0,1:2|2:0,2:0:0:0:
92,376,47492,2,0,P|52:336|70:284,1,102.5,8|0,2:0|1:2,2:0:0:0:
116,130,47730,1,0,1:2:0:0:
166,313,47849,1,0,1:2:0:0:
0,248,47968,6,0,P|44:248|229:224,1,205,8|0,2:0|1:2,2:0:0:0:
419,289,48325,1,0,1:2:0:0:
340,132,48444,2,0,P|295:166|295:235,1,102.5,8|0,2:0|2:0,2:0:0:0:
472,210,48682,6,0,P|402:211|362:206,1,102.5,0|0,1:2|2:0,2:0:0:0:
449,366,48920,2,0,P|496:321|492:268,1,102.5,8|0,2:0|1:2,2:0:0:0:
286,208,49159,1,0,1:2:0:0:
419,289,49278,1,0,1:2:0:0:
247,384,49397,6,0,P|249:301|252:253,1,102.5,8|0,2:0|2:0,2:0:0:0:
223,40,49635,2,0,P|225:91|226:142,1,102.5,0|0,1:2|1:2,2:0:0:0:
70,0,49873,1,8,2:0:0:0:
116,96,49992,1,0,2:0:0:0:
26,140,50111,6,0,B|114:149|114:149|137:135|137:135|261:146,1,205,0|8,1:2|2:0,2:0:0:0:
286,208,50468,1,0,1:2:0:0:
417,124,50587,2,0,P|393:72|340:53,1,102.5,0|0,1:2|1:2,2:0:0:0:
200,147,50825,6,0,B|166:178|166:178|198:366,1,205,8|0,2:0|1:2,2:0:0:0:
72,256,51182,1,0,1:2:0:0:
0,384,51301,2,0,P|-14:319|10:279,1,102.5,8|0,2:0|2:0,2:0:0:0:
273,276,51540,6,0,P|187:284|65:253,1,205,0|8,1:2|2:0,2:0:0:0:
6,126,51897,1,0,1:2:0:0:
126,197,52016,2,0,P|199:208|245:205,1,102.5,0|0,2:0|1:2,2:0:0:0:
421,75,52254,5,8,2:0:0:0:
347,245,52373,1,0,1:2:0:0:
344,48,52492,5,8,2:0:0:0:
419,276,52611,1,8,2:0:0:0:
500,91,52730,5,8,1:3:0:0:
495,242,52849,1,4,1:3:0:0:
280,143,52968,6,0,P|350:130|432:185,1,153.75,4|0,1:2|2:0,2:0:0:0:
434,175,53206,2,0,P|421:235|419:287,1,102.5,8|0,2:0|1:2,2:0:0:0:
494,384,53444,1,0,1:2:0:0:
347,245,53563,1,0,1:2:0:0:
218,325,53682,6,0,B|180:292|94:318|146:343|62:365|16:322,1,205,8|0,2:0|1:2,2:0:0:0:
75,263,54040,1,0,1:2:0:0:
0,172,54159,2,0,P|64:186|115:185,1,102.5,8|0,2:0|2:0,2:0:0:0:
248,112,54397,6,0,P|172:130|160:255,1,205,0|8,1:2|2:0,2:0:0:0:
173,384,54754,1,0,1:2:0:0:
342,347,54873,2,0,P|341:288|349:233,1,102.5,0|0,1:2|1:2,2:0:0:0:
319,72,55111,6,0,B|279:31|279:31|303:198,1,205,8|0,2:0|1:2,2:0:0:0:
418,299,55468,1,0,1:2:0:0:
250,239,55587,2,0,B|296:259|296:259|367:238,1,102.5,8|0,2:0|2:0,2:0:0:0:
488,43,55825,6,0,B|439:50|420:96|449:95|420:156|339:145,1,153.75,0|0,1:2|2:0,2:0:0:0:
370,143,56063,2,0,P|322:113|326:54,1,102.5,8|0,2:0|1:2,2:0:0:0:
512,118,56301,1,0,1:2:0:0:
346,244,56420,1,0,1:2:0:0:
433,381,56540,6,0,P|501:315|445:223,1,205,8|0,2:0|1:2,2:0:0:0:
291,312,56897,1,0,1:2:0:0:
177,192,57016,2,0,B|126:176|126:176|64:203,1,102.5,8|0,2:0|2:0,2:0:0:0:
251,139,57254,6,0,B|122:97|122:97|-21:162,1,266.5,12|0,2:0|1:2,2:0:0:0:
146,364,57611,1,12,2:0:0:0:
311,206,57730,2,0,P|343:142|311:73,1,133.25,0|0,2:0|1:2,2:0:0:0:
115,13,57968,5,8,2:0:0:0:
132,263,58087,1,8,2:0:0:0:
228,40,58206,5,8,2:3:0:0:
223,237,58325,1,8,2:3:0:0:
324,86,58444,5,4,2:3:0:0:
311,206,58563,1,4,2:3:0:0:
122,126,58682,5,4,1:2:0:0:
114,116,58920,6,0,P|159:124|204:128,1,82,0|8,2:0|2:0,2:0:0:0:
324,86,59158,1,0,2:0:0:0:
324,86,59277,1,8,2:0:0:0:
402,139,59396,6,0,P|391:208|378:313,1,164,8|2,2:0|1:2,2:0:0:0:
422,367,59753,1,0,1:2:0:0:
512,232,59872,1,2,1:2:0:0:
506,223,60229,5,8,2:0:0:0:
483,127,60348,2,0,P|439:133|390:141,1,82,0|8,2:0|2:0,2:0:0:0:
276,246,60586,2,0,P|283:206|312:177,1,82,8|0,2:0|2:0,2:0:0:0:
415,232,60824,2,0,P|407:271|378:300,1,82,2|0,1:2|1:2,2:0:0:0:
191,281,61062,6,0,B|153:259|153:259|21:280,1,164,2|0,1:2|2:0,2:0:0:0:
154,354,61420,2,0,B|194:371|194:371|266:335|266:335|272:293,1,164,8|8,2:0|2:0,2:0:0:0:
198,199,61777,6,0,P|193:235|190:308,1,82,8|0,2:0|2:0,2:0:0:0:
344,384,62015,2,0,P|349:348|352:275,1,82,2|0,1:2|1:2,2:0:0:0:
273,152,62253,6,0,P|135:167|99:168,1,164,2|0,1:2|2:0,2:0:0:0:
34,110,62610,1,8,2:0:0:0:
177,73,62848,6,0,L|175:125,1,41,8|8,2:0|2:0,2:0:0:0:
177,64,62967,1,8,2:0:0:0:
198,199,63086,1,0,2:0:0:0:
301,72,63205,5,2,1:2:0:0:
277,235,63324,1,0,1:2:0:0:
436,124,63443,5,2,1:2:0:0:
443,114,63682,6,0,P|444:165|446:202,1,82,0|8,2:0|2:0,2:0:0:0:
504,253,63920,1,0,2:0:0:0:
504,253,64039,1,8,2:0:0:0:
353,365,64158,6,0,P|357:284|435:278,1,164,8|2,2:0|1:2,2:0:0:0:
446,366,64515,1,0,1:2:0:0:
309,266,64634,6,0,B|258:275|221:253|240:245|212:213|139:236,1,164,2|0,1:2|1:2,2:0:0:0:
283,183,64991,1,8,2:0:0:0:
178,309,65110,2,0,P|127:306|93:280,1,82,0|8,2:0|2:0,2:0:0:0:
29,271,65289,5,8,2:0:0:0:
29,271,65348,2,0,P|45:206|47:158,1,82,8|0,2:0|2:0,2:0:0:0:
137,151,65586,2,0,P|142:191|154:230,1,82,2|0,1:2|1:2,2:0:0:0:
5,118,65824,6,0,P|-4:61|105:35,1,164,2|0,1:2|2:0,2:0:0:0:
137,151,66182,2,0,P|88:162|56:179,1,82,8|0,2:0|2:0,2:0:0:0:
15,292,66420,2,0,L|21:358,1,41,8|8,2:0|2:0,2:0:0:0:
76,384,66539,2,0,P|110:354|101:314,1,82,8|0,2:0|2:0,2:0:0:0:
59,176,66777,5,0,1:2:0:0:
113,311,66896,1,0,2:0:0:0:
265,94,67015,6,0,B|298:97|323:130|319:169|319:169|296:336,1,246,12|0,1:2|1:0,2:0:0:0:
411,182,67372,6,0,B|216:211|216:211|240:169,1,246,12|0,2:0|1:2,2:0:0:0:
137,36,67729,5,12,2:0:0:0:
137,36,67788,1,8,2:0:0:0:
137,36,67848,1,8,2:0:0:0:
137,36,67907,1,8,2:0:0:0:
137,36,67967,6,0,L|130:103,3,61.5,8|8|4|4,2:3|2:3|2:3|2:3,2:0:0:0:
56,144,68205,2,0,L|62:205,3,61.5,8|8|4|4,2:3|2:3|2:3|2:3,2:0:0:0:
123,262,68443,5,4,1:2:0:0:
112,275,68681,6,0,P|177:265|221:267,1,82,0|0,2:0|1:2,2:0:0:0:
289,220,68919,2,0,P|354:230|398:228,1,82,0|0,2:0|1:2,2:0:0:0:
425,291,69097,1,0,1:2:0:0:
425,291,69157,6,0,P|400:229|486:218,1,164,0|10,1:2|2:0,2:0:0:0:
512,275,69514,1,8,2:0:0:0:
425,84,69633,6,0,B|348:91|348:91|342:95|342:95|229:106,1,164,10|0,2:0|2:0,2:0:0:0:
186,65,69990,2,0,P|173:108|188:146,1,82,0|0,1:2|2:0,2:0:0:0:
289,220,70228,2,0,L|284:263,1,41,0|0,1:2|1:2,2:0:0:0:
297,210,70347,6,0,P|358:186|410:199,1,82,0|0,1:2|2:0,2:0:0:0:
512,275,70585,1,10,2:0:0:0:
339,350,70704,1,8,2:0:0:0:
256,339,70823,6,0,B|213:319|172:343|187:353|142:381|74:349,1,164,10|0,2:0|2:0,2:0:0:0:
29,307,71181,2,0,P|14:260|34:209,1,82,0|0,1:2|2:0,2:0:0:0:
152,199,71419,1,0,1:2:0:0:
152,199,71478,1,0,1:2:0:0:
152,199,71538,2,0,L|133:294,1,82,0|0,1:2|2:0,2:0:0:0:
25,220,71776,5,10,2:0:0:0:
62,82,71895,1,8,2:0:0:0:
1,13,72014,6,0,B|51:37|51:37|179:18,1,164,10|0,2:0|2:0,2:0:0:0:
238,50,72371,2,0,P|286:60|340:64,1,82,0|0,1:2|1:2,2:0:0:0:
485,41,72609,5,8,2:0:0:0:
397,246,72728,1,8,2:0:0:0:
318,63,72847,1,8,2:3:0:0:
396,261,72966,5,4,2:3:0:0:
399,26,73085,1,8,2:0:0:0:
335,190,73204,6,0,B|310:214|311:251|311:251|259:213|187:205|187:205|142:230|106:213,1,281.875,2|0,1:2|2:0,2:0:0:0:
136,139,73918,6,0,P|187:186|59:284,1,281.874999999999,2|0,1:2|2:0,2:0:0:0:
110,214,74632,6,0,B|71:191|20:207|1:232|1:232|-20:200|21:165|56:172,1,204.999999999999,2|0,1:2|2:0,2:0:0:0:
136,139,75227,5,0,1:2:0:0:
136,139,75287,1,0,1:2:0:0:
136,139,75346,2,0,P|206:129|306:108,1,153.75,12|0,2:0|2:0,2:0:0:0:
305,104,75584,6,0,P|343:117|360:172,1,102.5,8|8,2:0|2:0,2:0:0:0:
292,325,75823,1,8,2:3:0:0:
237,41,75942,1,4,2:3:0:0:
415,243,76061,5,12,2:0:0:0:
110,214,76180,1,0,1:2:0:0:
305,104,76299,1,0,1:2:0:0:
209,327,76418,5,12,2:0:0:0:
152,51,76537,1,0,1:2:0:0:
330,250,76656,1,0,1:2:0:0:
53,152,76775,5,12,2:0:0:0:
315,244,76894,1,0,1:2:0:0:
80,315,77013,5,12,2:0:0:0:
152,51,77132,1,0,1:2:0:0:
292,325,77251,5,12,2:0:0:0:
53,152,77370,1,0,1:2:0:0:
329,16,77489,5,2,2:0:0:0:
305,104,77608,1,2,2:0:0:0:
405,46,77727,5,2,2:0:0:0:
388,117,77846,1,2,2:0:0:0:
480,83,77965,5,2,2:0:0:0:
467,127,78084,1,2,2:0:0:0:
318,60,78204,5,2,2:0:0:0:
56,236,78680,6,0,P|52:282|35:306,1,61.5,0|0,2:0|2:0,2:0:0:0:
46,221,78918,6,0,B|24:201|28:167|57:156|57:156|83:176|139:166,1,123,6|0,1:2|2:0,2:0:0:0:
337,68,79156,1,10,2:0:0:0:
112,64,79275,6,0,P|121:151|140:290,1,184.5,2|0,1:2|2:0,2:0:0:0:
141,265,79513,1,2,1:2:0:0:
416,366,79632,6,0,B|462:367|478:328|478:328|450:254|450:254|404:230|372:272,1,246,10|0,2:0|1:2,2:0:0:0:
208,368,79989,1,0,1:2:0:0:
18,254,80108,2,0,P|98:263|188:264,1,123,10|0,2:0|2:0,2:0:0:0:
432,222,80346,6,0,P|477:151|360:180,1,246,2|8,1:2|2:0,2:0:0:0:
141,265,80704,2,0,B|194:307|276:279|241:245|311:226|385:282,1,246,2|0,1:2|1:2,2:0:0:0:
91,333,81061,2,0,P|54:277|75:214,1,123,8|0,2:0|2:0,2:0:0:0:
442,235,81299,2,0,P|452:294|416:342,1,123,0|0,1:2|1:2,2:0:0:0:
200,200,81537,5,10,2:0:0:0:
362,140,81656,1,2,2:0:0:0:
282,337,81775,6,0,B|244:372|244:372|269:193,1,184.5,6|0,1:2|2:0,2:0:0:0:
272,249,82013,1,10,2:0:0:0:
455,112,82132,2,0,L|438:255,1,123,2|0,1:2|2:0,2:0:0:0:
279,116,82370,1,2,1:2:0:0:
512,24,82489,6,0,B|411:13|411:13|383:30|383:30|222:13,1,246,10|0,2:0|1:2,2:0:0:0:
77,82,82846,1,0,1:2:0:0:
279,116,82965,2,0,L|128:98,1,123,10|0,2:0|2:0,2:0:0:0:
0,51,83204,6,0,P|120:12|128:146,1,246,2|8,1:2|2:0,2:0:0:0:
79,309,83561,2,0,B|40:267|40:267|81:61,1,246,2|0,1:2|1:2,2:0:0:0:
254,226,83918,2,0,L|131:240,1,123,8|0,2:0|2:0,2:0:0:0:
76,81,84156,2,0,P|117:28|189:30,1,123,0|0,1:2|1:2,2:0:0:0:
341,216,84394,5,10,2:0:0:0:
156,100,84513,1,2,2:0:0:0:
367,12,84632,6,0,P|355:97|350:166,1,123,6|0,1:2|2:0,2:0:0:0:
319,359,84870,1,10,2:0:0:0:
508,232,84989,2,0,P|464:178|405:196,1,123,2|0,1:2|2:0,2:0:0:0:
254,226,85227,1,2,1:2:0:0:
426,326,85346,6,0,P|449:237|327:131,1,246,10|0,2:0|1:2,2:0:0:0:
254,226,85704,1,0,1:2:0:0:
489,384,85823,2,0,P|510:346|477:258,1,123,10|0,2:0|2:0,2:0:0:0:
376,53,86061,6,0,B|314:37|276:96|276:96|170:108|170:108|103:74,1,287,6|8,1:2|2:0,2:0:0:0:
6,11,86418,1,0,1:2:0:0:
75,227,86537,1,0,2:0:0:0:
207,10,86656,1,0,1:2:0:0:
19,152,86775,6,0,B|-15:199|-15:199|7:369|7:369|64:291,1,287,10|0,2:0|1:2,2:0:0:0:
254,226,87132,1,0,1:2:0:0:
114,79,87251,1,8,2:0:0:0:
40,322,87370,1,0,2:0:0:0:
443,314,87489,6,0,B|402:268|338:279|338:279|303:324|227:341|163:285,1,287,6|10,1:2|2:0,2:0:0:0:
111,67,87846,1,2,1:2:0:0:
40,322,88084,5,0,1:2:0:0:
29,332,88204,2,0,B|-16:364|-16:364|14:197,1,184.5,14|0,2:0|2:0,2:0:0:0:
16,223,88442,6,0,P|67:187|127:232,1,123,0|0,1:2|1:2,2:0:0:0:
243,348,88680,2,0,L|256:200,1,123,10|0,2:0|2:0,2:0:0:0:
326,11,88918,5,12,2:0:0:0:
339,279,89037,1,0,1:2:0:0:
495,111,89156,1,0,1:2:0:0:
413,359,89275,5,14,2:0:0:0:
264,117,89394,1,0,1:2:0:0:
242,359,89513,1,0,1:2:0:0:
15,124,89632,6,0,L|115:139,1,61.5,10|8,2:0|2:0,2:0:0:0:
253,225,89751,2,0,L|153:240,1,61.5,8|8,2:0|2:0,2:0:0:0:
29,354,89870,5,8,2:3:0:0:
32,335,89930,1,8,2:3:0:0:
35,317,89989,1,4,2:3:0:0:
38,298,90049,1,4,2:3:0:0:
41,280,90108,6,0,L|126:292,3,61.5,8|8|8|8,2:0|2:0|2:0|2:0,2:0:0:0:
118,307,90346,6,0,B|181:291|181:291|194:220,1,123,6|0,1:2|2:0,2:0:0:0:
181,35,90584,1,10,2:0:0:0:
0,135,90704,2,0,L|144:162,1,123,2|0,1:2|2:0,2:0:0:0:
377,90,90942,1,2,1:2:0:0:
303,327,91061,6,0,B|246:359|246:359|282:178,1,246,10|0,2:0|1:2,2:0:0:0:
434,24,91418,1,0,1:2:0:0:
481,202,91537,2,0,P|405:179|345:174,1,123,10|0,2:0|2:0,2:0:0:0:
96,69,91775,6,0,B|63:42|57:9|57:9|39:72|68:103|83:82|133:121|119:191,1,246,2|8,1:2|2:0,2:0:0:0:
55,318,92132,2,0,B|-17:294|-8:185|39:164|39:164|45:201|75:221,1,246,2|0,1:2|1:2,2:0:0:0:
142,1,92489,2,0,P|211:3|287:5,1,123,8|0,2:0|2:0,2:0:0:0:
478,93,92727,2,0,P|504:151|474:207,1,123,0|0,1:2|1:2,2:0:0:0:
318,268,92965,5,10,2:0:0:0:
368,50,93084,1,2,2:0:0:0:
512,269,93204,6,0,P|433:250|383:255,1,123,6|0,1:2|2:0,2:0:0:0:
171,295,93442,1,10,2:0:0:0:
64,207,93561,6,0,B|50:176|2:186|-28:244|-1:319|46:302,1,184.5,2|0,1:2|2:0,2:0:0:0:
50,300,93799,1,2,1:2:0:0:
226,355,93918,2,0,P|154:371|101:334,1,123,10|0,2:0|2:0,2:0:0:0:
1,166,94156,6,0,P|15:86|23:39,1,123,2|0,1:2|1:2,2:0:0:0:
264,4,94394,2,0,P|253:64|242:125,1,123,10|0,2:0|2:0,2:0:0:0:
114,349,94632,6,0,B|89:377|26:355|26:355|49:264|132:249|165:282|188:317,1,287,6|8,1:2|2:0,2:0:0:0:
408,363,94989,1,0,1:2:0:0:
242,125,95108,1,0,1:2:0:0:
226,355,95227,1,0,1:2:0:0:
444,139,95346,6,0,B|480:118|480:118|516:131|525:172|525:172|491:235|421:247|349:179,1,287,14|0,2:0|1:2,2:0:0:0:
165,82,95704,1,0,1:2:0:0:
19,167,95823,6,0,B|55:165|72:192|72:192|70:161|99:134,1,123,8|0,2:0|1:2,2:0:0:0:
12,248,96061,5,4,1:2:0:0:
152,190,96299,1,0,2:0:0:0:
292,247,96537,1,0,2:0:0:0:
59,311,96775,5,4,1:2:0:0:
152,190,97013,1,0,2:0:0:0:
301,170,97251,1,0,2:0:0:0:
135,346,97489,5,4,1:2:0:0:
144,268,97608,1,0,2:0:0:0:
152,190,97727,1,0,2:0:0:0:
271,98,97965,5,0,2:0:0:0:
278,79,98084,1,0,1:2:0:0:
127,32,98204,5,14,2:0:0:0:
164,265,98323,1,0,1:2:0:0:
278,79,98442,5,14,2:0:0:0:
253,313,98561,1,0,1:2:0:0:
418,146,98680,5,14,2:0:0:0:
333,365,98799,1,0,1:2:0:0:
95,215,98918,6,0,P|169:179|239:226,1,143.5,6|0,1:2|2:0,2:0:0:0:
414,325,99156,1,8,2:0:0:0:
164,265,99275,1,0,1:2:0:0:
398,162,99394,5,8,2:0:0:0:
95,215,99513,1,0,1:2:0:0:
284,64,99632,5,10,2:0:0:0:
87,300,99751,1,0,1:2:0:0:
423,330,99870,5,8,2:0:0:0:
173,179,99989,1,0,1:2:0:0:
393,30,100108,5,8,2:0:0:0:
332,270,100227,1,0,1:2:0:0:
159,87,100346,5,14,2:0:0:0:
123,90,100406,1,8,2:0:0:0:
87,93,100465,1,8,2:0:0:0:
51,97,100525,1,8,2:0:0:0:
16,100,100584,2,0,L|28:198,1,71.75,8|8,2:3|2:3,2:0:0:0:
87,300,100704,2,0,L|95:228,1,71.75,4|4,2:3|2:3,2:0:0:0:
239,135,100823,5,8,2:3:0:0:
252,102,100882,1,8,2:3:0:0:
251,66,100942,1,4,2:3:0:0:
236,34,101001,1,4,2:3:0:0:
209,11,101061,5,8,2:0:0:0:
159,87,101775,5,2,1:2:0:0:
36,167,107489,6,0,P|143:142|295:209,1,246,6|10,1:2|2:0,2:0:0:0:
80,286,107846,2,0,B|57:299|39:271|39:226|98:201|166:207|218:226|249:278,1,246,2|0,1:2|1:2,2:0:0:0:
482,326,108204,6,0,P|487:337|471:319,1,123,10|0,2:0|2:0,2:0:0:0:
512,176,108442,2,0,P|523:180|499:178,1,123,2|0,1:2|1:2,2:0:0:0:
470,32,108680,2,0,P|481:26|463:42,1,123,10|0,2:0|2:0,2:0:0:0:
231,255,108918,6,0,B|214:64|214:64|266:117,1,246,2|8,1:2|2:0,2:0:0:0:
380,311,109275,2,0,B|333:334|291:319|291:319|255:343|255:343|190:320|118:354,1,246,2|0,1:2|1:2,2:0:0:0:
331,237,109632,2,0,P|407:229|463:279,1,123,10|0,2:0|2:0,2:0:0:0:
146,342,109870,5,0,1:2:0:0:
268,185,109989,1,0,1:2:0:0:
127,96,110108,2,0,B|97:122|97:122|110:234,1,123,8|0,2:0|2:0,2:0:0:0:
214,114,110346,6,0,B|201:40|201:40|113:8|113:8|2:89,1,246,6|8,1:2|2:0,2:0:0:0:
0,278,110704,2,0,B|89:286|89:286|117:313|117:313|250:328,1,246,2|0,1:2|1:2,2:0:0:0:
214,114,111061,6,0,B|211:77|183:64|183:64|179:98|213:120,1,123,10|0,2:0|2:0,2:0:0:0:
106,204,111299,2,0,B|78:180|49:190|49:190|70:217|109:209,1,123,2|0,1:2|1:2,2:0:0:0:
93,344,111537,2,0,B|56:346|43:374|43:374|77:378|99:344,1,123,10|0,2:0|2:0,2:0:0:0:
412,384,111775,6,0,P|405:284|245:263,1,246,2|8,1:2|2:0,2:0:0:0:
93,344,112132,2,0,B|54:295|54:295|264:331,1,246,2|0,1:2|1:2,2:0:0:0:
402,220,112489,2,0,B|270:242,1,123,10|0,2:0|2:0,2:0:0:0:
506,361,112727,5,8,2:0:0:0:
438,137,112846,1,8,2:0:0:0:
325,361,112965,5,8,2:3:0:0:
496,208,113084,1,4,2:3:0:0:
303,124,113204,6,0,B|255:94|255:94|289:289,1,205,6|10,1:2|2:0,2:0:0:0:
506,361,113561,1,0,1:2:0:0:
402,220,113680,1,10,2:0:0:0:
325,361,113799,1,2,1:2:0:0:
496,208,113918,6,0,B|488:163|439:124|393:131|393:131|397:100|364:52,1,205,6|10,1:2|2:0,2:0:0:0:
402,220,114275,1,0,1:2:0:0:
468,59,114394,1,10,2:0:0:0:
303,124,114513,1,2,1:2:0:0:
176,32,114632,6,0,P|109:29|25:62,1,153.75,6|0,1:2|2:0,2:0:0:0:
71,132,114870,6,0,B|107:110|106:70|106:70|128:112|178:112,1,153.75,10|0,2:0|2:0,2:0:0:0:
245,176,115108,6,0,P|220:97|160:123,1,153.75,10|0,2:0|2:0,2:0:0:0:
135,184,115346,6,0,P|154:260|175:390,1,205,6|8,1:2|2:0,2:0:0:0:
246,318,115704,1,0,1:2:0:0:
55,218,115823,5,10,2:0:0:0:
303,124,115942,1,2,1:2:0:0:
104,305,116061,6,0,B|193:328|193:328|213:360|213:360|349:389,1,246,6|8,1:2|2:0,2:0:0:0:
400,167,116418,1,0,1:2:0:0:
246,318,116537,1,10,2:0:0:0:
443,367,116656,1,2,1:2:0:0:
481,221,116775,6,0,B|437:196|437:196|314:227|314:227|233:182,1,246,2|8,1:2|2:0,2:0:0:0:
129,30,117132,1,0,1:2:0:0:
40,238,117251,2,0,P|96:220|171:220,1,123,10|0,2:0|1:2,2:0:0:0:
317,64,117489,5,10,2:0:0:0:
317,64,117549,1,8,2:0:0:0:
317,64,117608,1,8,2:0:0:0:
317,64,117668,1,8,2:0:0:0:
317,64,117727,6,0,P|302:103|313:149,1,61.5,8|8,2:3|2:3,2:0:0:0:
222,142,117846,2,0,P|238:180|279:204,1,61.5,4|4,2:3|2:3,2:0:0:0:
412,103,117965,2,0,P|395:141|354:165,1,61.5,8|8,2:3|2:3,2:0:0:0:
424,225,118084,2,0,P|385:240|339:229,1,61.5,4|4,2:3|2:3,2:0:0:0:
222,142,118204,5,14,2:0:0:0:
135,350,118323,1,0,1:2:0:0:
135,114,118442,5,8,2:0:0:0:
122,354,118561,1,0,1:2:0:0:
46,121,118680,5,8,2:0:0:0:
110,358,118799,1,0,1:2:0:0:
241,94,118918,6,0,B|236:55|295:38|295:38|457:78,1,246,6|10,1:2|2:0,2:0:0:0:
506,354,119275,2,0,B|453:389|370:351|431:333|318:296|263:349,1,246,2|0,1:2|1:2,2:0:0:0:
82,84,119632,6,0,P|77:73|93:91,1,123,10|0,2:0|2:0,2:0:0:0:
52,234,119870,2,0,P|46:228|65:238,1,122.999996246338,2|0,1:2|1:2,2:0:0:0:
94,378,120108,2,0,P|83:383|101:367,1,123,10|0,2:0|2:0,2:0:0:0:
460,283,120346,6,0,P|384:246|193:297,1,246,2|8,1:2|2:0,2:0:0:0:
36,316,120704,2,0,B|-5:278|-5:278|27:88,1,246,2|0,1:2|1:2,2:0:0:0:
249,148,121061,2,0,L|228:275,1,123,10|0,2:0|2:0,2:0:0:0:
39,77,121299,5,0,1:2:0:0:
138,270,121418,1,0,1:2:0:0:
329,142,121537,2,0,P|295:80|237:67,1,123,8|0,2:0|2:0,2:0:0:0:
62,214,121775,6,0,B|118:248|194:223|164:192|248:155|321:241,1,246,6|8,1:2|2:0,2:0:0:0:
475,131,122132,2,0,P|498:86|357:46,1,246,2|0,1:2|1:2,2:0:0:0:
228,269,122489,6,0,B|203:297|214:326|214:326|241:305|232:265,1,123,10|0,2:0|2:0,2:0:0:0:
368,281,122727,2,0,B|370:317|398:331|398:331|402:297|369:275,1,123,2|0,1:2|1:2,2:0:0:0:
476,191,122965,2,0,B|503:215|532:205|532:205|511:178|471:186,1,123,10|0,2:0|2:0,2:0:0:0:
253,37,123204,6,0,B|197:11|197:11|222:235,1,246,2|8,1:2|2:0,2:0:0:0:
124,324,123561,2,0,B|237:373|237:373|356:283,1,246,2|0,1:2|1:2,2:0:0:0:
264,123,123918,2,0,B|204:97|204:97|157:131,1,123,10|0,2:0|2:0,2:0:0:0:
5,361,124156,5,8,2:0:0:0:
228,276,124275,1,8,2:0:0:0:
20,245,124394,5,8,2:3:0:0:
238,372,124513,1,4,2:3:0:0:
158,131,124632,6,0,B|122:101|122:101|80:185|80:185|108:212|103:263,1,205,6|10,1:2|2:0,2:0:0:0:
196,51,124989,1,0,1:2:0:0:
20,245,125108,1,10,2:0:0:0:
217,194,125227,1,2,1:2:0:0:
42,90,125346,6,0,B|1:115|1:115|183:133,1,205,6|10,1:2|2:0,2:0:0:0:
363,30,125704,1,0,1:2:0:0:
284,256,125823,1,10,2:0:0:0:
196,51,125942,1,2,1:2:0:0:
469,173,126061,6,0,B|387:155|387:155|357:155|337:171|339:208,1,153.75,6|0,1:2|2:0,2:0:0:0:
370,268,126299,6,0,P|369:191|349:117,1,153.75,10|0,2:0|2:0,2:0:0:0:
254,359,126537,6,0,B|287:346|293:300|293:300|313:341|354:345,1,153.75,10|0,2:0|2:0,2:0:0:0:
202,228,126775,6,0,B|205:193|154:187|154:187|136:265|221:294,1,205,6|8,1:2|2:0,2:0:0:0:
433,324,127132,1,0,1:2:0:0:
349,117,127251,5,10,2:0:0:0:
254,359,127370,1,2,1:2:0:0:
92,141,127489,6,0,B|49:96|49:96|250:121,1,246,6|8,1:2|2:0,2:0:0:0:
457,152,127846,1,0,1:2:0:0:
270,226,127965,1,10,2:0:0:0:
415,40,128084,1,2,1:2:0:0:
390,245,128204,6,0,P|254:263|136:287,1,246,2|8,1:2|2:0,2:0:0:0:
254,359,128561,1,0,1:2:0:0:
349,117,128680,1,10,2:0:0:0:
147,284,128799,1,0,1:2:0:0:
120,82,128918,5,10,2:0:0:0:
120,82,128977,1,8,2:0:0:0:
120,82,129037,1,8,2:0:0:0:
120,82,129096,1,8,2:0:0:0:
120,82,129156,6,0,P|135:121|124:167,1,61.5,8|8,2:3|2:3,2:0:0:0:
215,160,129275,2,0,P|199:198|158:222,1,61.5,4|4,2:3|2:3,2:0:0:0:
25,121,129394,2,0,P|42:159|83:183,1,61.5,8|8,2:3|2:3,2:0:0:0:
13,243,129513,2,0,P|52:258|98:247,1,61.5,4|4,2:3|2:3,2:0:0:0:
314,340,129632,5,14,2:0:0:0:
331,116,129751,1,0,1:2:0:0:
224,328,129870,5,8,2:0:0:0:
323,108,129989,1,0,1:2:0:0:
147,284,130108,5,8,2:0:0:0:
314,99,130227,1,0,1:2:0:0:
486,262,130346,6,0,P|418:249|293:272,1,153.75,4|0,1:2|2:0,2:0:0:0:
319,249,130584,2,0,P|332:295|343:356,1,102.5,8|8,2:0|2:0,2:0:0:0:
215,160,130823,1,0,1:2:0:0:
147,284,130942,1,0,1:2:0:0:
11,146,131061,6,0,P|91:158|225:159,1,205,8|0,2:0|1:2,2:0:0:0:
319,12,131418,1,0,2:0:0:0:
154,103,131537,2,0,P|127:162|148:213,1,102.5,8|0,2:0|2:0,2:0:0:0:
319,249,131775,6,0,P|261:247|199:243,1,102.5,0|0,1:2|2:0,2:0:0:0:
337,332,132013,1,8,2:0:0:0:
135,195,132132,1,8,2:0:0:0:
394,118,132251,2,0,B|417:165|417:165|389:220,1,102.5,0|0,1:2|1:2,2:0:0:0:
136,379,132489,6,0,P|133:304|161:269,1,102.5,8|0,2:0|1:2,2:0:0:0:
316,163,132727,2,0,P|265:160|214:159,1,102.5,0|0,1:2|2:0,2:0:0:0:
56,229,132965,1,8,2:0:0:0:
212,337,133084,1,0,2:0:0:0:
316,162,133204,6,0,P|405:196|395:291,1,205,0|8,1:2|2:0,2:0:0:0:
214,159,133561,1,8,2:0:0:0:
351,30,133680,2,0,P|391:84|388:140,1,102.5,0|0,1:2|1:2,2:0:0:0:
159,219,133918,6,0,B|123:188|121:119|173:84|173:84|210:83|236:60,1,205,8|0,2:0|1:2,2:0:0:0:
60,0,134275,1,0,2:0:0:0:
1,182,134394,2,0,P|60:160|116:157,1,102.5,8|0,2:0|2:0,2:0:0:0:
350,258,134632,6,0,B|300:276|234:241|268:227|217:196|146:222,1,205,0|8,1:2|2:0,2:0:0:0:
323,172,134989,1,8,2:0:0:0:
193,292,135108,2,0,P|184:345|209:393,1,102.5,0|0,1:2|1:2,2:0:0:0:
461,384,135346,5,8,2:0:0:0:
270,329,135465,1,0,1:2:0:0:
467,303,135584,5,8,2:0:0:0:
266,245,135704,1,0,1:2:0:0:
472,223,135823,5,8,1:3:0:0:
334,384,135942,1,4,1:3:0:0:
225,160,136061,6,0,B|192:131|192:131|62:146,1,153.75,4|0,1:2|2:0,2:0:0:0:
65,158,136299,2,0,L|51:50,1,102.5,8|8,2:0|2:0,2:0:0:0:
245,63,136537,1,0,1:2:0:0:
159,219,136656,1,0,1:2:0:0:
51,56,136775,6,0,B|219:39|219:39|275:90,1,205,8|0,2:0|1:2,2:0:0:0:
412,187,137132,1,0,2:0:0:0:
342,21,137251,2,0,L|329:142,1,102.5,8|0,2:0|2:0,2:0:0:0:
512,309,137489,6,0,P|442:304|294:338,1,205,0|8,1:2|2:0,2:0:0:0:
512,224,137846,1,8,2:0:0:0:
422,384,137965,1,0,1:2:0:0:
273,259,138084,1,0,1:2:0:0:
103,373,138204,6,0,P|114:305|120:249,1,102.5,8|0,2:0|1:2,2:0:0:0:
0,110,138442,2,0,P|52:89|111:197,1,205,0|8,1:2|2:0,2:0:0:0:
20,384,138799,1,0,2:0:0:0:
39,223,138918,6,0,P|120:232|200:250,1,153.75,0|0,1:2|2:0,2:0:0:0:
201,267,139156,2,0,P|261:257|273:211,1,102.5,8|8,2:0|2:0,2:0:0:0:
199,58,139394,1,0,1:2:0:0:
112,193,139513,1,0,1:2:0:0:
20,11,139632,6,0,B|74:-6|74:-6|50:143,1,205,8|0,2:0|1:2,2:0:0:0:
103,360,139989,1,0,2:0:0:0:
280,204,140108,2,0,P|222:181|172:150,1,102.5,8|0,2:0|2:0,2:0:0:0:
441,284,140346,6,0,B|495:251|495:251|507:135|507:135|451:68,1,246,12|0,2:0|1:2,2:0:0:0:
187,160,140704,1,12,2:0:0:0:
394,223,140823,2,0,B|419:207|419:207|425:152|425:152|398:121,1,123,0|0,2:0|1:2,2:0:0:0:
295,384,141061,5,8,2:0:0:0:
278,134,141180,1,8,2:0:0:0:
182,357,141299,5,8,2:3:0:0:
187,160,141418,1,8,2:3:0:0:
86,311,141537,5,4,2:3:0:0:
99,191,141656,1,4,2:3:0:0:
288,271,141775,5,4,1:2:0:0:
298,279,142013,6,0,P|225:268|168:265,1,123,0|0,2:0|2:0,2:0:0:0:
73,320,142489,2,0,P|6:279|40:173,1,184.5,8|0,2:0|1:2,2:0:0:0:
99,191,142965,2,0,L|116:55,1,123,2|0,1:2|2:0,2:0:0:0:
190,19,143322,1,0,1:2:0:0:
190,19,143441,2,0,L|199:99,1,61.4999999999999,0|0,1:2|2:0,2:0:0:0:
278,79,143679,2,0,L|265:158,1,61.4999999999999,8|0,2:0|2:0,2:0:0:0:
345,173,143917,2,0,L|312:246,1,61.4999999999999,2|0,1:2|1:2,2:0:0:0:
264,288,144155,6,0,P|324:272|387:307,1,123,2|0,1:2|2:0,2:0:0:0:
431,365,144513,2,0,P|371:381|308:346,1,123,0|0,1:2|2:0,2:0:0:0:
377,296,144870,2,0,L|409:222,1,61.4999999999999,8|0,2:0|2:0,2:0:0:0:
388,121,145108,1,2,1:2:0:0:
388,121,145227,1,0,1:2:0:0:
512,175,145346,6,0,B|447:179|447:179|427:200|427:200|327:207,2,184.5,2|0|8,1:2|1:2|2:0,2:0:0:0:
501,87,146179,1,0,2:0:0:0:
501,87,146298,2,0,P|461:49|436:44,1,61.4999999999999,2|0,1:2|1:2,2:0:0:0:
389,4,146536,5,2,1:2:0:0:
229,78,146775,2,0,P|178:69|142:68,1,61.4999999999999,0|0,2:0|1:2,2:0:0:0:
57,143,147013,2,0,P|108:134|144:133,1,61.4999999999999,0|0,2:0|2:0,2:0:0:0:
239,187,147251,2,0,P|272:143|224:83,1,123,8|2,2:0|1:2,2:0:0:0:
153,209,147608,1,0,1:2:0:0:
97,279,147727,6,0,P|182:259|238:272,1,123,2|0,1:2|2:0,2:0:0:0:
302,348,148084,1,0,1:2:0:0:
302,348,148203,2,0,L|297:274,1,61.4999999999999,0|0,2:0|2:0,2:0:0:0:
376,270,148441,2,0,L|380:331,1,61.4999999999999,8|0,2:0|2:0,2:0:0:0:
457,312,148679,2,0,L|452:238,1,61.4999999999999,2|0,1:2|1:2,2:0:0:0:
505,105,148917,6,0,B|436:89|452:139|374:123,1,123,2|0,1:2|2:0,2:0:0:0:
326,0,149275,2,0,P|369:-13|396:51,1,123,0|0,1:2|2:0,2:0:0:0:
306,151,149632,2,0,P|256:142|217:138,1,61.4999999999999,8|0,2:0|2:0,2:0:0:0:
149,73,149870,2,0,P|199:64|238:60,1,61.4999999999999,2|0,1:2|1:2,2:0:0:0:
43,151,150108,5,2,2:0:0:0:
32,162,150822,5,8,2:0:0:0:
33,185,150881,1,8,2:0:0:0:
35,208,150941,1,8,2:0:0:0:
36,231,151000,1,8,2:0:0:0:
38,254,151060,6,0,L|49:298,3,30.7499999999999,8|8|4|4,2:3|2:3|2:3|2:3,2:0:0:0:
78,309,151298,2,0,L|67:353,3,30.7499999999999,8|8|4|4,2:3|2:3|2:3|2:3,2:0:0:0:
1,384,151536,5,4,1:2:0:0:
162,335,151655,1,0,2:0:0:0:
243,376,151774,6,0,P|239:323|238:267,1,82,0|0,2:0|1:2,2:0:0:0:
379,187,152012,2,0,P|377:227|374:268,1,82,0|0,2:0|1:2,2:0:0:0:
433,324,152190,1,0,1:2:0:0:
433,324,152250,6,0,P|486:308|526:310,1,82,0|0,1:2|2:0,2:0:0:0:
458,137,152488,1,10,2:0:0:0:
374,268,152607,1,8,2:0:0:0:
286,165,152726,6,0,B|222:151|222:151|191:159|191:159|101:142,1,164,10|0,2:0|2:0,2:0:0:0:
64,74,153083,1,0,1:2:0:0:
6,147,153202,2,0,P|10:192|9:256,1,82,0|0,2:0|1:2,2:0:0:0:
71,284,153381,1,0,1:2:0:0:
71,284,153440,2,0,P|67:329|68:393,1,82,0|0,1:2|2:0,2:0:0:0:
117,163,153678,1,10,2:0:0:0:
220,263,153797,1,8,2:0:0:0:
227,384,153916,6,0,P|157:366|33:372,1,164,10|0,2:0|2:0,2:0:0:0:
10,228,154274,2,0,P|53:235|128:237,1,82,0|0,1:2|2:0,2:0:0:0:
198,183,154512,1,0,1:2:0:0:
198,183,154571,1,0,1:2:0:0:
198,183,154631,6,0,P|181:115|157:90,1,82,0|0,1:2|2:0,2:0:0:0:
63,51,154869,1,10,2:0:0:0:
91,237,154988,1,8,2:0:0:0:
277,205,155107,6,0,P|278:139|217:40,1,164,10|0,2:0|2:0,2:0:0:0:
17,121,155464,2,0,P|69:136|111:122,1,82,0|0,1:2|1:2,2:0:0:0:
160,24,155702,1,8,2:0:0:0:
337,140,155821,5,8,2:0:0:0:
174,106,155940,1,8,2:3:0:0:
301,5,156059,5,4,2:3:0:0:
198,183,156178,1,8,2:0:0:0:
386,260,156297,6,0,B|419:241|451:243|451:243|412:196|333:196|291:225|271:280,1,281.875,2|0,1:2|2:0,2:0:0:0:
194,315,157011,6,0,B|225:285|307:303|334:355|334:355|410:383|448:310,1,281.875,2|0,1:2|2:0,2:0:0:0:
486,252,157725,6,0,B|447:229|396:245|377:270|377:270|356:238|397:203|432:210,1,205,2|0,1:2|2:0,2:0:0:0:
494,115,158320,5,0,1:2:0:0:
494,115,158380,1,0,1:2:0:0:
494,115,158439,2,0,P|424:105|324:84,1,153.75,12|0,2:0|2:0,2:0:0:0:
322,75,158677,6,0,P|266:93|253:134,1,102.5,8|8,2:0|2:0,2:0:0:0:
274,272,158916,1,8,2:3:0:0:
425,64,159035,1,4,2:3:0:0:
156,115,159154,5,12,2:0:0:0:
415,209,159273,1,0,1:2:0:0:
166,332,159392,1,0,1:2:0:0:
219,41,159511,5,12,2:0:0:0:
274,292,159630,1,0,1:2:0:0:
59,150,159749,1,0,1:2:0:0:
322,75,159868,5,12,2:0:0:0:
69,267,159987,1,0,1:2:0:0:
122,24,160106,5,12,2:0:0:0:
178,312,160225,1,0,1:2:0:0:
219,41,160344,5,12,2:0:0:0:
274,306,160463,1,0,1:2:0:0:
329,16,160582,5,2,2:0:0:0:
305,104,160701,1,2,2:0:0:0:
405,46,160820,5,2,2:0:0:0:
388,117,160939,1,2,2:0:0:0:
480,83,161058,5,2,2:0:0:0:
467,127,161177,1,2,2:0:0:0:
318,60,161297,5,2,2:0:0:0:
56,312,161773,5,0,2:0:0:0:
14,240,161892,1,0,2:0:0:0:
82,81,162011,6,0,B|112:41|112:41|154:45|178:86,1,123,6|0,1:2|2:0,2:0:0:0:
310,195,162249,1,10,2:0:0:0:
34,144,162368,6,0,P|117:129|244:151,1,184.5,2|0,1:2|2:0,2:0:0:0:
234,149,162606,1,2,1:2:0:0:
170,272,162725,2,0,B|191:298|184:352|132:362|127:369|127:369|127:361|77:336|98:271|128:262,1,246,10|0,2:0|1:2,2:0:0:0:
172,77,163082,1,0,1:2:0:0:
392,179,163201,2,0,P|382:244|326:278,1,123,10|0,2:0|2:0,2:0:0:0:
64,212,163439,6,0,P|191:207|317:193,1,246,2|8,1:2|2:0,2:0:0:0:
413,327,163797,2,0,P|307:360|275:217,1,246,2|0,1:2|1:2,2:0:0:0:
390,95,164154,2,0,P|468:138|476:186,1,123,8|0,2:0|2:0,2:0:0:0:
300,95,164392,2,0,P|343:17|391:9,1,123,0|0,1:2|1:2,2:0:0:0:
506,270,164630,5,10,2:0:0:0:
309,194,164749,1,2,2:0:0:0:
498,75,164868,6,0,B|437:58|437:58|364:112,1,123,6|0,1:2|2:0,2:0:0:0:
338,275,165106,1,10,2:0:0:0:
214,147,165225,2,0,B|160:118|116:143|116:143|51:134|28:75,1,184.5,2|0,1:2|2:0,2:0:0:0:
41,84,165463,1,2,1:2:0:0:
161,215,165582,6,0,B|146:353|146:353|102:386|61:375|34:320,1,246,10|0,2:0|1:2,2:0:0:0:
0,173,165939,1,0,1:2:0:0:
241,246,166058,2,0,L|225:381,1,123,10|0,2:0|2:0,2:0:0:0:
45,105,166297,6,0,B|11:83|11:83|-8:40|29:7|29:7|180:87,1,246,2|8,1:2|2:0,2:0:0:0:
241,246,166654,2,0,P|159:298|84:186,1,246,2|0,1:2|1:2,2:0:0:0:
215,40,167011,2,0,P|293:32|357:24,1,123,8|0,2:0|2:0,2:0:0:0:
363,259,167249,2,0,P|285:251|221:243,1,123,0|0,1:2|1:2,2:0:0:0:
135,63,167487,5,10,2:0:0:0:
349,142,167606,1,2,2:0:0:0:
184,310,167725,6,0,B|138:341|138:341|170:164,1,184.5,6|0,1:2|2:0,2:0:0:0:
150,198,167963,1,10,2:0:0:0:
400,76,168082,2,0,P|432:131|418:186,1,123,2|0,1:2|2:0,2:0:0:0:
240,245,168320,1,2,1:2:0:0:
135,63,168439,6,0,B|173:120|173:120|357:142,1,246,10|0,2:0|1:2,2:0:0:0:
503,9,168797,1,0,1:2:0:0:
331,32,168916,2,0,P|317:90|349:141,1,123,10|0,2:0|2:0,2:0:0:0:
512,290,169154,6,0,P|484:185|343:227,1,287,6|8,1:2|2:0,2:0:0:0:
242,381,169511,1,0,1:2:0:0:
192,152,169630,1,0,1:2:0:0:
429,257,169749,1,0,1:2:0:0:
199,304,169868,6,0,B|164:324|157:360|157:360|88:324|3:344|3:344|23:301|61:294,1,287,10|0,2:0|1:2,2:0:0:0:
192,152,170225,1,0,1:2:0:0:
242,381,170344,1,8,2:0:0:0:
32,214,170463,1,0,2:0:0:0:
247,77,170582,6,0,B|298:28|298:28|267:224,1,246,6|10,1:2|2:0,2:0:0:0:
117,337,170939,1,2,1:2:0:0:
15,111,171177,5,0,1:2:0:0:
26,97,171297,2,0,B|56:62|56:62|171:82,1,123,14|0,2:0|2:0,2:0:0:0:
270,201,171535,2,0,L|251:329,1,123,0|0,1:2|1:2,2:0:0:0:
72,268,171773,2,0,L|90:146,1,123,10|0,2:0|1:2,2:0:0:0:
303,14,172011,5,12,2:0:0:0:
364,236,172130,1,0,1:2:0:0:
174,151,172249,1,0,1:2:0:0:
396,24,172368,5,14,2:0:0:0:
268,216,172487,1,0,1:2:0:0:
214,0,172606,1,0,1:2:0:0:
113,141,172725,6,0,L|213:156,1,61.5,10|8,2:0|2:0,2:0:0:0:
303,298,172844,2,0,L|203:313,1,61.5,8|8,2:0|2:0,2:0:0:0:
105,300,172963,5,8,2:3:0:0:
108,281,173023,1,8,2:3:0:0:
111,263,173082,1,4,2:3:0:0:
114,244,173142,1,4,2:3:0:0:
117,226,173201,6,0,L|202:238,3,61.5,8|8|8|8,2:0|2:0|2:0|2:0,2:0:0:0:
202,232,173439,6,0,B|342:210,1,123,6|0,1:2|2:0,2:0:0:0:
483,68,173677,1,10,2:0:0:0:
301,16,173797,2,0,P|254:66|275:139,1,123,2|0,1:2|2:0,2:0:0:0:
392,314,174035,1,2,1:2:0:0:
496,188,174154,6,0,B|512:167|512:167|511:139|491:113|491:113|308:82,1,246,10|0,2:0|1:2,2:0:0:0:
113,141,174511,1,0,1:2:0:0:
328,205,174630,2,0,B|345:169|345:169|330:73,1,123,10|0,2:0|2:0,2:0:0:0:
185,21,174868,6,0,B|131:0|131:0|-5:27|-5:27|47:63,1,246,2|8,1:2|2:0,2:0:0:0:
254,144,175225,2,0,P|319:163|502:188,1,246,2|0,1:2|1:2,2:0:0:0:
177,105,175582,2,0,P|166:146|212:220,1,123,8|0,2:0|2:0,2:0:0:0:
414,66,175820,2,0,P|392:29|307:9,1,123,0|0,1:2|1:2,2:0:0:0:
201,214,176058,5,10,2:0:0:0:
380,320,176177,1,2,2:0:0:0:
165,373,176297,6,0,B|29:380|29:380|-18:309,1,184.5,6|0,1:2|2:0,2:0:0:0:
4,323,176535,1,10,2:0:0:0:
79,196,176654,2,0,P|150:207|208:214,1,123,2|0,1:2|2:0,2:0:0:0:
20,142,176892,1,2,1:2:0:0:
253,275,177011,2,0,P|280:236|257:153,1,123,10|0,2:0|2:0,2:0:0:0:
62,74,177249,6,0,L|83:233,1,123,2|0,1:2|1:2,2:0:0:0:
268,165,177487,2,0,L|247:6,1,123,10|0,2:0|2:0,2:0:0:0:
98,316,177725,6,0,B|81:316|56:306|43:278|43:278|92:300|151:275|136:255|206:243|283:290,1,287,6|8,1:2|2:0,2:0:0:0:
479,382,178082,1,0,1:2:0:0:
247,363,178201,1,0,1:2:0:0:
387,193,178320,1,0,1:2:0:0:
368,384,178439,6,0,B|323:337|323:337|359:103,1,287,14|0,2:0|1:2,2:0:0:0:
467,4,178797,1,0,1:2:0:0:
494,205,178916,6,0,B|475:207|434:227|434:227|372:182,1,123,8|0,2:0|1:2,2:0:0:0:
202,0,179154,5,4,1:2:0:0:
174,70,179273,1,0,2:0:0:0:
144,140,179392,1,0,2:0:0:0:
201,280,179630,1,0,2:0:0:0:
265,47,179868,5,4,1:2:0:0:
144,140,180106,1,0,2:0:0:0:
124,289,180344,1,0,2:0:0:0:
300,123,180582,5,4,1:2:0:0:
222,132,180701,1,0,2:0:0:0:
144,140,180820,1,0,2:0:0:0:
124,289,181058,5,0,2:0:0:0:
121,307,181177,1,0,1:2:0:0:
362,333,181297,5,14,2:0:0:0:
325,100,181416,1,0,1:2:0:0:
211,286,181535,5,14,2:0:0:0:
236,52,181654,1,0,1:2:0:0:
71,219,181773,5,14,2:0:0:0:
156,0,181892,1,0,1:2:0:0:
397,155,182011,6,0,P|317:190|243:142,1,164,6|0,1:2|2:0,2:0:0:0:
74,41,182249,5,8,2:0:0:0:
325,100,182368,1,0,1:2:0:0:
71,219,182487,5,8,2:0:0:0:
241,66,182606,1,0,1:2:0:0:
205,275,182725,5,10,2:0:0:0:
81,57,182844,1,0,1:2:0:0:
12,287,182963,5,8,2:0:0:0:
291,235,183082,1,0,1:2:0:0:
63,206,183201,5,8,2:0:0:0:
294,319,183320,1,0,1:2:0:0:
509,183,183439,5,14,2:0:0:0:
472,171,183499,1,8,2:0:0:0:
435,162,183558,1,8,2:0:0:0:
397,155,183618,1,8,2:0:0:0:
357,152,183677,2,0,P|316:152|265:145,1,76.875,8|8,2:3|2:3,2:0:0:0:
241,66,183797,2,0,P|202:61|164:61,1,76.875,4|4,2:3|2:3,2:0:0:0:
14,148,183916,5,8,2:3:0:0:
33,118,183975,1,8,2:3:0:0:
38,83,184035,1,4,2:3:0:0:
29,49,184094,1,4,2:3:0:0:
6,21,184154,6,0,P|69:107|172:32,1,230.625,10|0,2:0|2:0,2:0:0:0:
165,34,184392,1,10,2:0:0:0:
185,287,184511,1,0,1:2:0:0:
330,60,184630,5,10,2:0:0:0:
313,315,184749,1,0,1:2:0:0:
504,90,184868,5,6,1:2:0:0:
505,256,190582,6,0,P|441:243|369:252,1,123,4|0,1:2|2:0,2:0:0:0:
383,248,190820,1,2,2:0:0:0:
258,302,190939,6,0,L|265:391,1,82,10|0,2:0|2:0,2:0:0:0:
168,294,191177,1,10,2:0:0:0:
124,131,191297,6,0,L|130:212,1,82,10|0,2:0|2:0,2:0:0:0:
250,90,191535,2,0,L|175:54,1,82,2|0,1:2|2:0,2:0:0:0:
222,220,191773,2,0,L|289:173,1,82,10|0,2:0|2:0,2:0:0:0:
67,64,192011,6,0,B|38:96|38:96|45:222,1,164,2|0,1:2|2:0,2:0:0:0:
6,384,192368,2,0,P|78:353|169:379,1,164,10|10,2:0|2:0,2:0:0:0:
281,323,192725,6,0,L|271:257,2,54.6666666666667,10|0|0,2:0|2:0|2:0,2:0:0:0:
340,372,192963,2,0,P|409:367|428:314,1,123,2|0,1:2|2:0,2:0:0:0:
403,250,193201,2,0,P|372:199|314:201,1,123,10|0,2:0|2:0,2:0:0:0:
273,270,193439,6,0,B|201:276|201:276|184:290|184:290|98:297,1,164,2|0,1:2|2:0,2:0:0:0:
12,182,193797,1,10,2:0:0:0:
74,131,193916,2,0,P|94:186|74:233,1,82,0|10,2:0|2:0,2:0:0:0:
29,61,194154,2,0,P|52:51|130:70,1,82,10|0,2:0|2:0,2:0:0:0:
273,43,194392,6,0,P|287:77|276:131,1,82,2|0,1:2|2:0,2:0:0:0:
200,128,194630,2,0,P|186:94|197:40,1,82,10|0,2:0|2:0,2:0:0:0:
349,1,194868,6,0,P|372:56|352:173,1,164,2|0,1:2|2:0,2:0:0:0:
281,120,195225,1,10,2:0:0:0:
215,226,195344,6,0,L|224:324,1,82,0|10,2:0|2:0,2:0:0:0:
298,287,195582,2,0,L|290:205,1,82,10|0,2:0|2:0,2:0:0:0:
496,128,195820,6,0,B|468:99|468:99|431:123,1,82,2|0,1:2|2:0,2:0:0:0:
425,204,196058,2,0,B|453:233|453:233|490:209,1,82,10|0,2:0|2:0,2:0:0:0:
512,306,196297,6,0,P|452:253|374:281,1,164,6|2,1:2|2:0,2:0:0:0:
297,384,196654,1,8,2:0:0:0:
376,357,196773,2,0,P|378:277|377:246,1,82,0|10,2:0|2:0,2:0:0:0:
220,299,197011,2,0,P|218:379|219:410,1,82,10|0,2:0|2:0,2:0:0:0:
28,251,197249,6,0,P|49:204|109:198,1,82,2|0,1:2|2:0,2:0:0:0:
140,250,197487,2,0,P|119:297|59:303,1,82,10|0,2:0|2:0,2:0:0:0:
0,137,197725,6,0,P|91:162|172:166,1,164,2|0,1:2|2:0,2:0:0:0:
265,51,198082,2,0,P|207:85|197:111,1,82,10|0,2:0|2:0,2:0:0:0:
224,220,198320,1,10,2:0:0:0:
352,157,198439,2,0,L|344:58,1,82,10|0,2:0|2:0,2:0:0:0:
507,199,198677,6,0,B|470:216|470:216|419:195,1,82,2|0,1:2|2:0,2:0:0:0:
431,115,198916,2,0,B|468:98|468:98|519:119,1,82,10|0,2:0|2:0,2:0:0:0:
265,51,199154,6,0,L|278:241,1,164,2|2,1:2|2:0,2:0:0:0:
352,157,199511,1,8,2:0:0:0:
326,279,199630,2,0,P|266:297|231:282,1,82,2|8,2:0|2:0,2:0:0:0:
410,286,199868,2,0,P|380:341|344:355,1,82,10|0,2:0|2:0,2:0:0:0:
87,279,200106,6,0,P|93:239|120:209,1,82,2|0,1:2|2:0,2:0:0:0:
195,351,200344,2,0,P|171:318|169:278,1,82,10|0,2:0|2:0,2:0:0:0:
410,286,200582,6,0,B|362:311|324:291|336:286|290:278|238:295,1,164,2|0,1:2|2:0,2:0:0:0:
364,214,200939,1,0,1:2:0:0:
477,340,201058,2,0,P|495:295|490:253,1,82,0|0,2:0|1:2,2:0:0:0:
491,245,201237,1,0,1:2:0:0:
491,245,201297,5,8,2:0:0:0:
458,95,201416,1,8,2:0:0:0:
382,213,201535,5,8,2:3:0:0:
432,84,201654,1,4,2:3:0:0:
290,147,201773,5,8,2:3:0:0:
408,68,201892,1,4,2:3:0:0:
229,65,202011,6,0,P|242:160|244:318,1,246,6|0,1:2|2:0,2:0:0:0:
161,303,202487,2,0,P|181:253|215:232,1,82,0|0,1:2|1:2,2:0:0:0:
323,331,202725,6,0,P|270:313|213:309,1,82,10|0,2:0|1:2,2:0:0:0:
273,196,202963,2,0,P|222:220|179:258,1,82,0|0,1:2|2:0,2:0:0:0:
142,135,203201,2,0,P|124:188|120:245,1,82,8|0,2:0|2:0,2:0:0:0:
6,328,203439,6,0,P|28:345|156:308,1,164,2|0,1:2|2:0,2:0:0:0:
202,236,203797,1,8,2:0:0:0:
43,247,203916,2,0,P|19:213|2:176,1,82,0|0,2:0|1:2,2:0:0:0:
61,15,204154,5,10,2:0:0:0:
142,135,204273,1,0,1:2:0:0:
31,103,204392,5,0,1:2:0:0:
150,15,204511,1,0,2:0:0:0:
225,151,204630,5,8,2:0:0:0:
235,136,204868,6,0,P|329:122|416:139,1,164,6|0,1:2|2:0,2:0:0:0:
459,194,205225,1,0,2:0:0:0:
391,238,205344,2,0,P|379:286|374:335,1,82,0|0,1:2|1:2,2:0:0:0:
307,367,205523,1,0,1:2:0:0:
307,367,205582,6,0,P|253:336|203:358,1,82,10|0,2:0|1:2,2:0:0:0:
243,259,205820,2,0,P|182:275|163:326,1,82,0|0,1:2|2:0,2:0:0:0:
121,227,206058,2,0,P|89:281|112:331,1,82,8|0,2:0|2:0,2:0:0:0:
152,371,206297,5,2,1:2:0:0:
19,230,206416,2,0,P|92:253|183:294,1,164,0|8,1:2|2:0,2:0:0:0:
63,148,206773,2,0,P|108:136|166:129,1,82,0|0,2:0|1:2,2:0:0:0:
18,66,207011,5,14,2:0:0:0:
210,187,207130,1,0,1:2:0:0:
152,16,207249,5,8,2:0:0:0:
121,227,207368,1,8,2:0:0:0:
275,72,207487,5,8,2:3:0:0:
63,148,207606,1,4,2:3:0:0:
268,261,207725,6,0,P|311:221|466:288,1,246,6|0,1:2|2:0,2:0:0:0:
503,384,208201,2,0,P|454:375|410:381,1,82,0|0,1:2|1:2,2:0:0:0:
316,333,208439,6,0,B|275:358|232:337|232:337|189:318|130:344,1,164,10|0,2:0|1:2,2:0:0:0:
32,384,208797,1,0,2:0:0:0:
5,313,208916,2,0,P|13:248|21:207,1,82,8|0,2:0|2:0,2:0:0:0:
135,189,209154,6,0,B|167:195|172:231|172:231|155:345,1,164,2|0,1:2|2:0,2:0:0:0:
26,221,209511,1,8,2:0:0:0:
114,105,209630,2,0,P|166:109|207:142,1,82,0|0,2:0|1:2,2:0:0:0:
348,286,209868,5,10,2:0:0:0:
429,166,209987,1,0,1:2:0:0:
318,198,210106,5,0,1:2:0:0:
437,286,210225,1,0,2:0:0:0:
509,149,210344,6,0,P|485:104|396:91,1,123,8|0,2:0|2:0,2:0:0:0:
410,64,210582,6,0,P|313:82|243:63,1,164,14|0,2:0|2:0,2:0:0:0:
114,105,210939,1,0,1:2:0:0:
192,205,211058,2,0,P|188:146|196:101,1,82,0|0,1:2|1:2,2:0:0:0:
61,37,211297,6,0,P|26:108|80:184,1,164,14|0,2:0|2:0,2:0:0:0:
250,66,211654,1,0,1:2:0:0:
190,123,211773,2,0,P|187:164|192:205,1,82,0|0,1:2|1:2,2:0:0:0:
334,15,212011,6,0,P|254:37|157:40,1,164,14|0,2:0|2:0,2:0:0:0:
342,110,212368,1,0,1:2:0:0:
432,15,212487,2,0,P|426:102|431:121,1,82,0|0,1:2|1:2,2:0:0:0:
494,248,212725,6,0,L|444:237,1,41,10|8,2:0|2:0,2:0:0:0:
371,236,212844,1,8,2:0:0:0:
371,236,212904,1,8,2:0:0:0:
371,236,212963,2,0,L|391:294,1,41,8|8,2:3|2:3,2:0:0:0:
426,347,213082,2,0,L|466:299,1,41,4|4,2:3|2:3,2:0:0:0:
512,174,213201,6,0,L|455:162,3,41,8|8|4|4,2:3|2:3|2:3|2:3,2:0:0:0:
462,147,213439,6,0,P|371:129|214:173,1,246,6|0,1:2|2:0,2:0:0:0:
166,235,213916,2,0,P|171:276|214:319,1,82,0|0,1:2|1:2,2:0:0:0:
333,280,214154,6,0,P|283:253|227:241,1,82,10|0,2:0|1:2,2:0:0:0:
302,138,214392,2,0,P|248:154|200:184,1,82,0|0,1:2|2:0,2:0:0:0:
183,57,214630,2,0,P|156:106|144:162,1,82,8|0,2:0|2:0,2:0:0:0:
62,165,214868,6,0,P|159:160|261:173,1,164,2|0,1:2|2:0,2:0:0:0:
274,49,215225,1,8,2:0:0:0:
386,159,215344,2,0,P|387:118|370:81,1,82,0|0,2:0|1:2,2:0:0:0:
251,323,215582,5,10,2:0:0:0:
371,242,215701,1,0,1:2:0:0:
339,353,215820,5,0,1:2:0:0:
251,234,215939,1,0,2:0:0:0:
387,159,216058,5,8,2:0:0:0:
405,153,216297,6,0,P|451:195|366:330,1,246,6|0,1:2|2:0,2:0:0:0:
251,323,216773,2,0,P|197:316|131:325,1,82,0|0,1:2|1:2,2:0:0:0:
94,384,217011,6,0,B|121:351|121:351|112:211,1,164,10|0,2:0|1:2,2:0:0:0:
24,79,217368,1,0,2:0:0:0:
0,170,217487,2,0,P|58:157|93:156,1,82,8|0,2:0|2:0,2:0:0:0:
251,234,217725,5,2,1:2:0:0:
336,242,217844,2,0,P|343:165|274:132,1,164,0|8,1:2|2:0,2:0:0:0:
168,97,218201,2,0,P|182:190|182:196,1,82,0|0,2:0|1:2,2:0:0:0:
249,321,218439,5,14,2:0:0:0:
372,130,218558,1,0,1:2:0:0:
390,309,218677,5,8,2:0:0:0:
273,132,218797,1,8,2:0:0:0:
478,207,218916,5,8,2:3:0:0:
255,228,219035,1,4,2:3:0:0:
444,97,219154,6,0,B|431:50|364:29|315:62|315:62|267:35|220:67,1,246,6|0,1:2|2:0,2:0:0:0:
143,110,219630,2,0,P|81:127|49:127,1,82,0|0,1:2|1:2,2:0:0:0:
5,57,219868,6,0,P|34:104|-17:209,1,164,10|0,2:0|1:2,2:0:0:0:
28,384,220225,1,0,2:0:0:0:
70,318,220344,2,0,P|110:313|149:300,1,82,8|0,2:0|2:0,2:0:0:0:
287,384,220582,6,0,P|285:315|217:353,1,164,2|0,1:2|2:0,2:0:0:0:
375,305,220939,1,8,2:0:0:0:
453,381,221058,2,0,P|451:337|461:293,1,82,0|0,2:0|1:2,2:0:0:0:
388,39,221297,5,10,2:0:0:0:
307,159,221416,1,0,1:2:0:0:
418,127,221535,5,0,1:2:0:0:
299,39,221654,1,0,2:0:0:0:
227,176,221773,6,0,P|251:221|340:234,1,123,8|0,2:0|1:2,2:0:0:0:
338,236,222011,6,0,B|493:199|493:199|427:242,1,205,14|8,2:0|2:0,2:0:0:0:
307,159,222368,1,0,1:2:0:0:
447,326,222487,2,0,L|455:206,1,102.5,8|0,2:0|1:2,2:0:0:0:
348,81,222725,6,0,B|286:56|235:89|254:106|208:147|149:106,1,205,10|8,2:0|2:0,2:0:0:0:
17,21,223082,1,0,1:2:0:0:
145,106,223201,2,0,P|140:168|143:247,1,102.5,8|0,2:0|1:2,2:0:0:0:
104,376,223439,5,14,2:0:0:0:
12,189,223558,1,0,1:2:0:0:
210,328,223677,1,0,1:2:0:0:
12,300,223797,5,12,2:0:0:0:
266,217,223916,1,0,1:2:0:0:
12,189,224035,1,0,1:2:0:0:
104,376,224154,5,12,2:0:0:0:
145,106,224273,1,8,2:0:0:0:
331,321,224392,5,8,2:0:0:0:
116,226,224511,1,8,2:0:0:0:
320,110,224630,5,8,2:0:0:0:
210,328,224749,1,8,2:0:0:0:
69,136,224868,5,2,2:0:0:0:
45,48,224987,1,2,2:0:0:0:
145,106,225106,5,2,2:0:0:0:
128,35,225225,1,2,2:0:0:0:
220,69,225344,5,2,2:0:0:0:
207,25,225463,1,2,2:0:0:0:
58,92,225582,5,2,2:0:0:0:
122,233,226058,6,0,P|120:288|96:231,1,153.75,0|0,2:0|2:0,2:0:0:0:
109,264,226297,5,6,1:2:0:0:
476,324,237487,5,0,2:0:0:0:
495,238,237606,1,0,2:0:0:0:
465,96,237725,6,0,B|441:107|406:102|406:102|371:142|371:142|333:128|278:156,1,184.5,6|0,1:2|2:0,2:0:0:0:
237,190,237963,1,10,2:0:0:0:
350,341,238082,6,0,P|357:268|327:190,1,123,2|0,1:2|2:0,2:0:0:0:
430,17,238320,1,2,1:2:0:0:
479,232,238439,6,0,P|370:211|202:185,1,246,10|0,2:0|1:2,2:0:0:0:
132,82,238797,1,0,1:2:0:0:
275,267,238916,2,0,B|318:254|342:219|336:164|303:144|303:144|316:180|313:213,1,184.5,10|0,2:0|2:0,2:0:0:0:
236,189,239154,6,0,B|68:204|68:204|23:214|14:273|69:288,1,246,2|8,1:2|2:0,2:0:0:0:
303,144,239511,2,0,P|253:110|185:251,1,246,2|0,1:2|1:2,2:0:0:0:
315,340,239868,2,0,P|391:328|469:328,1,123,8|0,2:0|2:0,2:0:0:0:
512,151,240106,2,0,P|445:148|379:137,1,123,0|0,1:2|1:2,2:0:0:0:
147,71,240344,5,10,2:0:0:0:
262,267,240463,1,2,2:0:0:0:
24,372,240582,6,0,B|12:231|12:231|53:285,1,184.5,6|0,1:2|2:0,2:0:0:0:
50,276,240820,1,10,2:0:0:0:
215,24,240939,2,0,P|227:99|163:150,1,123,2|0,1:2|2:0,2:0:0:0:
2,21,241177,1,2,1:2:0:0:
147,71,241297,2,0,P|254:92|299:102,1,123,10|0,2:0|2:0,2:0:0:0:
493,153,241535,5,2,1:2:0:0:
362,265,241654,1,0,1:2:0:0:
343,62,241773,2,0,B|406:44|406:44|471:109,1,123,10|0,2:0|2:0,2:0:0:0:
463,292,242011,6,0,B|421:299|399:337|399:337|318:280|234:303|234:303|258:303|297:331,1,287,6|8,1:2|2:0,2:0:0:0:
475,373,242368,1,0,1:2:0:0:
340,179,242487,1,0,2:0:0:0:
233,382,242606,1,0,1:2:0:0:
421,182,242725,6,0,B|427:132|372:73|299:83|262:135|262:135|266:175|248:207,1,287,14|8,2:0|2:3,2:0:0:0:
383,376,243082,1,4,2:3:0:0:
177,154,243201,6,0,B|153:168|142:205|142:205|109:163|53:175,1,123,8|4,2:3|2:3,2:0:0:0:
79,255,243439,5,4,1:2:0:0:
226,222,243677,1,0,2:0:0:0:
354,302,243916,1,0,2:0:0:0:
114,325,244154,5,4,1:2:0:0:
226,222,244392,1,0,2:0:0:0:
377,228,244630,1,0,2:0:0:0:
183,372,244868,5,4,1:2:0:0:
205,297,244987,1,0,2:0:0:0:
226,222,245106,1,0,2:0:0:0:
360,152,245344,5,0,2:0:0:0:
370,134,245463,1,0,1:2:0:0:
407,1,245582,5,14,2:0:0:0:
174,38,245701,1,0,1:2:0:0:
360,152,245820,5,14,2:0:0:0:
126,127,245939,1,0,1:2:0:0:
293,292,246058,5,14,2:0:0:0:
74,207,246177,1,0,1:2:0:0:
437,107,246297,6,0,P|450:159|376:236,1,143.5,6|0,1:2|2:0,2:0:0:0:
257,48,246535,5,8,2:0:0:0:
292,312,246654,1,0,1:2:0:0:
351,58,246773,5,8,2:0:0:0:
292,326,246892,1,0,1:2:0:0:
175,85,247011,5,10,2:0:0:0:
383,318,247130,1,0,1:2:0:0:
131,166,247249,5,8,2:0:0:0:
437,107,247368,1,0,1:2:0:0:
138,257,247487,5,8,2:0:0:0:
453,189,247606,1,0,1:2:0:0:
139,350,247725,5,14,2:0:0:0:
99,340,247785,1,8,2:0:0:0:
67,314,247844,1,8,2:0:0:0:
50,278,247904,1,8,2:0:0:0:
49,237,247963,6,0,P|48:187|39:127,1,82,8|8,2:3|2:3,2:0:0:0:
172,174,248082,2,0,P|171:133|176:92,1,82,4|4,2:3|2:3,2:0:0:0:
109,33,248201,5,8,2:3:0:0:
142,9,248261,1,8,2:3:0:0:
182,4,248320,1,4,2:3:0:0:
221,16,248380,1,4,2:3:0:0:
250,45,248439,5,10,2:0:0:0:
370,301,249193,6,0,B|372:241|335:181|282:216|234:131|274:47|376:53|396:117|396:117|432:61|513:71|543:138|527:214|450:260|453:194|393:229|392:277,1,686.749979042054,2|0,2:0|2:0,2:0:0:0:
465,307,250582,6,0,P|308:289|226:328,1,246,6|10,1:2|2:0,2:0:0:0:
10,286,250939,2,0,B|39:243|121:232|172:262|172:262|139:296|155:361,1,246,2|0,1:2|1:2,2:0:0:0:
391,160,251297,6,0,B|404:150|404:150|391:109|391:109|348:113|348:113|347:133,1,123,10|0,2:0|2:0,2:0:0:0:
233,66,251535,2,0,B|236:47|236:47|198:29|198:29|171:61|171:61|184:76,1,123,2|0,1:2|1:2,2:0:0:0:
56,107,251773,2,0,B|45:91|45:91|5:104|5:104|9:147|9:147|28:149,1,123,10|0,2:0|2:0,2:0:0:0:
87,376,252011,6,0,P|179:351|342:366,1,246,2|8,1:2|2:0,2:0:0:0:
494,198,252368,2,0,P|504:123|391:161,1,246,2|0,1:2|1:2,2:0:0:0:
410,358,252725,2,0,P|426:278|418:206,1,123,10|0,2:0|2:0,2:0:0:0:
250,35,252963,5,0,1:2:0:0:
198,203,253082,1,0,1:2:0:0:
391,160,253201,2,0,B|340:145|340:145|321:152|321:152|230:127,1,123,8|0,2:0|2:0,2:0:0:0:
85,22,253439,6,0,P|99:116|112:287,1,246,6|8,1:2|2:0,2:0:0:0:
391,161,253797,2,0,B|414:115|414:115|390:70|390:70|207:25,1,246,2|0,1:2|1:2,2:0:0:0:
104,279,254154,6,0,P|93:284|111:268,1,123,10|0,2:0|2:0,2:0:0:0:
254,309,254392,2,0,P|246:317|257:295,1,122.999996246338,2|0,1:2|1:2,2:0:0:0:
398,267,254630,2,0,P|403:278|387:260,1,123,10|0,2:0|2:0,2:0:0:0:
39,168,254868,6,0,P|-12:243|69:366,1,246,2|8,1:2|2:0,2:0:0:0:
414,381,255225,2,0,P|486:290|434:185,1,246,2|0,1:2|1:2,2:0:0:0:
229,120,255582,2,0,B|153:107|154:107|76:112,1,123,10|0,2:0|2:0,2:0:0:0:
385,259,255820,5,8,2:0:0:0:
335,31,255939,1,8,2:0:0:0:
277,218,256058,5,8,2:3:0:0:
497,126,256177,1,4,2:3:0:0:
229,120,256297,6,0,B|186:82|186:82|200:273,1,205,6|10,1:2|2:0,2:0:0:0:
314,356,256654,1,0,1:2:0:0:
350,162,256773,1,10,2:0:0:0:
204,313,256892,1,2,1:2:0:0:
419,322,257011,6,0,B|464:288|460:247|428:223|428:223|393:265|331:255,1,205,6|10,1:2|2:0,2:0:0:0:
229,120,257368,1,0,1:2:0:0:
125,279,257487,1,10,2:0:0:0:
350,162,257606,1,2,1:2:0:0:
79,214,257725,6,0,P|44:279|80:343,1,153.75,6|0,1:2|2:0,2:0:0:0:
192,338,257963,6,0,B|181:275|125:279|125:279|149:292|157:320,1,153.75,10|0,2:0|2:0,2:0:0:0:
150,183,258201,6,0,B|181:164|181:164|221:175|221:175|186:199|186:199|153:197,1,153.75,10|0,2:0|2:0,2:0:0:0:
61,141,258439,6,0,P|142:278|161:331,1,205,6|8,1:2|2:0,2:0:0:0:
309,369,258797,1,0,1:2:0:0:
363,154,258916,5,10,2:0:0:0:
152,196,259035,1,2,1:2:0:0:
437,206,259154,6,0,P|451:122|318:72,1,246,6|8,1:2|2:0,2:0:0:0:
138,204,259511,1,0,1:2:0:0:
361,243,259630,1,10,2:0:0:0:
254,22,259749,1,2,1:2:0:0:
77,128,259868,6,0,B|39:190|39:190|74:282|74:282|163:311,1,246,2|8,1:2|2:0,2:0:0:0:
322,69,260225,1,0,1:2:0:0:
81,0,260344,1,10,2:0:0:0:
138,204,260463,1,0,1:2:0:0:
234,16,260582,5,10,2:0:0:0:
234,16,260642,1,8,2:0:0:0:
234,16,260701,1,8,2:0:0:0:
234,16,260761,1,8,2:0:0:0:
234,16,260820,6,0,P|234:53|228:96,1,61.5,8|8,2:3|2:3,2:0:0:0:
322,69,260939,2,0,P|315:105|302:146,1,61.5,4|4,2:3|2:3,2:0:0:0:
228,161,261058,2,0,P|221:197|208:238,1,61.5,8|8,2:3|2:3,2:0:0:0:
306,215,261177,2,0,P|293:249|273:288,1,61.5,4|4,2:3|2:3,2:0:0:0:
149,380,261297,5,14,2:0:0:0:
378,284,261416,1,0,1:2:0:0:
119,285,261535,5,8,2:0:0:0:
382,271,261654,1,0,1:2:0:0:
126,187,261773,5,8,2:0:0:0:
387,258,261892,1,0,1:2:0:0:
163,378,262011,6,0,P|215:324|307:354,1,164,6|0,1:2|2:0,2:0:0:0:
459,313,262368,1,8,2:0:0:0:
459,313,262487,2,0,P|480:267|473:228,1,82,2|8,2:0|2:0,2:0:0:0:
330,204,262725,2,0,P|358:244|395:258,1,82,10|0,2:0|2:0,2:0:0:0:
488,145,262963,2,0,P|438:149|407:174,1,82,10|8,2:0|2:0,2:0:0:0:
377,346,263201,2,0,P|426:341|457:316,1,82,10|0,2:0|2:0,2:0:0:0:
413,167,263439,6,0,L|242:151,1,164,2|0,1:2|2:0,2:0:0:0:
187,82,263797,1,10,2:0:0:0:
187,82,263916,2,0,B|223:59|223:59|286:66,1,82,0|8,2:0|2:0,2:0:0:0:
162,172,264154,1,10,2:0:0:0:
129,189,264273,1,0,2:0:0:0:
93,181,264392,2,0,P|86:130|80:84,1,82,8|8,2:0|2:0,2:0:0:0:
225,232,264630,2,0,P|219:273|214:313,1,82,2|0,2:0|2:0,2:0:0:0:
137,348,264868,6,0,B|246:330|201:391|319:375,1,164,2|0,1:2|2:0,2:0:0:0:
428,334,265225,1,8,2:0:0:0:
428,334,265344,2,0,P|447:299|427:234,1,82,2|8,2:0|2:0,2:0:0:0:
361,242,265582,2,0,P|342:277|362:342,1,82,10|0,2:0|2:0,2:0:0:0:
420,180,265820,1,10,2:0:0:0:
408,150,265939,2,0,P|370:120|314:121,1,82,8|10,2:0|2:0,2:0:0:0:
218,154,266177,1,0,2:0:0:0:
227,73,266297,6,0,P|294:48|333:131,1,164,2|0,1:2|2:0,2:0:0:0:
268,225,266654,1,8,2:0:0:0:
245,243,266773,2,0,P|188:231|135:231,1,82,2|8,2:0|2:0,2:0:0:0:
71,278,267011,2,0,P|10:285|45:211,1,164,10|8,2:0|2:0,2:0:0:0:
91,156,267368,1,8,2:0:0:0:
108,137,267487,2,0,P|100:89|93:44,1,82,2|0,2:0|2:0,2:0:0:0:
186,13,267725,6,0,B|217:33|217:33|350:20,1,164,2|0,1:2|2:0,2:0:0:0:
417,67,268082,1,8,2:0:0:0:
352,131,268201,1,2,2:0:0:0:
356,164,268320,1,8,2:0:0:0:
377,186,268439,2,0,B|362:233|362:233|381:302|381:302|358:365,1,164,10|10,2:0|2:0,2:0:0:0:
260,373,268797,1,8,2:0:0:0:
257,265,268916,1,10,2:0:0:0:
239,363,269035,1,0,2:0:0:0:
170,299,269154,6,0,P|118:290|-3:261,1,164,2|0,1:2|2:0,2:0:0:0:
51,169,269511,1,8,2:0:0:0:
69,189,269630,2,0,P|140:206|178:214,1,82,2|8,2:0|2:0,2:0:0:0:
239,139,269868,2,0,P|210:170|274:266,1,164,10|8,2:0|2:0,2:0:0:0:
335,228,270225,1,8,2:0:0:0:
433,291,270344,5,2,2:0:0:0:
435,179,270463,1,0,2:0:0:0:
492,85,270582,6,0,B|518:56|518:56|391:86,1,164,2|0,1:2|2:0,2:0:0:0:
253,35,270939,1,8,2:0:0:0:
234,57,271058,2,0,P|238:111|238:169,1,82,2|8,2:0|2:0,2:0:0:0:
410,207,271297,6,0,B|436:178|436:178|309:208,1,164,10|10,2:0|2:0,2:0:0:0:
162,158,271654,1,8,2:0:0:0:
143,180,271773,2,0,P|147:234|147:292,1,82,10|0,2:0|2:0,2:0:0:0:
264,346,272011,6,0,P|231:286|122:298,1,164,2|0,1:2|2:0,2:0:0:0:
39,359,272368,1,8,2:0:0:0:
12,374,272487,2,0,P|-5:317|12:278,1,82,2|8,2:0|2:0,2:0:0:0:
52,183,272725,6,0,P|45:122|30:5,1,164,10|0,2:0|1:2,2:0:0:0:
84,97,273082,1,0,1:2:0:0:
150,37,273201,5,8,2:0:0:0:
143,180,273320,1,8,2:0:0:0:
163,378,273439,6,0,P|215:324|307:354,1,164,6|0,1:2|2:0,2:0:0:0:
459,313,273797,1,8,2:0:0:0:
459,313,273916,2,0,P|480:267|473:228,1,82,2|8,2:0|2:0,2:0:0:0:
330,204,274154,2,0,P|358:244|395:258,1,82,10|0,2:0|2:0,2:0:0:0:
488,145,274392,2,0,P|438:149|407:174,1,82,10|8,2:0|2:0,2:0:0:0:
377,346,274630,2,0,P|426:341|457:316,1,82,10|0,2:0|2:0,2:0:0:0:
413,167,274868,6,0,L|242:151,1,164,2|0,1:2|2:0,2:0:0:0:
187,82,275225,1,10,2:0:0:0:
187,82,275344,2,0,B|223:59|223:59|286:66,1,82,0|8,2:0|2:0,2:0:0:0:
162,172,275582,1,10,2:0:0:0:
129,189,275701,1,0,2:0:0:0:
93,181,275820,2,0,P|86:130|80:84,1,82,8|8,2:0|2:0,2:0:0:0:
225,232,276058,2,0,P|219:273|214:313,1,82,2|0,2:0|2:0,2:0:0:0:
293,377,276297,6,0,B|201:391|246:330|137:348,1,164,2|0,1:2|2:0,2:0:0:0:
428,334,276654,1,8,2:0:0:0:
428,334,276773,2,0,P|447:299|427:234,1,82,2|8,2:0|2:0,2:0:0:0:
360,242,277011,2,0,P|341:277|345:317,1,82,10|0,2:0|2:0,2:0:0:0:
512,219,277249,1,10,2:0:0:0:
500,189,277368,2,0,P|462:159|406:160,1,82,8|10,2:0|2:0,2:0:0:0:
244,134,277606,1,0,2:0:0:0:
324,113,277725,6,0,P|363:135|341:255,1,164,2|0,1:2|2:0,2:0:0:0:
262,299,278082,1,8,2:0:0:0:
239,317,278201,2,0,P|182:305|129:305,1,82,2|8,2:0|2:0,2:0:0:0:
68,280,278439,2,0,B|30:302|30:302|16:202|16:202|46:214,1,164,10|8,2:0|2:0,2:0:0:0:
81,117,278797,1,8,2:0:0:0:
103,132,278916,2,0,P|141:108|194:109,1,82,2|0,2:0|2:0,2:0:0:0:
231,26,279154,6,0,B|211:57|211:57|224:190,1,164,2|0,1:2|2:0,2:0:0:0:
298,82,279511,1,8,2:0:0:0:
364,139,279630,1,2,2:0:0:0:
368,172,279749,1,8,2:0:0:0:
389,194,279868,2,0,B|421:223|424:271|401:308|401:308|334:284,1,164,10|10,2:0|2:0,2:0:0:0:
252,373,280225,1,8,2:0:0:0:
255,265,280344,1,10,2:0:0:0:
273,363,280463,1,0,2:0:0:0:
160,335,280582,6,0,P|151:283|122:162,1,164,2|0,1:2|2:0,2:0:0:0:
12,218,280939,1,8,2:0:0:0:
30,238,281058,2,0,P|101:255|139:263,1,82,2|8,2:0|2:0,2:0:0:0:
251,156,281297,2,0,P|220:127|124:191,1,164,10|8,2:0|2:0,2:0:0:0:
190,229,281654,1,8,2:0:0:0:
160,335,281773,5,2,2:0:0:0:
307,283,281892,1,0,2:0:0:0:
418,352,282011,6,0,B|447:378|447:378|417:251,1,164,2|0,1:2|2:0,2:0:0:0:
321,179,282368,1,8,2:0:0:0:
302,201,282487,2,0,P|306:255|306:313,1,82,2|8,2:0|2:0,2:0:0:0:
463,179,282725,6,0,B|492:205|492:205|462:78,1,164,10|10,2:0|2:0,2:0:0:0:
366,6,283082,1,8,2:0:0:0:
347,28,283201,2,0,P|351:82|351:140,1,82,10|0,2:0|2:0,2:0:0:0:
418,256,283439,6,0,P|344:269|305:188,1,164,2|0,1:2|2:0,2:0:0:0:
351,109,283797,1,8,2:0:0:0:
378,94,283916,2,0,P|395:151|378:190,1,82,2|8,2:0|2:0,2:0:0:0:
302,201,284154,6,0,P|220:191|139:181,1,164,10|0,2:0|1:2,2:0:0:0:
216,233,284511,1,0,1:2:0:0:
156,299,284630,5,8,2:0:0:0:
299,292,284749,1,8,2:0:0:0:
21,120,285701,5,0,1:2:0:0:
43,121,285761,1,0,1:2:0:0:
62,114,285820,1,0,1:2:0:0:
31,39,285939,6,2,B|19:12|19:12|95:48|136:156|126:267|62:322|62:322|5:255|14:146|75:100|75:100|155:94|194:150|194:150|203:198|203:240|189:295|172:324|172:324|229:282|286:299|272:316|320:345|402:335|447:293|474:233|480:157|457:96|378:41|322:63|276:129|276:129|284:174|281:227|281:227|322:245|352:229|363:200|363:200|364:159|360:106|347:40|304:-7|233:-26|173:-14|148:29|148:29|189:37|224:67|224:67|247:26|335:-17|396:-11|441:3|480:44|504:77|516:106|528:139|535:183|537:244|502:305|460:335|460:335|388:325|388:325|348:319|259:320|228:384,1,3034,4|0,1:2|2:0,2:0:0:0:
