osu file format v14

[General]
AudioFilename: audio.mp3
AudioLeadIn: 0
PreviewTime: 161783
Countdown: 0
SampleSet: Soft
StackLeniency: 0.5
Mode: 0
LetterboxInBreaks: 0
EpilepsyWarning: 1
WidescreenStoryboard: 1

[Editor]
Bookmarks: 1554,12983,24412,35840,47269,58696,78933,101076,101790,107504,118933,130361,141789,162026,184883,202026,224883,226311,237740,248454,250597,262026,273454,284764,284883,285791,285865,285954,294764
DistanceSpacing: 0.8
BeatDivisor: 4
GridSize: 32
TimelineZoom: 2.699999

[Metadata]
Title:Oxalis
TitleUnicode:Oxalis
Artist:Wolpis Kater
ArtistUnicode:ウォルピスカーター
Creator:Tocorn
Version:Insane
Source:
Tags:Carter SILVANA 西坂恭平 Hatsune Miku 初音ミク vocaloid Nishizaka Cover Japanese Rock ウォルピス社 j-rock jrock utaite 音坂 キョーヘイ Kyohei Kyouhei Taeyang Kyrian SirAeon Kaguya_Sama CutoNaito Houtaro Kyutei Anya Melfissa Anya_Melfissa Banter Nagaraia Himada
BeatmapID:2920768
BeatmapSetID:1347859

[Difficulty]
HPDrainRate:5
CircleSize:3.5
OverallDifficulty:7
ApproachRate:9
SliderMultiplier:1.4
SliderTickRate:1

[Events]
//Background and Video events
0,0,"BG.jpg",0,0
//Break Periods
2,101975,106775
2,185068,189868
2,226497,236887
//Storyboard Layer 0 (Background)
//Storyboard Layer 1 (Fail)
//Storyboard Layer 2 (Pass)
//Storyboard Layer 3 (Foreground)
//Storyboard Layer 4 (Overlay)
//Storyboard Sound Samples

[TimingPoints]
1540,238.095238095238,3,2,2,60,1,0
1778,-100,3,2,2,40,0,0
1897,-100,3,2,1,40,0,0
2254,-100,3,2,2,60,0,0
2492,-100,3,2,2,40,0,0
2730,-100,3,2,2,60,0,0
3325,-100,3,2,1,40,0,0
3682,-100,3,2,2,60,0,0
3920,-100,3,2,2,40,0,0
4159,-100,3,2,2,60,0,0
4754,-100,3,2,1,40,0,0
5111,-100,3,2,2,60,0,0
5349,-100,3,2,2,40,0,0
5587,-100,3,2,2,60,0,0
6182,-100,3,2,1,40,0,0
6540,-100,3,2,2,60,0,0
6778,-100,3,2,2,40,0,0
7016,-100,3,2,2,60,0,0
7254,-100,3,2,1,60,0,0
7968,-100,3,2,5,60,0,0
11540,-100,3,2,5,65,0,0
12135,-100,3,2,5,55,0,0
12254,-100,3,2,16,65,0,0
12432,-100,3,2,16,5,0,0
12492,-100,3,2,3,65,0,0
12968,-83.3333333333333,3,2,17,75,0,0
13206,-83.3333333333333,3,2,3,75,0,0
18206,-83.3333333333333,3,2,3,70,0,0
18266,-83.3333333333333,3,2,4,70,0,0
18325,-83.3333333333333,3,2,4,65,0,0
18444,-83.3333333333333,3,2,1,70,0,0
18563,-83.3333333333333,3,2,1,65,0,0
18682,-83.3333333333333,3,2,1,75,0,0
18920,-83.3333333333333,3,2,3,75,0,0
19397,-83.3333333333333,3,2,7,75,0,0
19635,-83.3333333333333,3,2,3,75,0,0
20825,-83.3333333333333,3,2,7,75,0,0
21063,-83.3333333333333,3,2,3,75,0,0
22968,-83.3333333333333,3,2,4,70,0,0
23206,-83.3333333333333,3,2,1,70,0,0
23444,-83.3333333333333,3,2,2,65,0,0
23682,-83.3333333333333,3,2,3,75,0,0
24397,-83.3333333333333,3,2,6,75,0,0
24635,-83.3333333333333,3,2,3,75,0,0
29635,-83.3333333333333,3,2,3,70,0,0
29694,-83.3333333333333,3,2,4,70,0,0
29754,-83.3333333333333,3,2,4,65,0,0
29873,-83.3333333333333,3,2,1,70,0,0
29992,-83.3333333333333,3,2,1,65,0,0
30111,-83.3333333333333,3,2,1,75,0,0
30349,-83.3333333333333,3,2,3,75,0,0
30825,-83.3333333333333,3,2,7,75,0,0
31063,-83.3333333333333,3,2,3,75,0,0
32254,-83.3333333333333,3,2,7,75,0,0
32492,-83.3333333333333,3,2,3,75,0,0
34397,-83.3333333333333,3,2,4,70,0,0
34635,-83.3333333333333,3,2,1,70,0,0
34873,-83.3333333333333,3,2,2,65,0,0
35111,-83.3333333333333,3,2,3,75,0,0
35825,-83.3333333333333,3,2,3,50,0,0
36540,-83.3333333333333,3,2,3,40,0,0
38682,-133.333333333333,3,2,3,40,0,0
41420,-133.333333333333,3,2,8,30,0,0
41540,-133.333333333333,3,2,8,40,0,0
43384,-133.333333333333,3,2,8,5,0,0
43444,-133.333333333333,3,2,8,40,0,0
44158,-133.333333333333,3,2,8,20,0,0
44397,-133.333333333333,3,2,8,40,0,0
45825,-133.333333333333,3,2,5,50,0,0
46540,-133.333333333333,3,2,5,60,0,0
46659,-133.333333333333,3,2,5,40,0,0
47016,-133.333333333333,3,2,5,50,0,0
47254,-100,3,2,4,60,0,0
47432,-100,3,2,4,5,0,0
47492,-100,3,2,4,60,0,0
48444,-100,3,2,3,60,0,0
48920,-100,3,2,4,60,0,0
49873,-100,3,2,3,60,0,0
50349,-100,3,2,4,60,0,0
51301,-100,3,2,3,60,0,0
51778,-100,3,2,4,60,0,0
52730,-100,3,2,1,55,0,0
52968,-100,3,2,1,60,0,0
53206,-100,3,2,4,60,0,0
54159,-100,3,2,3,60,0,0
54635,-100,3,2,4,60,0,0
55587,-100,3,2,3,60,0,0
56063,-100,3,2,4,60,0,0
57016,-100,3,2,3,60,0,0
57254,-100,3,2,4,70,0,0
57611,-100,3,2,7,70,0,0
58206,-100,3,2,1,65,0,0
58682,238.095238095238,5,2,1,60,1,0
58920,-133.333333333333,5,2,1,60,0,0
59039,-133.333333333333,5,2,9,60,0,0
62848,-133.333333333333,5,2,9,40,0,0
62967,-133.333333333333,5,2,9,60,0,0
65229,-133.333333333333,5,2,9,40,0,0
65348,-133.333333333333,5,2,9,60,0,0
66420,-133.333333333333,5,2,9,40,0,0
66539,-133.333333333333,5,2,9,60,0,0
67015,238.095238095238,3,2,4,70,1,0
67372,-100,3,2,7,70,0,0
67729,-100,3,2,4,70,0,0
67788,-100,3,2,4,60,0,0
67967,-100,3,2,1,65,0,0
68205,-100,3,2,2,60,0,0
68443,238.095238095238,5,2,1,60,1,0
69038,-100,5,2,1,40,0,0
69157,-100,5,2,1,60,0,0
69395,-100,5,2,9,60,0,0
70228,-100,5,2,9,40,0,0
70347,-100,5,2,9,60,0,0
71419,-100,5,2,9,40,0,0
71538,-100,5,2,9,60,0,0
72847,-100,5,2,1,55,0,0
73085,-100,5,2,9,60,0,0
73204,238.095238095238,3,2,10,50,1,0
75346,-100,3,2,3,60,0,0
75584,-100,3,2,4,50,0,0
75822,-100,3,2,1,50,0,0
76061,-83.3333333333333,3,2,4,70,0,0
76418,-83.3333333333333,3,2,7,70,0,0
76775,-83.3333333333333,3,2,4,70,0,0
77013,-83.3333333333333,3,2,7,70,0,0
77251,-83.3333333333333,3,2,4,70,0,0
77489,-100,3,2,4,40,0,0
77727,-133.333333333333,3,2,4,40,0,0
77846,-133.333333333333,3,2,4,50,0,0
77965,-200,3,2,4,50,0,0
78204,-200,3,2,15,60,0,0
78918,-80,3,2,6,75,0,1
79156,-80,3,2,3,75,0,1
89275,-80,3,2,7,75,0,1
89632,-80,3,2,7,70,0,1
89870,-80,3,2,1,65,0,1
90108,-80,3,2,4,70,0,1
90346,-80,3,2,6,75,0,1
90584,-80,3,2,3,75,0,1
94810,-80,3,2,3,5,0,1
94870,-80,3,2,3,75,0,1
95524,-80,3,2,3,5,0,1
95584,-80,3,2,3,75,0,1
96061,-80,3,2,5,70,0,0
98203,-80,3,2,4,80,0,1
98918,-80,3,2,4,75,0,1
99156,-80,3,2,3,75,0,1
100406,-80,3,2,4,75,0,1
100584,-80,3,2,1,70,0,1
100823,-80,3,2,2,65,0,1
101061,-80,3,2,3,70,0,1
101775,-80,3,2,3,60,0,0
107489,-83.3333333333333,3,2,6,75,0,0
107727,-83.3333333333333,3,2,3,75,0,0
112727,-83.3333333333333,3,2,3,70,0,0
112787,-83.3333333333333,3,2,4,70,0,0
112846,-83.3333333333333,3,2,4,65,0,0
112965,-83.3333333333333,3,2,1,70,0,0
113084,-83.3333333333333,3,2,1,65,0,0
113204,-83.3333333333333,3,2,1,75,0,0
113442,-83.3333333333333,3,2,3,75,0,0
113918,-83.3333333333333,3,2,7,75,0,0
114156,-83.3333333333333,3,2,3,75,0,0
115346,-83.3333333333333,3,2,7,75,0,0
115584,-83.3333333333333,3,2,3,75,0,0
117489,-83.3333333333333,3,2,4,70,0,0
117727,-83.3333333333333,3,2,1,70,0,0
117965,-83.3333333333333,3,2,2,65,0,0
118204,-83.3333333333333,3,2,3,75,0,0
118918,-83.3333333333333,3,2,6,75,0,0
119156,-83.3333333333333,3,2,3,75,0,0
124156,-83.3333333333333,3,2,3,70,0,0
124215,-83.3333333333333,3,2,4,70,0,0
124275,-83.3333333333333,3,2,4,65,0,0
124394,-83.3333333333333,3,2,1,70,0,0
124513,-83.3333333333333,3,2,1,65,0,0
124632,-83.3333333333333,3,2,1,75,0,0
124870,-83.3333333333333,3,2,3,75,0,0
125346,-83.3333333333333,3,2,7,75,0,0
125584,-83.3333333333333,3,2,3,75,0,0
126775,-83.3333333333333,3,2,7,75,0,0
127013,-83.3333333333333,3,2,3,75,0,0
128918,-83.3333333333333,3,2,4,70,0,0
129156,-83.3333333333333,3,2,1,70,0,0
129394,-83.3333333333333,3,2,2,65,0,0
129632,-83.3333333333333,3,2,3,75,0,0
130346,-83.3333333333333,3,2,3,60,0,0
130584,-100,3,2,4,60,0,0
131537,-100,3,2,3,60,0,0
132013,-100,3,2,4,60,0,0
132965,-100,3,2,3,60,0,0
133442,-100,3,2,4,60,0,0
134394,-100,3,2,3,60,0,0
134870,-100,3,2,4,60,0,0
135584,-100,3,2,4,65,0,0
135823,-100,3,2,1,60,0,0
136299,-100,3,2,4,60,0,0
137251,-100,3,2,3,60,0,0
137727,-100,3,2,4,60,0,0
138680,-100,3,2,3,60,0,0
139156,-100,3,2,4,60,0,0
140108,-100,3,2,3,60,0,0
140346,-100,3,2,4,70,0,0
140704,-100,3,2,7,70,0,0
141299,-100,3,2,1,65,0,0
141775,238.095238095238,5,2,1,60,1,0
142727,-133.333333333333,5,2,1,60,0,0
146060,-133.333333333333,5,2,5,60,0,0
150108,238.095238095238,3,2,5,50,1,0
150822,-100,3,2,4,70,0,0
151060,-100,3,2,1,65,0,0
151298,-100,3,2,2,60,0,0
151536,238.095238095238,5,2,1,60,1,0
152131,-100,5,2,1,40,0,0
152250,-100,5,2,1,60,0,0
152488,-100,5,2,9,60,0,0
153321,-100,5,2,9,40,0,0
153440,-100,5,2,9,60,0,0
154512,-100,5,2,9,40,0,0
154631,-100,5,2,9,60,0,0
155940,-100,5,2,1,55,0,0
156178,-100,5,2,9,60,0,0
156297,238.095238095238,3,2,10,50,1,0
158439,-83.3333333333333,3,2,3,60,0,0
158677,-83.3333333333333,3,2,4,50,0,0
158916,-83.3333333333333,3,2,1,50,0,0
159154,-83.3333333333333,3,2,4,70,0,0
159511,-83.3333333333333,3,2,7,70,0,0
159868,-83.3333333333333,3,2,4,70,0,0
160106,-83.3333333333333,3,2,7,70,0,0
160344,-83.3333333333333,3,2,4,70,0,0
160582,-100,3,2,4,40,0,0
160820,-133.333333333333,3,2,4,40,0,0
161058,-200,3,2,4,40,0,0
161297,-200,3,2,12,60,0,0
162011,-80,3,2,6,75,0,1
162249,-80,3,2,3,75,0,1
172368,-80,3,2,7,75,0,1
172725,-80,3,2,7,70,0,1
172963,-80,3,2,1,65,0,1
173201,-80,3,2,4,70,0,1
173439,-80,3,2,6,75,0,1
173677,-80,3,2,3,75,0,1
177903,-80,3,2,3,5,0,1
177963,-80,3,2,3,75,0,1
178617,-80,3,2,3,5,0,1
178677,-80,3,2,3,75,0,1
179154,-80,3,2,5,70,0,0
181297,-80,3,2,4,80,0,1
182011,-80,3,2,4,75,0,1
182249,-80,3,2,3,75,0,1
183499,-80,3,2,4,80,0,1
183677,-80,3,2,1,70,0,1
183916,-80,3,2,2,65,0,1
184154,-80,3,2,3,75,0,1
184868,-80,3,2,3,60,0,0
190582,-100,3,2,3,50,0,0
190939,-100,3,2,5,50,0,0
193201,-100,3,2,10,50,0,0
193439,-100,3,2,5,50,0,0
196058,-100,3,2,10,50,0,0
196297,-100,3,2,1,60,0,0
196475,-100,3,2,1,5,0,0
196535,-100,3,2,1,60,0,0
196654,-100,3,2,5,60,0,0
198916,-100,3,2,10,60,0,0
199154,-100,3,2,5,60,0,0
200344,-100,3,2,10,60,0,0
200582,-100,3,2,5,60,0,0
201297,-100,3,2,4,60,0,0
201535,-100,3,2,1,55,0,0
201773,-100,3,2,1,50,0,0
202011,-90.9090909090909,3,2,1,65,0,0
202725,-90.9090909090909,3,2,4,65,0,0
207487,-90.9090909090909,3,2,1,60,0,0
207725,-90.9090909090909,3,2,1,65,0,0
208439,-90.9090909090909,3,2,4,65,0,0
210582,-90.9090909090909,3,2,4,70,0,0
210939,-90.9090909090909,3,2,4,65,0,0
211297,-90.9090909090909,3,2,7,70,0,0
211654,-90.9090909090909,3,2,7,65,0,0
212011,-90.9090909090909,3,2,7,70,0,0
212368,-90.9090909090909,3,2,7,65,0,0
212963,-90.9090909090909,3,2,1,60,0,0
213201,-90.9090909090909,3,2,2,55,0,0
213439,-90.9090909090909,3,2,4,65,0,0
218916,-90.9090909090909,3,2,1,60,0,0
219154,-90.9090909090909,3,2,1,65,0,0
219868,-90.9090909090909,3,2,4,65,0,0
222011,-90.9090909090909,3,2,3,80,0,0
223439,-90.9090909090909,3,2,4,80,0,0
223797,-90.9090909090909,3,2,7,80,0,0
224154,-90.9090909090909,3,2,4,80,0,0
224868,-100,3,2,4,40,0,0
225106,-133.333333333333,3,2,4,40,0,0
225344,-200,3,2,4,40,0,0
225582,-200,3,2,15,60,0,0
226297,-200,3,2,13,60,0,0
237725,-80,3,2,6,75,0,1
237963,-80,3,2,3,75,0,1
242189,-80,3,2,3,5,0,1
242249,-80,3,2,3,75,0,1
242904,-80,3,2,3,5,0,1
242963,-80,3,2,1,70,0,1
243201,-80,3,2,2,65,0,1
243439,-80,3,2,5,70,0,0
243617,-80,3,2,5,5,0,0
243677,-133.333333333333,3,2,5,70,0,0
244154,-80,3,2,5,70,0,0
244332,-80,3,2,5,5,0,0
244392,-133.333333333333,3,2,5,70,0,0
245582,-80,3,2,4,80,0,1
246297,-80,3,2,4,75,0,1
246535,-80,3,2,3,75,0,1
247785,-80,3,2,4,80,0,1
247963,-80,3,2,1,70,0,1
248201,-80,3,2,2,65,0,1
248439,-80,3,2,3,75,0,1
249868,-80,3,2,3,60,0,1
250523,-80,3,2,3,5,0,1
250582,-83.3333333333333,3,2,6,75,0,0
250820,-83.3333333333333,3,2,3,75,0,0
255820,-83.3333333333333,3,2,3,70,0,0
255880,-83.3333333333333,3,2,4,70,0,0
255939,-83.3333333333333,3,2,4,65,0,0
256058,-83.3333333333333,3,2,1,70,0,0
256177,-83.3333333333333,3,2,1,65,0,0
256297,-83.3333333333333,3,2,1,75,0,0
256535,-83.3333333333333,3,2,3,75,0,0
257011,-83.3333333333333,3,2,7,75,0,0
257249,-83.3333333333333,3,2,3,75,0,0
258439,-83.3333333333333,3,2,7,75,0,0
258677,-83.3333333333333,3,2,3,75,0,0
260582,-83.3333333333333,3,2,4,70,0,0
260820,-83.3333333333333,3,2,1,70,0,0
261058,-83.3333333333333,3,2,2,65,0,0
261297,-83.3333333333333,3,2,3,75,0,0
262011,-133.333333333333,3,2,14,60,0,0
262368,-133.333333333333,3,2,1,50,0,0
262606,-133.333333333333,3,2,2,55,0,0
262963,-133.333333333333,3,2,1,50,0,0
263201,-133.333333333333,3,2,2,55,0,0
263439,-133.333333333333,3,2,1,55,0,0
263796,-133.333333333333,3,2,1,50,0,0
264035,-133.333333333333,3,2,2,55,0,0
264392,-133.333333333333,3,2,1,50,0,0
264630,-133.333333333333,3,2,10,50,0,0
264868,-133.333333333333,3,2,14,60,0,0
265225,-133.333333333333,3,2,1,50,0,0
265463,-133.333333333333,3,2,2,55,0,0
265820,-133.333333333333,3,2,1,50,0,0
266058,-133.333333333333,3,2,2,55,0,0
266297,-133.333333333333,3,2,1,55,0,0
266654,-133.333333333333,3,2,1,50,0,0
266892,-133.333333333333,3,2,2,55,0,0
267249,-133.333333333333,3,2,1,50,0,0
267487,-133.333333333333,3,2,10,50,0,0
267725,-133.333333333333,3,2,14,60,0,0
268082,-133.333333333333,3,2,1,50,0,0
268320,-133.333333333333,3,2,2,55,0,0
268677,-133.333333333333,3,2,1,50,0,0
268916,-133.333333333333,3,2,2,55,0,0
269154,-133.333333333333,3,2,1,55,0,0
269511,-133.333333333333,3,2,1,50,0,0
269749,-133.333333333333,3,2,2,55,0,0
270106,-133.333333333333,3,2,1,50,0,0
270344,-133.333333333333,3,2,10,50,0,0
270582,-133.333333333333,3,2,14,60,0,0
270939,-133.333333333333,3,2,1,50,0,0
271177,-133.333333333333,3,2,2,55,0,0
271535,-133.333333333333,3,2,1,50,0,0
271773,-133.333333333333,3,2,2,55,0,0
272011,-133.333333333333,3,2,1,55,0,0
272368,-133.333333333333,3,2,1,50,0,0
272725,-133.333333333333,3,2,2,55,0,0
272963,-133.333333333333,3,2,1,55,0,0
273201,-133.333333333333,3,2,4,60,0,0
273439,-133.333333333333,3,2,14,60,0,0
273796,-133.333333333333,3,2,1,50,0,0
274035,-133.333333333333,3,2,2,55,0,0
274392,-133.333333333333,3,2,1,50,0,0
274630,-133.333333333333,3,2,2,55,0,0
274868,-133.333333333333,3,2,1,55,0,0
275225,-133.333333333333,3,2,1,50,0,0
275463,-133.333333333333,3,2,2,55,0,0
275820,-133.333333333333,3,2,1,50,0,0
276058,-133.333333333333,3,2,10,50,0,0
276297,-133.333333333333,3,2,14,60,0,0
276654,-133.333333333333,3,2,1,50,0,0
276892,-133.333333333333,3,2,2,55,0,0
277249,-133.333333333333,3,2,1,50,0,0
277487,-133.333333333333,3,2,2,55,0,0
277725,-133.333333333333,3,2,1,55,0,0
278082,-133.333333333333,3,2,1,50,0,0
278320,-133.333333333333,3,2,2,55,0,0
278677,-133.333333333333,3,2,1,50,0,0
278915,-133.333333333333,3,2,10,50,0,0
279154,-133.333333333333,3,2,14,60,0,0
279511,-133.333333333333,3,2,1,50,0,0
279749,-133.333333333333,3,2,2,55,0,0
280106,-133.333333333333,3,2,1,50,0,0
280344,-133.333333333333,3,2,2,55,0,0
280582,-133.333333333333,3,2,1,55,0,0
280939,-133.333333333333,3,2,1,50,0,0
281177,-133.333333333333,3,2,2,55,0,0
281535,-133.333333333333,3,2,1,50,0,0
281773,-133.333333333333,3,2,10,50,0,0
282011,-133.333333333333,3,2,14,60,0,0
282368,-133.333333333333,3,2,1,50,0,0
282606,-133.333333333333,3,2,2,55,0,0
282963,-133.333333333333,3,2,1,50,0,0
283201,-133.333333333333,3,2,2,55,0,0
283439,-133.333333333333,3,2,1,55,0,0
283797,-133.333333333333,3,2,1,50,0,0
284154,-133.333333333333,3,2,2,55,0,0
284392,-133.333333333333,3,2,1,55,0,0
284630,-133.333333333333,3,2,4,60,0,0
284749,-133.333333333333,3,2,4,65,0,0
285701,-133.333333333333,3,2,4,50,0,0
285939,-133.333333333333,3,2,4,70,0,0
292725,-133.333333333333,3,2,4,60,0,0
293439,-133.333333333333,3,2,4,50,0,0
294154,-133.333333333333,3,2,4,40,0,0
294749,-133.333333333333,3,2,18,60,0,0

[Colours]
Combo1 : 129,131,131
Combo2 : 221,0,0
Combo3 : 250,194,67
Combo4 : 214,22,104
Combo5 : 0,119,176

[HitObjects]
318,150,1540,6,0,L|306:219,1,70,10|0,1:2|2:0,2:0:0:0:
404,135,1778,1,0,2:0:0:0:
382,274,1897,2,0,L|405:135,1,140,10|2,2:0|3:2,2:0:0:0:
335,52,2254,6,0,B|322:96|322:96|231:122,1,140,10|0,2:0|1:2,2:0:0:0:
79,92,2611,2,0,B|146:111,2,70,0|10|0,2:0|2:0|2:0,2:0:0:0:
192,265,2968,6,0,L|181:196,1,70,10|0,1:2|2:0,2:0:0:0:
116,318,3206,1,0,2:0:0:0:
93,181,3325,2,0,L|117:320,1,140,10|2,2:0|3:2,2:0:0:0:
220,381,3682,6,0,P|235:315|191:264,1,140,10|0,2:0|1:2,2:0:0:0:
276,315,4040,2,0,P|326:314|363:288,2,70,0|10|0,2:0|2:0|2:0,2:0:0:0:
363,168,4397,6,0,P|344:235|342:304,1,140,10|0,1:2|2:0,2:0:0:0:
265,212,4754,2,0,P|285:145|321:85,1,140,10|2,2:0|3:2,2:0:0:0:
201,21,5111,6,0,P|216:52|223:86,1,70,10|0,1:2|2:0,2:0:0:0:
95,134,5349,2,0,P|121:111|140:82,1,70,0|0,1:2|2:0,2:0:0:0:
264,211,5587,6,0,P|220:185|168:181,1,105,10|0,2:0|2:0,2:0:0:0:
159,193,5825,2,0,L|188:331,1,140,10|0,1:2|2:0,2:0:0:0:
103,309,6182,2,0,L|79:244,2,70,10|0|2,2:0|2:0|3:2,2:0:0:0:
0,298,6540,6,0,L|24:337,2,46.6666666666667,10|0|0,1:2|2:0|2:0,2:0:0:0:
79,244,6778,2,0,L|103:309,1,70,0|0,1:2|2:0,2:0:0:0:
171,199,7016,2,0,L|197:314,1,105,10|0,2:0|2:0,2:0:0:0:
268,359,7254,5,6,1:2:0:0:
402,329,7611,2,0,P|337:310|278:344,1,140,2|2,1:2|3:2,2:0:0:0:
294,217,7968,2,0,P|309:248|336:270,1,70,10|0,1:2|2:0,2:0:0:0:
453,258,8206,2,0,P|472:229|477:195,1,70,0|0,1:2|2:0,2:0:0:0:
314,129,8444,2,0,P|263:131|222:163,1,105,2|0,1:2|2:0,2:0:0:0:
212,248,8682,5,2,1:2:0:0:
174,100,9040,2,0,L|197:239,1,140,2|2,1:2|3:2,2:0:0:0:
112,224,9397,2,0,L|100:154,1,70,10|0,1:2|2:0,2:0:0:0:
129,30,9635,2,0,P|156:51|170:82,1,70,0|0,1:2|2:0,2:0:0:0:
292,13,9873,2,0,P|287:80|257:102,1,105,2|0,1:2|2:0,2:0:0:0:
287,182,10111,5,2,1:2:0:0:
237,328,10468,2,0,P|249:260|279:197,1,140,2|2,1:2|3:2,2:0:0:0:
56,295,10825,2,0,P|63:329|77:362,1,70,10|0,1:2|2:0,2:0:0:0:
154,264,11063,2,0,P|167:232|176:198,1,70,0|0,1:2|1:2,2:0:0:0:
12,153,11301,2,0,L|127:129,1,105,2|0,1:2|2:0,2:0:0:0:
169,74,11540,6,0,P|199:47|214:10,3,70,6|0|0|0,1:2|2:0|2:0|2:0,2:0:0:0:
253,116,12016,2,0,P|265:128|279:139,1,35,0|0,2:0|2:0,2:0:0:0:
291,151,12135,1,2,1:2:0:0:
291,151,12194,1,0,1:2:0:0:
291,151,12254,6,0,L|394:118,1,105,14|0,2:0|2:0,2:0:0:0:
397,131,12492,2,0,L|463:109,1,70,10|0,2:0|1:2,2:0:0:0:
416,246,12730,2,0,L|349:224,1,70,10|2,2:0|1:2,2:0:0:0:
503,198,12968,6,0,P|450:262|447:344,1,168,6|10,1:2|2:0,2:0:0:0:
319,295,13325,2,0,P|284:273|271:235,2,84,2|0|0,1:2|2:0|1:2,2:0:0:0:
82,336,13682,6,0,P|115:299|202:296,1,126,10|0,2:0|2:0,2:0:0:0:
187,290,13920,2,0,L|176:383,1,84,2|0,1:2|1:2,2:0:0:0:
0,308,14159,2,0,L|9:224,1,84,10|0,2:0|2:0,2:0:0:0:
139,123,14397,6,0,P|81:183|8:224,1,168,2|8,1:2|2:0,2:0:0:0:
125,37,14754,2,0,P|202:63|224:141,1,168,2|0,1:2|1:2,2:0:0:0:
397,69,15111,6,0,L|230:44,2,168,10|0|8,2:0|1:2|2:0,2:0:0:0:
187,279,15825,6,0,P|169:200|224:141,1,168,6|8,1:2|2:0,2:0:0:0:
442,142,16182,2,0,P|471:112|479:71,2,84,2|0|0,1:2|2:0|1:2,2:0:0:0:
253,223,16540,6,0,L|384:254,1,125.999996154785,10|0,2:0|2:0,2:0:0:0:
375,252,16778,2,0,P|417:253|452:224,1,83.9999974365235,2|0,1:2|1:2,2:0:0:0:
397,69,17016,2,0,P|358:66|319:97,1,83.9999974365235,10|0,2:0|2:0,2:0:0:0:
273,314,17254,6,0,P|217:251|148:205,1,168,2|8,1:2|2:0,2:0:0:0:
27,275,17611,2,0,P|76:353|144:313,1,168,2|0,1:2|1:2,2:0:0:0:
109,109,17968,6,0,L|190:87,1,84,10|0,2:0|2:0,2:0:0:0:
229,183,18206,2,0,L|148:205,1,84,8|8,2:0|2:0,2:0:0:0:
26,274,18444,2,0,L|49:193,1,84,8|4,2:3|2:3,2:0:0:0:
251,17,18682,6,0,L|228:191,1,168,6|10,1:2|2:0,2:0:0:0:
302,301,19040,2,0,L|316:387,2,84,0|10|2,1:2|2:0|1:2,2:0:0:0:
345,174,19397,2,0,P|388:149|488:218,1,168,6|10,1:2|2:0,2:0:0:0:
396,260,19754,2,0,P|383:220|354:190,2,84,0|10|2,1:2|2:0|1:2,2:0:0:0:
189,351,20111,6,0,P|150:337|127:303,1,84,6|0,1:2|2:0,2:0:0:0:
228,183,20349,2,0,P|235:223|217:260,1,84,10|0,2:0|1:2,2:0:0:0:
64,234,20587,2,0,P|95:207|136:204,1,84,10|2,2:0|1:2,2:0:0:0:
87,372,20825,6,0,L|112:121,1,252,6|0,1:2|1:2,2:0:0:0:
17,61,21301,2,0,L|25:144,1,84,10|2,2:0|1:2,2:0:0:0:
194,97,21540,5,6,1:2:0:0:
233,83,21659,1,0,2:0:0:0:
274,75,21778,1,8,2:0:0:0:
316,71,21897,1,0,1:2:0:0:
358,72,22016,2,0,P|352:126|310:147,1,84,10|2,2:0|1:2,2:0:0:0:
194,97,22254,5,2,1:2:0:0:
233,83,22373,1,0,1:2:0:0:
274,75,22492,1,8,2:0:0:0:
316,71,22611,1,0,1:2:0:0:
358,72,22730,2,0,P|352:126|310:147,1,84,10|0,2:0|1:2,2:0:0:0:
236,214,22968,6,0,L|246:173,7,42,10|8|8|8|8|8|4|4,2:0|2:0|2:0|2:0|2:3|2:3|2:3|2:3,2:0:0:0:
214,237,23444,2,0,L|224:277,2,42,8|8|4,2:3|2:3|2:3,2:0:0:0:
324,245,23682,6,0,L|240:233,1,84,14|0,2:0|1:2,2:0:0:0:
152,384,23920,2,0,L|235:372,1,84,8|0,2:0|1:2,2:0:0:0:
236,214,24159,2,0,L|152:202,1,84,8|0,2:0|1:2,2:0:0:0:
9,320,24397,6,0,P|91:327|151:383,1,168,6|10,1:2|2:0,2:0:0:0:
81,241,24754,2,0,P|52:210|50:170,2,84,2|0|0,1:2|2:0|1:2,2:0:0:0:
224,328,25111,6,0,P|257:291|344:288,1,126,10|0,2:0|2:0,2:0:0:0:
329,282,25349,2,0,L|318:375,1,84,2|0,1:2|1:2,2:0:0:0:
341,185,25587,2,0,L|350:101,1,84,10|0,2:0|2:0,2:0:0:0:
472,286,25825,6,0,P|414:226|341:185,1,168,2|8,1:2|2:0,2:0:0:0:
152,202,26182,2,0,P|228:176|250:98,1,168,2|0,1:2|1:2,2:0:0:0:
50,169,26540,6,0,L|75:336,2,168,10|0|8,2:0|1:2|2:0,2:0:0:0:
373,27,27254,6,0,P|329:95|249:98,1,168,6|8,1:2|2:0,2:0:0:0:
87,98,27611,2,0,P|78:139|50:169,2,84,2|0|0,1:2|2:0|1:2,2:0:0:0:
175,325,27968,6,0,L|152:202,1,126,10|0,2:0|2:0,2:0:0:0:
151,201,28206,2,0,P|193:200|232:216,1,84,2|0,1:2|1:2,2:0:0:0:
350,322,28444,2,0,P|308:323|269:307,1,84,10|0,2:0|2:0,2:0:0:0:
424,178,28682,6,0,P|368:240|349:321,1,168,2|8,1:2|2:0,2:0:0:0:
507,181,29040,2,0,P|470:106|393:101,1,168,2|0,1:2|1:2,2:0:0:0:
231,215,29397,6,0,L|204:128,1,84,10|0,2:0|2:0,2:0:0:0:
280,44,29635,2,0,L|305:124,1,84,8|8,2:0|2:0,2:0:0:0:
410,265,29873,2,0,L|307:212,1,84,8|4,2:3|2:3,2:0:0:0:
124,19,30111,6,0,L|101:193,1,168,6|10,1:2|2:0,2:0:0:0:
148,299,30468,2,0,P|152:344|185:373,2,84,0|10|2,1:2|2:0|1:2,2:0:0:0:
155,113,30825,2,0,P|200:93|291:174,1,168,6|10,1:2|2:0,2:0:0:0:
180,214,31182,2,0,P|189:175|143:124,2,84,0|10|2,1:2|2:0|1:2,2:0:0:0:
477,375,31540,6,0,P|448:339|409:326,1,83.9999974365235,6|0,1:2|2:0,2:0:0:0:
247,273,31778,2,0,P|287:269|318:242,1,83.9999974365235,10|0,2:0|1:2,2:0:0:0:
451,124,32016,2,0,P|434:167|443:204,1,83.9999974365235,10|2,2:0|1:2,2:0:0:0:
477,375,32254,6,0,L|451:120,1,251.999992309571,6|0,1:2|1:2,2:0:0:0:
329,157,32730,2,0,L|318:240,1,83.9999974365235,10|2,2:0|1:2,2:0:0:0:
283,46,32968,5,6,1:2:0:0:
244,32,33087,1,0,2:0:0:0:
203,24,33206,1,8,2:0:0:0:
161,20,33325,1,0,1:2:0:0:
119,21,33444,2,0,P|125:75|167:96,1,84,10|2,2:0|1:2,2:0:0:0:
283,46,33682,5,2,1:2:0:0:
244,32,33801,1,0,1:2:0:0:
203,24,33920,1,8,2:0:0:0:
161,20,34040,1,0,1:2:0:0:
119,21,34159,2,0,P|125:75|167:96,1,84,10|0,2:0|1:2,2:0:0:0:
366,196,34397,6,0,L|356:155,7,42,10|8|8|8|8|8|4|4,2:0|2:0|2:0|2:0|2:3|2:3|2:3|2:3,2:0:0:0:
388,219,34873,2,0,L|378:259,2,42,8|8|4,2:3|2:3|2:3,2:0:0:0:
283,213,35111,6,0,L|365:195,1,84,14|0,2:0|1:2,2:0:0:0:
214,291,35349,2,0,L|293:316,1,84,8|0,2:0|1:2,2:0:0:0:
106,325,35587,2,0,L|168:382,1,84,8|0,2:0|1:2,2:0:0:0:
0,312,35825,5,0,1:2:0:0:
0,312,36540,1,2,2:0:0:0:
171,345,37254,1,2,2:0:0:0:
171,345,37968,1,2,2:0:0:0:
342,377,38682,6,0,B|382:306|382:306|311:346|311:346|283:308,1,210.000000000001,2|0,2:0|2:0,2:0:0:0:
475,177,39397,2,0,B|463:219|463:219|346:192|346:192|353:147,1,210.000000000001,2|0,2:0|2:0,2:0:0:0:
418,27,40111,2,0,B|456:88|456:88|448:94|448:94|407:32,1,157.5,2|0,2:0|2:0,2:0:0:0:
353,148,40587,6,0,L|344:95,1,52.5000000000001,0|0,2:0|2:0,2:0:0:0:
263,88,40825,2,0,L|274:150,1,52.5000000000001,2|0,2:0|2:0,2:0:0:0:
96,102,41063,2,0,L|104:49,1,52.5000000000001,0|0,2:0|2:0,2:0:0:0:
187,45,41301,2,0,L|175:107,1,52.5000000000001,0|2,2:0|2:0,2:0:0:0:
174,229,41540,6,0,P|82:198|97:102,1,210.000000000001,2|0,2:0|2:0,2:0:0:0:
260,224,42254,2,0,P|256:266|192:311,2,105,2|0|0,2:0|2:0|2:0,2:0:0:0:
260,224,42968,6,0,L|441:251,1,183.75,2|0,2:0|2:0,2:0:0:0:
441,251,43444,2,0,P|441:206|426:184,1,52.5000000000001,0|0,2:0|2:0,2:0:0:0:
294,353,43682,2,0,P|340:263|440:250,1,210.000000000001,2|2,2:0|2:0,2:0:0:0:
211,307,44397,6,0,P|187:276|152:257,1,78.7500000000002,2|0,2:0|2:0,2:0:0:0:
143,253,44635,2,0,L|92:267,1,52.5000000000001,0|0,2:0|2:0,2:0:0:0:
99,352,44873,2,0,L|47:340,1,52.5000000000001,0|0,2:0|2:0,2:0:0:0:
0,221,45111,2,0,P|41:177|90:193,1,105,2|0,2:0|2:0,2:0:0:0:
214,197,45468,1,0,2:0:0:0:
211,307,45587,2,0,L|202:367,1,52.5000000000001,2|0,2:0|2:0,2:0:0:0:
225,298,45825,6,0,P|254:238|278:95,1,210.000000000001,2|0,2:0|2:0,2:0:0:0:
159,60,46420,1,0,1:2:0:0:
159,60,46480,1,0,1:2:0:0:
159,60,46540,2,0,P|172:82|194:95,1,52.5000000000001,6|2,1:2|2:0,2:0:0:0:
183,185,46778,2,0,P|208:184|231:172,1,52.5000000000001,2|2,2:0|2:0,2:0:0:0:
291,231,47016,2,0,P|313:217|326:195,1,52.5000000000001,2|2,2:0|2:0,2:0:0:0:
480,122,47254,6,0,P|454:78|380:85,1,105,4|0,1:2|2:0,2:0:0:0:
383,73,47492,2,0,L|392:153,1,70,8|0,2:0|1:2,2:0:0:0:
453,203,47730,2,0,L|445:272,1,70,0|0,1:2|1:2,2:0:0:0:
420,364,47968,2,0,P|371:323|280:322,1,140,8|0,2:0|1:2,2:0:0:0:
236,367,48325,1,0,1:2:0:0:
160,354,48444,2,0,L|147:272,1,70,8|0,2:0|2:0,2:0:0:0:
69,231,48682,6,0,L|53:299,1,70,0|0,1:2|2:0,2:0:0:0:
63,130,48920,2,0,L|0:161,1,70,8|0,2:0|1:2,2:0:0:0:
136,60,49159,2,0,L|71:32,1,70,0|0,1:2|1:2,2:0:0:0:
221,233,49397,6,0,P|240:171|290:93,1,140,8|0,2:0|1:2,2:0:0:0:
278,106,49873,6,0,P|300:134|297:168,1,70,8|0,2:0|2:0,2:0:0:0:
347,288,50111,2,0,P|289:249|221:233,2,140,0|8|0,1:2|2:0|1:2,2:0:0:0:
505,151,50825,2,0,P|447:189|379:205,1,140,8|0,2:0|1:2,2:0:0:0:
438,94,51182,1,0,1:2:0:0:
438,94,51301,2,0,P|405:82|370:79,1,70,8|0,2:0|2:0,2:0:0:0:
347,288,51540,6,0,L|371:79,1,210,0|0,1:2|1:2,2:0:0:0:
255,135,52016,2,0,L|246:204,1,70,0|0,2:0|1:2,2:0:0:0:
305,340,52254,6,0,P|332:319|346:287,1,70,8|0,2:0|1:2,2:0:0:0:
158,226,52492,2,0,P|171:257|199:278,1,70,8|8,2:0|2:0,2:0:0:0:
425,245,52730,2,0,P|388:209|337:201,1,105,8|4,1:3|1:3,2:0:0:0:
331,209,52968,1,4,1:2:0:0:
199,278,53206,6,0,P|171:257|158:226,1,70,8|0,2:0|1:2,2:0:0:0:
267,39,53444,2,0,P|279:89|254:134,1,105,0|0,1:2|2:0,2:0:0:0:
243,133,53682,2,0,L|103:116,1,140,8|0,2:0|1:2,2:0:0:0:
48,168,54040,1,0,1:2:0:0:
88,234,54159,2,0,L|158:226,1,70,8|0,2:0|2:0,2:0:0:0:
203,368,54397,6,0,P|236:320|384:310,1,210,0|0,1:2|1:2,2:0:0:0:
271,226,54873,2,0,P|262:260|238:285,1,70,0|0,1:2|1:2,2:0:0:0:
426,384,55111,2,0,P|388:293|372:179,1,210,8|0,2:0|1:2,2:0:0:0:
417,63,55587,2,0,P|459:83|448:142,1,105,8|0,2:0|2:0,2:0:0:0:
435,136,55825,1,0,1:2:0:0:
106,104,56063,6,0,B|141:189|241:137|264:225,1,210,8|0,2:0|1:2,2:0:0:0:
187,67,56540,2,0,P|232:17|298:28,1,140,8|0,2:0|1:2,2:0:0:0:
238,146,56897,1,0,1:2:0:0:
106,104,57016,2,0,P|64:77|38:74,1,70,8|0,2:0|2:0,2:0:0:0:
91,206,57254,6,0,P|153:175|220:152,1,140,12|0,2:0|1:2,2:0:0:0:
348,213,57611,1,12,2:0:0:0:
478,184,57730,2,0,P|496:154|496:119,1,70,0|0,2:0|1:2,2:0:0:0:
345,102,57968,5,8,2:0:0:0:
316,141,58087,1,8,2:0:0:0:
336,192,58206,1,8,2:3:0:0:
310,225,58325,1,8,2:3:0:0:
318,260,58444,1,4,2:3:0:0:
305,282,58563,1,4,2:3:0:0:
310,308,58682,5,4,1:2:0:0:
310,308,58920,2,0,L|361:297,1,52.5000000000001,0|8,2:0|2:0,2:0:0:0:
238,369,59158,2,0,L|186:358,1,52.5000000000001,0|8,2:0|2:0,2:0:0:0:
246,238,59396,2,0,L|407:207,1,157.5,8|0,2:0|1:2,2:0:0:0:
230,241,59872,1,2,1:2:0:0:
76,28,60348,6,0,P|95:45|104:69,1,52.5000000000001,0|8,2:0|2:0,2:0:0:0:
32,114,60586,2,0,P|12:96|3:72,1,52.5000000000001,8|0,2:0|2:0,2:0:0:0:
187,94,60824,2,0,P|177:118|158:135,1,52.5000000000001,2|0,1:2|1:2,2:0:0:0:
36,323,61062,6,0,L|56:193,1,131.25,2|0,1:2|2:0,2:0:0:0:
67,211,61420,2,0,L|50:314,1,105,8|8,2:0|2:0,2:0:0:0:
213,300,61777,2,0,L|199:249,1,52.5000000000001,8|0,2:0|2:0,2:0:0:0:
118,273,62015,2,0,L|131:323,1,52.5000000000001,2|0,1:2|1:2,2:0:0:0:
290,335,62253,6,0,P|347:306|392:310,1,105,2|0,1:2|2:0,2:0:0:0:
487,234,62610,2,0,P|435:233|390:207,1,105,8|8,2:0|2:0,2:0:0:0:
277,161,62967,6,0,P|275:187|289:209,1,52.5000000000001,8|0,2:0|2:0,2:0:0:0:
360,114,63205,2,0,P|383:102|394:79,1,52.5000000000001,2|0,1:2|1:2,2:0:0:0:
278,67,63443,1,2,1:2:0:0:
83,195,63682,6,0,B|120:199|120:199|140:190|140:190|185:195,1,105,0|0,2:0|2:0,2:0:0:0:
142,273,64039,1,8,2:0:0:0:
106,116,64158,2,0,P|108:90|123:69,1,52.5000000000001,8|0,2:0|2:0,2:0:0:0:
142,285,64396,2,0,P|140:311|125:332,1,52.5000000000001,2|0,1:2|1:2,2:0:0:0:
281,206,64634,6,0,P|236:183|186:194,1,105,2|0,1:2|1:2,2:0:0:0:
279,188,64991,1,8,2:0:0:0:
290,288,65110,2,0,L|297:341,1,52.5000000000001,0|8,2:0|2:0,2:0:0:0:
371,177,65348,2,0,L|364:124,2,52.5000000000001,8|0|2,2:0|2:0|1:2,2:0:0:0:
419,322,65824,6,0,B|445:311|445:311|461:235,1,105,2|0,1:2|2:0,2:0:0:0:
297,341,66182,2,0,B|323:330|323:330|339:254,1,105,8|8,2:0|2:0,2:0:0:0:
192,316,66539,2,0,L|198:368,1,52.5000000000001,8|0,2:0|2:0,2:0:0:0:
149,235,66777,5,0,1:2:0:0:
207,174,66896,1,0,2:0:0:0:
284,191,67015,2,0,P|219:102|211:74,1,140,12|0,1:2|1:0,2:0:0:0:
104,156,67372,2,0,P|93:103|115:15,1,140,12|0,2:0|1:2,2:0:0:0:
325,53,67729,5,12,2:0:0:0:
325,53,67788,1,8,2:0:0:0:
325,53,67848,2,0,P|309:59|301:79,3,35,8|8|8|8,2:0|2:0|2:3|2:3,2:0:0:0:
330,34,68086,2,0,P|309:32|296:44,5,35,4|4|8|8|4|4,2:3|2:3|2:3|2:3|2:3|2:3,2:0:0:0:
345,19,68443,1,4,1:2:0:0:
431,251,68681,6,0,P|455:275|489:284,1,70,0|0,2:0|1:2,2:0:0:0:
393,125,68919,2,0,P|415:98|448:89,1,70,0|0,2:0|1:2,2:0:0:0:
353,203,69157,2,0,P|291:178|237:178,1,105,0|0,1:2|2:0,2:0:0:0:
245,182,69395,6,0,L|254:251,1,70,10|8,2:0|2:0,2:0:0:0:
159,161,69633,2,0,L|177:299,1,140,10|0,2:0|2:0,2:0:0:0:
81,199,69990,2,0,L|90:268,1,70,0|0,1:2|2:0,2:0:0:0:
35,73,70228,5,0,1:2:0:0:
35,73,70288,1,0,1:2:0:0:
35,73,70347,2,0,P|55:44|86:30,1,70,0|0,1:2|2:0,2:0:0:0:
159,161,70585,2,0,P|138:133|108:116,1,70,10|8,2:0|2:0,2:0:0:0:
290,44,70823,6,0,P|227:19|168:53,1,140,10|0,2:0|2:0,2:0:0:0:
195,238,71181,2,0,P|210:150|237:95,1,140,0|0,1:2|1:2,2:0:0:0:
107,115,71538,2,0,P|137:132|158:160,1,70,0|0,1:2|2:0,2:0:0:0:
237,314,71776,1,10,2:0:0:0:
237,336,71895,1,8,2:0:0:0:
231,352,72014,2,0,L|163:336,1,70,10|0,2:0|2:0,2:0:0:0:
365,83,72371,6,0,L|433:67,1,70,0|0,1:2|1:2,2:0:0:0:
449,237,72609,1,8,2:0:0:0:
414,229,72728,1,8,2:0:0:0:
379,221,72847,1,8,2:3:0:0:
345,214,72966,1,4,2:3:0:0:
311,207,73085,1,8,2:0:0:0:
277,200,73204,5,2,1:2:0:0:
195,238,73918,1,2,1:2:0:0:
188,326,74632,1,2,1:2:0:0:
79,289,75108,5,0,2:0:0:0:
79,289,75227,2,0,L|113:280,1,35,0|0,1:2|1:2,2:0:0:0:
94,194,75346,2,0,L|26:211,1,70,12|0,2:0|2:0,2:0:0:0:
85,108,75584,2,0,P|151:121|180:182,1,140,8|8,2:0|2:3,2:0:0:0:
462,339,76061,6,0,B|466:303|466:303|335:283,1,168,12|0,2:0|1:2,2:0:0:0:
306,127,76418,2,0,B|310:163|310:163|179:182,1,168,12|0,2:0|1:2,2:0:0:0:
323,366,76775,6,0,L|335:283,1,84,12|0,2:0|1:2,2:0:0:0:
179,182,77013,2,0,L|166:264,1,84,12|0,2:0|1:2,2:0:0:0:
247,318,77251,2,0,L|259:235,1,84,12|0,2:0|1:2,2:0:0:0:
242,74,77489,6,0,P|268:50|301:41,1,70,2|2,2:0|2:0,2:0:0:0:
347,155,77727,2,0,P|309:133|301:109,1,52.5000000000001,2|2,2:0|2:0,2:0:0:0:
383,47,77965,2,0,L|374:81,1,35,2|2,2:0|2:0,2:0:0:0:
456,91,78204,1,2,2:0:0:0:
467,265,78680,6,0,P|485:242|487:229,1,35,0|0,2:0|2:0,2:0:0:0:
467,265,78918,6,0,L|455:90,1,175,6|10,1:2|2:0,2:0:0:0:
382,220,79275,2,0,L|376:132,1,87.5,2|0,1:2|2:0,2:0:0:0:
384,235,79513,1,2,1:2:0:0:
222,173,79632,6,0,P|193:282|306:276,1,262.5,10|0,2:0|1:2,2:0:0:0:
292,125,80108,2,0,P|256:93|210:91,1,87.5,10|0,2:0|2:0,2:0:0:0:
157,317,80346,6,0,B|209:286|209:286|221:172,1,175,2|8,1:2|2:0,2:0:0:0:
66,86,80704,2,0,B|78:199|78:199|130:230,1,175,2|0,1:2|1:2,2:0:0:0:
218,89,81061,6,0,P|260:95|292:125,1,87.5,8|0,2:0|2:0,2:0:0:0:
227,253,81299,2,0,P|210:213|221:171,1,87.5,0|0,1:2|1:2,2:0:0:0:
333,43,81537,1,10,2:0:0:0:
298,209,81656,1,2,2:0:0:0:
464,111,81775,6,0,L|378:124,1,87.5,6|0,1:2|2:0,2:0:0:0:
308,300,82013,1,10,2:0:0:0:
221,172,82132,2,0,L|134:158,2,87.5,2|0|2,1:2|2:0|1:2,2:0:0:0:
358,371,82489,6,0,B|412:321|377:249|424:195,1,175,10|0,2:0|1:2,2:0:0:0:
481,372,82846,1,0,1:2:0:0:
428,313,82965,2,0,P|392:290|351:274,1,87.5,10|0,2:0|2:0,2:0:0:0:
88,338,83204,6,0,P|165:299|262:299,1,175,2|8,1:2|2:0,2:0:0:0:
56,213,83561,2,0,P|142:211|220:172,1,175,2|0,1:2|1:2,2:0:0:0:
302,51,83918,6,0,P|260:57|228:87,1,87.5,8|0,2:0|2:0,2:0:0:0:
289,219,84156,2,0,P|306:179|295:137,1,87.5,0|0,1:2|1:2,2:0:0:0:
171,27,84394,1,10,2:0:0:0:
220,171,84513,1,2,2:0:0:0:
370,106,84632,6,0,L|455:88,1,87.5,6|0,1:2|2:0,2:0:0:0:
302,51,84870,1,10,2:0:0:0:
289,219,84989,2,0,L|460:254,1,175,2|2,1:2|1:2,2:0:0:0:
228,86,85346,6,0,B|182:138|182:138|220:327,1,262.5,10|0,2:0|1:2,2:0:0:0:
384,357,85823,2,0,P|386:313|368:274,1,87.5,10|0,2:0|2:0,2:0:0:0:
181,236,86061,6,0,L|199:321,1,87.5,6|0,1:2|2:0,2:0:0:0:
140,384,86299,1,8,2:0:0:0:
55,373,86418,2,0,L|89:201,1,175,0|0,1:2|1:2,2:0:0:0:
64,60,86775,6,0,P|99:83|113:124,1,87.5,10|0,2:0|2:0,2:0:0:0:
249,173,87013,2,0,P|210:193|168:184,1,87.5,0|0,1:2|1:2,2:0:0:0:
56,276,87251,2,0,P|59:234|88:202,1,87.5,8|0,2:0|2:0,2:0:0:0:
323,99,87489,6,0,P|295:181|289:268,1,175,6|10,1:2|2:0,2:0:0:0:
202,354,87846,2,0,P|195:266|168:184,1,175,2|0,1:2|1:2,2:0:0:0:
294,284,88204,6,0,P|335:293|374:273,1,87.5,14|0,2:0|2:0,2:0:0:0:
335,114,88442,2,0,P|315:161|308:208,1,87.5,0|0,1:2|1:2,2:0:0:0:
433,345,88680,2,0,P|461:313|464:270,1,87.5,10|0,2:0|2:0,2:0:0:0:
416,66,88918,6,0,L|242:88,1,175,12|0,2:0|1:2,2:0:0:0:
120,306,89275,2,0,L|293:283,1,175,14|0,2:0|1:2,2:0:0:0:
190,26,89632,6,0,P|163:61|164:104,1,87.5,10|8,2:0|2:0,2:0:0:0:
206,262,89870,2,0,P|205:219|180:185,1,87.5,8|4,2:3|2:3,2:0:0:0:
83,60,90108,1,8,2:0:0:0:
100,218,90227,1,8,2:0:0:0:
242,88,90346,6,0,L|416:66,1,175,6|10,1:2|2:0,2:0:0:0:
294,164,90704,2,0,L|380:152,1,87.5,2|0,1:2|2:0,2:0:0:0:
276,166,90942,1,2,1:2:0:0:
437,221,91061,6,0,P|474:326|362:320,1,262.5,10|0,2:0|1:2,2:0:0:0:
276,166,91537,2,0,P|279:210|259:248,1,87.5,10|0,2:0|2:0,2:0:0:0:
77,308,91775,6,0,B|35:335|35:335|156:307,1,175,2|8,1:2|2:0,2:0:0:0:
99,111,92132,2,0,B|81:165|81:165|195:191,1,175,2|0,1:2|1:2,2:0:0:0:
289,80,92489,6,0,P|245:81|209:105,1,87.5,8|0,2:0|2:0,2:0:0:0:
259,247,92727,2,0,P|279:209|276:165,1,87.5,0|0,1:2|1:2,2:0:0:0:
181,15,92965,1,10,2:0:0:0:
195,191,93084,1,2,2:0:0:0:
357,144,93204,6,0,L|443:130,1,87.5,6|0,1:2|2:0,2:0:0:0:
259,247,93442,1,10,2:0:0:0:
209,105,93561,2,0,L|122:91,2,87.5,2|0|2,1:2|2:0|1:2,2:0:0:0:
256,344,93918,6,0,L|270:258,1,87.5,10|0,2:0|2:0,2:0:0:0:
388,225,94156,2,0,L|357:144,1,87.5,2|0,1:2|1:2,2:0:0:0:
209,105,94394,2,0,L|278:51,1,87.5,10|0,2:0|2:0,2:0:0:0:
501,192,94632,6,0,P|461:241|398:240,1,131.25,6|0,1:2|2:0,2:0:0:0:
388,225,94870,2,0,L|357:144,1,87.5,8|0,2:0|1:2,2:0:0:0:
256,344,95108,2,0,L|270:258,1,87.5,0|0,1:2|1:2,2:0:0:0:
49,163,95346,2,0,P|51:225|121:254,1,131.25,14|0,2:0|2:0,2:0:0:0:
122,248,95584,2,0,L|191:194,2,87.5,0|0|8,1:2|1:2|2:0,2:0:0:0:
277,49,96061,5,4,1:2:0:0:
275,165,96775,5,4,1:2:0:0:
273,281,97489,5,4,1:2:0:0:
192,0,98204,6,0,P|171:38|141:70,1,87.5,14|0,2:0|1:2,2:0:0:0:
330,61,98442,2,0,P|359:92|396:115,1,87.5,14|0,2:0|1:2,2:0:0:0:
212,142,98680,2,0,P|174:164|132:177,1,87.5,14|0,2:0|1:2,2:0:0:0:
395,269,98918,6,0,B|350:237|350:237|230:255,1,175,6|8,1:2|2:0,2:0:0:0:
17,235,99275,2,0,B|39:286|39:286|157:310,1,175,0|0,1:2|1:2,2:0:0:0:
327,149,99632,6,0,L|421:130,1,87.5,10|0,2:0|1:2,2:0:0:0:
330,328,99870,2,0,L|235:346,1,87.5,8|0,2:0|1:2,2:0:0:0:
346,114,100108,2,0,L|440:95,1,87.5,8|0,2:0|1:2,2:0:0:0:
408,280,100346,5,14,2:0:0:0:
408,280,100406,1,8,2:0:0:0:
408,280,100465,2,0,L|415:323,5,43.75,8|8|8|8|4|4,2:0|2:0|2:3|2:3|2:3|2:3,2:0:0:0:
387,259,100823,2,0,L|398:196,2,43.75,8|8|4,2:3|2:3|2:3,2:0:0:0:
330,328,101061,5,8,2:0:0:0:
212,195,101775,5,2,1:2:0:0:
9,186,107489,6,0,P|62:122|65:40,1,168,6|10,1:2|2:0,2:0:0:0:
100,239,107846,2,0,P|135:261|148:299,2,84,2|0|0,1:2|2:0|1:2,2:0:0:0:
251,107,108204,6,0,P|218:144|131:147,1,126,10|0,2:0|2:0,2:0:0:0:
146,153,108442,2,0,P|157:104|157:60,1,84,2|0,1:2|1:2,2:0:0:0:
271,204,108680,2,0,P|262:240|262:288,1,84,10|0,2:0|2:0,2:0:0:0:
332,45,108918,6,0,P|385:107|383:189,1,168,2|8,1:2|2:0,2:0:0:0:
259,379,109275,2,0,P|279:305|354:319,1,168,2|0,1:2|1:2,2:0:0:0:
100,239,109632,6,0,L|262:286,2,168,10|0|8,2:0|1:2|2:0,2:0:0:0:
108,14,110346,6,0,P|90:93|145:152,1,168,6|8,1:2|2:0,2:0:0:0:
263,22,110704,2,0,P|234:52|226:93,2,84,2|0|0,1:2|2:0|1:2,2:0:0:0:
504,131,111061,6,0,L|389:79,1,126,10|0,2:0|2:0,2:0:0:0:
390,80,111299,2,0,P|348:79|309:95,1,84,2|0,1:2|1:2,2:0:0:0:
377,275,111537,2,0,P|417:265|451:239,1,84,10|0,2:0|2:0,2:0:0:0:
225,92,111775,6,0,P|249:179|259:274,1,168,2|8,1:2|2:0,2:0:0:0:
67,358,112132,2,0,P|116:280|184:320,1,168,2|0,1:2|1:2,2:0:0:0:
339,278,112489,6,0,L|258:256,1,84,10|0,2:0|2:0,2:0:0:0:
263,362,112727,2,0,L|344:384,1,84,8|8,2:0|2:0,2:0:0:0:
458,220,112965,2,0,L|435:301,1,84,8|4,2:3|2:3,2:0:0:0:
173,301,113204,6,0,L|150:127,1,168,6|10,1:2|2:0,2:0:0:0:
262,102,113561,2,0,L|276:16,2,84,0|10|2,1:2|2:0|1:2,2:0:0:0:
125,229,113918,2,0,P|75:229|23:119,1,168,6|10,1:2|2:0,2:0:0:0:
109,65,114275,2,0,P|121:104|150:134,2,84,0|10|2,1:2|2:0|1:2,2:0:0:0:
360,52,114632,6,0,P|399:66|422:100,1,84,6|0,1:2|2:0,2:0:0:0:
296,243,114870,2,0,P|289:203|307:166,1,84,10|0,2:0|1:2,2:0:0:0:
493,210,115108,2,0,P|462:237|421:240,1,84,10|2,2:0|1:2,2:0:0:0:
275,19,115346,6,0,B|324:53|324:53|293:271,1,252,6|0,1:2|1:2,2:0:0:0:
436,322,115823,2,0,L|420:239,1,84,10|2,2:0|1:2,2:0:0:0:
213,294,116061,5,6,1:2:0:0:
174,308,116180,1,0,2:0:0:0:
133,316,116299,1,8,2:0:0:0:
91,320,116418,1,0,1:2:0:0:
49,319,116537,2,0,P|55:265|97:244,1,84,10|2,2:0|1:2,2:0:0:0:
213,294,116775,5,2,1:2:0:0:
174,308,116894,1,0,1:2:0:0:
133,316,117013,1,8,2:0:0:0:
91,320,117132,1,0,1:2:0:0:
49,319,117251,2,0,P|55:265|97:244,1,84,10|0,2:0|1:2,2:0:0:0:
276,170,117489,6,0,L|266:211,7,42,10|8|8|8|8|8|4|4,2:0|2:0|2:0|2:0|2:3|2:3|2:3|2:3,2:0:0:0:
298,147,117965,2,0,L|288:107,2,42,8|8|4,2:3|2:3|2:3,2:0:0:0:
188,139,118204,6,0,L|272:151,1,84,14|0,2:0|1:2,2:0:0:0:
360,0,118442,2,0,L|277:12,1,84,8|0,2:0|1:2,2:0:0:0:
276,170,118680,2,0,L|360:182,1,84,8|0,2:0|1:2,2:0:0:0:
503,186,118918,6,0,P|450:122|447:40,1,168,6|10,1:2|2:0,2:0:0:0:
426,244,119275,2,0,P|391:266|378:304,2,84,2|0|0,1:2|2:0|1:2,2:0:0:0:
170,249,119632,6,0,P|203:286|290:289,1,126,10|0,2:0|2:0,2:0:0:0:
275,294,119870,2,0,L|264:201,1,84,2|0,1:2|1:2,2:0:0:0:
92,97,120108,2,0,L|101:181,1,84,10|0,2:0|2:0,2:0:0:0:
232,106,120346,6,0,P|174:46|101:5,1,168,2|8,1:2|2:0,2:0:0:0:
8,227,120704,2,0,P|72:176|91:96,1,168,2|0,1:2|1:2,2:0:0:0:
30,355,121061,6,0,P|107:334|197:330,2,168,10|0|8,2:0|1:2|2:0,2:0:0:0:
365,109,121775,6,0,P|287:132|264:210,1,168,6|8,1:2|2:0,2:0:0:0:
417,266,122132,2,0,P|446:296|454:337,2,84,2|0|0,1:2|2:0|1:2,2:0:0:0:
140,233,122489,6,0,L|263:210,1,126,10|0,2:0|2:0,2:0:0:0:
263,209,122727,2,0,P|305:208|344:224,1,84,2|0,1:2|1:2,2:0:0:0:
364,379,122965,2,0,P|322:380|283:364,1,84,10|0,2:0|2:0,2:0:0:0:
136,228,123204,6,0,P|94:299|10:324,1,168,2|8,1:2|2:0,2:0:0:0:
31,119,123561,2,0,P|100:84|148:146,1,168,2|0,1:2|1:2,2:0:0:0:
113,325,123918,6,0,L|194:347,1,84,10|0,2:0|2:0,2:0:0:0:
217,250,124156,2,0,L|136:228,1,84,8|8,2:0|2:0,2:0:0:0:
31,119,124394,2,0,L|54:200,1,84,8|4,2:3|2:3,2:0:0:0:
273,384,124632,6,0,L|314:200,1,168,6|10,1:2|2:0,2:0:0:0:
229,129,124989,2,0,L|215:43,2,84,0|10|2,1:2|2:0|1:2,2:0:0:0:
407,224,125346,2,0,P|482:180|467:82,1,168,6|10,1:2|2:0,2:0:0:0:
352,78,125704,2,0,P|386:100|407:136,2,84,0|10|2,1:2|2:0|1:2,2:0:0:0:
189,33,126061,6,0,P|150:47|127:81,1,84,6|0,1:2|2:0,2:0:0:0:
176,254,126299,2,0,P|183:214|165:177,1,84,10|0,2:0|1:2,2:0:0:0:
0,131,126537,2,0,P|31:158|72:161,1,84,10|2,2:0|1:2,2:0:0:0:
39,34,126775,6,0,B|18:63|18:63|65:243|65:243|93:252,1,252,6|0,1:2|1:2,2:0:0:0:
163,384,127251,2,0,B|182:345|182:345|221:332,1,84,10|2,2:0|1:2,2:0:0:0:
347,282,127489,5,6,1:2:0:0:
386,296,127608,1,0,2:0:0:0:
427,304,127727,1,8,2:0:0:0:
469,308,127846,1,0,1:2:0:0:
511,307,127965,2,0,P|505:253|463:232,1,84,10|2,2:0|1:2,2:0:0:0:
347,282,128204,5,2,1:2:0:0:
386,296,128323,1,0,1:2:0:0:
427,304,128442,1,8,2:0:0:0:
469,308,128561,1,0,1:2:0:0:
511,307,128680,2,0,P|505:253|463:232,1,84,10|0,2:0|1:2,2:0:0:0:
423,113,128918,6,0,L|433:154,7,42,10|8|8|8|8|8|4|4,2:0|2:0|2:0|2:0|2:3|2:3|2:3|2:3,2:0:0:0:
401,90,129394,2,0,L|411:50,2,42,8|8|4,2:3|2:3|2:3,2:0:0:0:
319,159,129632,6,0,L|236:171,1,84,14|0,2:0|1:2,2:0:0:0:
234,303,129870,2,0,L|156:271,1,84,8|0,2:0|1:2,2:0:0:0:
93,377,130108,2,0,L|41:311,1,84,8|0,2:0|1:2,2:0:0:0:
66,185,130346,5,4,1:2:0:0:
53,177,130584,2,0,P|34:147|32:112,1,70,8|8,2:0|2:0,2:0:0:0:
212,122,130823,2,0,P|210:156|191:186,1,70,0|0,1:2|1:2,2:0:0:0:
31,97,131061,2,0,P|94:78|132:132,1,140,8|0,2:0|1:2,2:0:0:0:
155,271,131418,1,0,2:0:0:0:
233,302,131537,2,0,P|268:304|297:285,1,70,8|0,2:0|2:0,2:0:0:0:
361,129,131775,6,0,L|347:197,1,70,0|0,1:2|2:0,2:0:0:0:
433,307,132013,2,0,L|446:238,1,70,8|8,2:0|2:0,2:0:0:0:
344,117,132251,2,0,L|330:185,1,70,0|0,1:2|1:2,2:0:0:0:
441,326,132489,1,8,2:0:0:0:
180,36,132965,5,8,2:0:0:0:
239,94,133084,1,0,2:0:0:0:
309,47,133204,2,0,L|330:185,1,140,0|8,1:2|2:0,2:0:0:0:
309,264,133561,1,8,2:0:0:0:
230,248,133680,2,0,L|251:169,1,70,0|0,1:2|1:2,2:0:0:0:
418,252,133918,6,0,P|400:193|329:185,1,140,8|0,2:0|1:2,2:0:0:0:
230,248,134275,1,0,2:0:0:0:
132,184,134394,2,0,L|118:115,1,70,8|0,2:0|2:0,2:0:0:0:
50,270,134632,2,0,P|141:321|228:379,1,210,0|8,1:2|2:0,2:0:0:0:
93,345,135108,6,0,P|122:327|138:296,1,70,0|0,1:2|1:2,2:0:0:0:
210,183,135346,2,0,P|211:217|229:247,1,70,8|0,2:0|1:2,2:0:0:0:
78,372,135584,2,0,P|111:361|135:336,1,70,8|0,2:0|1:2,2:0:0:0:
196,151,135823,2,0,P|188:184|198:218,1,70,8|4,1:3|1:3,2:0:0:0:
349,335,136061,5,4,1:2:0:0:
346,319,136299,2,0,L|338:249,1,70,8|8,2:0|2:0,2:0:0:0:
421,242,136537,2,0,L|428:311,1,70,0|0,1:2|1:2,2:0:0:0:
381,157,136775,6,0,B|421:136|441:75|441:75|446:139|481:169,1,210,8|0,2:0|2:0,2:0:0:0:
370,16,137251,2,0,P|363:50|344:80,1,70,8|0,2:0|2:0,2:0:0:0:
135,82,137489,6,0,P|109:165|195:150,1,210,0|8,1:2|2:0,2:0:0:0:
133,65,137965,2,0,P|86:44|47:45,1,70,0|0,1:2|1:2,2:0:0:0:
14,249,138204,2,0,P|97:185|195:149,1,210,8|0,2:0|2:0,2:0:0:0:
308,152,138680,2,0,B|353:177|353:177|335:176|335:176|303:159,1,105,8|0,2:0|2:0,2:0:0:0:
291,131,138918,1,0,1:2:0:0:
195,149,139156,6,0,L|184:218,1,70,8|8,2:0|2:0,2:0:0:0:
325,278,139394,2,0,L|270:234,1,70,0|0,1:2|1:2,2:0:0:0:
148,326,139632,2,0,L|213:300,2,70,8|0|0,2:0|1:2|1:2,2:0:0:0:
183,218,139989,1,0,2:0:0:0:
270,234,140108,2,0,L|325:278,1,70,8|0,2:0|2:0,2:0:0:0:
184,218,140346,6,0,L|205:79,1,140,12|0,2:0|1:2,2:0:0:0:
289,95,140704,1,12,2:0:0:0:
269,234,140823,2,0,L|289:95,1,140,0|8,2:0|2:0,2:0:0:0:
37,251,141299,5,8,2:3:0:0:
71,257,141418,1,8,2:3:0:0:
102,272,141537,1,4,2:3:0:0:
128,296,141656,1,4,2:3:0:0:
147,325,141775,1,4,1:2:0:0:
405,55,142727,6,0,L|463:37,1,52.5000000000001,2|0,1:2|1:2,2:0:0:0:
443,92,142965,1,2,1:2:0:0:
297,100,143917,6,0,L|248:78,1,52.5000000000001,2|0,1:2|1:2,2:0:0:0:
239,192,144155,1,2,1:2:0:0:
443,289,145108,5,2,1:2:0:0:
343,239,145346,1,2,1:2:0:0:
194,338,146060,5,8,2:0:0:0:
263,328,146179,1,0,2:0:0:0:
227,318,146298,1,2,1:2:0:0:
233,348,146417,1,0,1:2:0:0:
215,237,146536,1,2,1:2:0:0:
94,252,147489,6,0,L|104:198,1,52.5000000000001,2|0,1:2|1:2,2:0:0:0:
48,267,147727,1,2,1:2:0:0:
217,140,148679,6,0,L|207:86,1,52.5000000000001,2|0,1:2|1:2,2:0:0:0:
279,242,148917,1,2,1:2:0:0:
43,9,149632,5,8,2:0:0:0:
44,43,149751,1,0,2:0:0:0:
64,62,149870,1,2,1:2:0:0:
103,200,150108,6,0,P|136:223|155:250,2,70,2|0|0,2:0|2:0|2:0,2:0:0:0:
217,140,150465,2,0,P|250:117|269:90,2,70,2|0|0,2:0|2:0|2:0,2:0:0:0:
238,266,150822,6,0,L|243:308,5,35,8|8|8|8|8|8,2:0|2:0|2:0|2:0|2:3|2:3,2:0:0:0:
262,279,151179,2,0,L|284:314,5,35,4|4|8|8|4|4,2:3|2:3|2:3|2:3|2:3|2:3,2:0:0:0:
289,280,151536,1,4,1:2:0:0:
370,256,151774,6,0,P|335:257|303:271,1,70,0|0,2:0|1:2,2:0:0:0:
354,174,152012,2,0,P|389:175|422:188,1,70,0|0,2:0|1:2,2:0:0:0:
413,331,152250,2,0,P|441:229|492:134,1,210,0|8,1:2|2:0,2:0:0:0:
427,348,152726,1,10,2:0:0:0:
123,134,153083,5,0,1:2:0:0:
102,135,153202,2,0,P|101:170|119:200,1,70,0|0,2:0|1:2,2:0:0:0:
231,174,153440,2,0,P|231:139|213:109,1,70,0|0,1:2|2:0,2:0:0:0:
67,57,153678,2,0,P|36:74|19:104,1,70,10|8,2:0|2:0,2:0:0:0:
77,271,153916,1,10,2:0:0:0:
92,289,154274,6,0,L|228:260,1,140,0|0,1:2|1:2,2:0:0:0:
266,280,154571,1,0,1:2:0:0:
239,311,154631,2,0,L|307:296,1,70,0|0,1:2|2:0,2:0:0:0:
446,331,154869,2,0,P|466:302|465:269,1,70,10|8,2:0|2:0,2:0:0:0:
380,245,155107,1,10,2:0:0:0:
380,245,155464,1,0,1:2:0:0:
271,69,155702,6,0,L|282:147,2,70,8|8|8,2:0|2:0|2:3,2:0:0:0:
217,197,156059,1,4,2:3:0:0:
376,120,156178,1,8,2:0:0:0:
254,49,156297,5,2,1:2:0:0:
178,107,157011,1,2,1:2:0:0:
217,197,157725,1,2,1:2:0:0:
94,375,158201,5,0,2:0:0:0:
94,375,158320,2,0,P|84:360|70:350,1,35,0|0,1:2|1:2,2:0:0:0:
177,348,158439,2,0,P|211:304|260:269,1,84,12|0,2:0|2:0,2:0:0:0:
129,254,158677,2,0,P|112:216|113:175,1,84,8|8,2:0|2:0,2:0:0:0:
312,223,158916,2,0,P|313:181|296:144,1,84,8|4,2:3|2:3,2:0:0:0:
448,348,159154,6,0,B|405:336|405:336|431:215,1,168,12|0,2:0|1:2,2:0:0:0:
313,12,159511,2,0,B|270:24|270:24|296:144,1,168,12|0,2:0|1:2,2:0:0:0:
511,196,159868,2,0,P|497:158|461:137,1,84,12|0,2:0|1:2,2:0:0:0:
270,224,160106,2,0,P|311:230|347:209,1,84,12|0,2:0|1:2,2:0:0:0:
442,54,160344,2,0,P|404:68|383:104,1,84,12|0,2:0|1:2,2:0:0:0:
368,277,160582,6,0,L|347:210,1,70,2|2,2:0|2:0,2:0:0:0:
279,369,160820,2,0,L|294:318,1,52.5000000000001,2|2,2:0|2:0,2:0:0:0:
178,357,161058,2,0,L|203:333,1,35,2|2,2:0|2:0,2:0:0:0:
122,293,161297,1,2,2:0:0:0:
90,164,161773,6,0,L|109:198,1,35,0|0,2:0|2:0,2:0:0:0:
90,164,162011,6,0,B|147:179|147:179|122:293,1,175,6|10,1:2|2:0,2:0:0:0:
15,134,162368,2,0,P|8:176|34:222,1,87.5,2|0,1:2|2:0,2:0:0:0:
171,141,162606,1,2,1:2:0:0:
254,286,162725,2,0,B|288:319|288:319|249:108,1,262.5,10|0,2:0|1:2,2:0:0:0:
396,158,163201,2,0,L|377:243,1,87.5,10|0,2:0|2:0,2:0:0:0:
328,105,163439,6,0,P|403:70|472:118,1,175,2|8,1:2|2:0,2:0:0:0:
444,306,163797,2,0,L|482:135,1,175,2|0,1:2|1:2,2:0:0:0:
242,122,164154,2,0,L|259:210,1,87.5,8|0,2:0|2:0,2:0:0:0:
377,243,164392,2,0,L|396:158,1,87.5,0|0,1:2|1:2,2:0:0:0:
284,31,164630,1,10,2:0:0:0:
276,219,164749,1,2,2:0:0:0:
158,94,164868,6,0,P|115:94|81:120,1,87.5,6|0,1:2|2:0,2:0:0:0:
254,133,165106,1,10,2:0:0:0:
158,261,165225,2,0,L|142:176,2,87.5,2|0|2,1:2|2:0|1:2,2:0:0:0:
17,63,165582,6,0,P|81:19|181:14,1,175,10|0,2:0|1:2,2:0:0:0:
254,133,165939,1,0,1:2:0:0:
81,120,166058,2,0,P|116:94|159:95,1,87.5,10|0,2:0|2:0,2:0:0:0:
395,156,166297,6,0,B|381:112|381:112|247:134,1,175,2|8,1:2|2:0,2:0:0:0:
62,201,166654,2,0,B|60:247|60:247|194:269,1,175,2|0,1:2|1:2,2:0:0:0:
158,94,167011,2,0,L|141:179,1,87.5,8|0,2:0|2:0,2:0:0:0:
204,353,167249,2,0,L|187:267,1,87.5,0|0,1:2|1:2,2:0:0:0:
270,123,167487,1,10,2:0:0:0:
170,273,167606,1,2,2:0:0:0:
331,273,167725,6,0,L|347:187,1,87.5,6|0,1:2|2:0,2:0:0:0:
402,337,167963,1,10,2:0:0:0:
435,165,168082,2,0,L|401:336,1,175,2|2,1:2|1:2,2:0:0:0:
347,187,168439,2,0,L|331:273,1,87.5,10|0,2:0|2:0,2:0:0:0:
475,372,168677,2,0,P|484:329|468:290,1,87.5,0|0,1:2|1:2,2:0:0:0:
327,301,168916,2,0,P|358:330|401:336,1,87.5,10|0,2:0|2:0,2:0:0:0:
512,143,169154,6,0,P|492:104|453:85,1,87.5,6|0,1:2|2:0,2:0:0:0:
403,10,169392,1,8,0:0:0:0:
356,89,169511,2,0,B|288:108|288:108|276:135|276:135|204:156,1,175,0|0,1:2|1:2,2:0:0:0:
340,249,169868,6,0,P|333:207|302:177,1,87.5,10|0,2:0|2:0,2:0:0:0:
316,12,170106,2,0,P|281:38|271:80,1,87.5,0|0,1:2|1:2,2:0:0:0:
122,154,170344,2,0,P|161:169|202:156,1,87.5,8|0,2:0|2:0,2:0:0:0:
131,384,170582,6,0,B|73:363|73:363|101:251,1,175,6|10,1:2|2:0,2:0:0:0:
222,63,170939,2,0,B|232:123|232:123|122:155,1,175,2|0,1:2|1:2,2:0:0:0:
11,249,171297,6,0,P|9:206|38:176,1,87.5,14|0,2:0|2:0,2:0:0:0:
219,168,171535,2,0,P|220:210|191:240,1,87.5,0|0,1:2|1:2,2:0:0:0:
115,339,171773,2,0,L|100:252,1,87.5,10|0,2:0|1:2,2:0:0:0:
287,118,172011,6,0,P|323:197|328:318,1,175,12|0,2:0|1:2,2:0:0:0:
412,384,172368,2,0,P|420:297|456:217,1,175,14|0,2:0|1:2,2:0:0:0:
376,88,172725,6,0,P|403:122|445:132,1,87.5,10|8,2:0|2:0,2:0:0:0:
452,298,172963,2,0,P|468:258|455:217,1,87.5,8|4,2:3|2:3,2:0:0:0:
287,118,173201,1,8,2:0:0:0:
331,285,173320,1,8,2:0:0:0:
376,88,173439,6,0,L|204:51,1,175,6|10,1:2|2:0,2:0:0:0:
70,153,173797,2,0,L|162:129,1,87.5,2|0,1:2|2:0,2:0:0:0:
13,93,174035,1,2,1:2:0:0:
224,177,174154,6,0,B|257:202|257:202|226:369|226:369|200:324,1,262.5,10|0,2:0|1:2,2:0:0:0:
331,284,174630,2,0,L|348:199,1,87.5,10|0,2:0|2:0,2:0:0:0:
117,350,174868,6,0,L|53:186,1,175,2|8,1:2|2:0,2:0:0:0:
195,43,175225,2,0,B|243:52|243:52|223:177,1,175,2|0,1:2|1:2,2:0:0:0:
19,257,175582,6,0,P|21:214|53:186,1,87.5,8|0,2:0|2:0,2:0:0:0:
223,176,175820,2,0,P|220:218|188:246,1,87.5,0|0,1:2|1:2,2:0:0:0:
28,106,176058,2,0,P|68:90|111:95,1,87.5,10|2,2:0|2:0,2:0:0:0:
318,285,176297,6,0,B|346:322|346:322|315:186,1,175,6|10,1:2|2:0,2:0:0:0:
511,87,176654,2,0,B|502:134|502:134|377:114,1,175,2|2,1:2|1:2,2:0:0:0:
188,246,177011,6,0,P|220:218|223:176,1,87.5,10|0,2:0|2:0,2:0:0:0:
148,20,177249,2,0,P|155:61|191:85,1,87.5,2|0,1:2|1:2,2:0:0:0:
364,98,177487,2,0,P|323:83|285:103,1,87.5,10|0,2:0|2:0,2:0:0:0:
238,313,177725,6,0,P|204:258|212:194,1,131.25,6|0,1:2|2:0,2:0:0:0:
222,175,177963,2,0,L|322:197,1,87.5,8|0,2:0|1:2,2:0:0:0:
346,321,178201,2,0,L|446:297,1,87.5,0|0,1:2|1:2,2:0:0:0:
508,126,178439,2,0,P|478:183|418:206,1,131.25,14|0,2:0|2:0,2:0:0:0:
399,198,178677,2,0,L|375:113,2,87.5,0|0|8,1:2|1:2|2:0,2:0:0:0:
48,26,179154,5,4,1:2:0:0:
132,24,179273,1,0,2:0:0:0:
191,85,179392,1,0,2:0:0:0:
67,179,179630,1,0,2:0:0:0:
132,24,179868,5,4,1:2:0:0:
250,147,180106,1,0,2:0:0:0:
373,30,180344,1,0,2:0:0:0:
334,149,180582,5,4,1:2:0:0:
250,147,180701,1,0,2:0:0:0:
191,208,180820,1,0,2:0:0:0:
315,302,181058,1,0,2:0:0:0:
101,334,181297,6,0,P|70:304|71:262,1,87.5,14|0,2:0|1:2,2:0:0:0:
315,302,181535,2,0,L|401:318,1,87.5,14|0,2:0|1:2,2:0:0:0:
215,384,181773,2,0,L|198:297,1,87.5,14|0,2:0|1:2,2:0:0:0:
66,178,182011,6,0,L|152:194,1,87.5,6|0,1:2|2:0,2:0:0:0:
182,89,182249,2,0,L|248:145,1,87.5,8|0,2:0|1:2,2:0:0:0:
322,44,182487,2,0,L|351:126,1,87.5,8|0,2:0|1:2,2:0:0:0:
399,316,182725,6,0,L|429:234,1,87.5,10|0,2:0|1:2,2:0:0:0:
264,231,182963,2,0,L|248:145,1,87.5,8|0,2:0|1:2,2:0:0:0:
102,224,183201,2,0,L|46:158,1,87.5,8|0,2:0|1:2,2:0:0:0:
90,372,183439,5,14,2:0:0:0:
90,372,183499,1,8,2:0:0:0:
90,372,183558,2,0,L|104:330,5,43.75,8|8|8|8|4|4,2:0|2:0|2:3|2:3|2:3|2:3,2:0:0:0:
130,343,183916,2,0,L|115:301,2,43.75,8|8|4,2:3|2:3|2:3,2:0:0:0:
227,367,184154,6,0,P|305:362|316:308,1,131.25,10|0,2:0|2:0,2:0:0:0:
315,302,184392,2,0,L|229:286,1,87.5,10|0,2:0|1:2,2:0:0:0:
360,172,184630,6,0,P|420:153|465:197,1,131.25,10|0,2:0|2:0,2:0:0:0:
458,219,184868,1,6,1:2:0:0:
93,71,190582,6,0,P|137:97|167:140,1,105,4|0,1:2|2:0,2:0:0:0:
161,156,190820,1,2,2:0:0:0:
234,195,190939,2,0,P|254:167|301:158,1,70,10|0,2:0|2:0,2:0:0:0:
368,159,191177,1,10,2:0:0:0:
443,132,191297,2,0,L|430:63,1,70,10|0,2:0|2:0,2:0:0:0:
418,272,191535,2,0,P|376:244|324:243,1,105,2|0,1:2|2:0,2:0:0:0:
312,254,191773,2,0,L|324:322,1,70,10|0,2:0|2:0,2:0:0:0:
235,195,192011,6,0,L|219:342,1,140,2|0,1:2|2:0,2:0:0:0:
145,241,192368,2,0,L|116:305,1,70,10|0,2:0|2:0,2:0:0:0:
152,227,192606,1,10,2:0:0:0:
39,217,192725,6,0,L|80:187,2,46.6666666666667,10|0|0,2:0|2:0|2:0,2:0:0:0:
116,305,192963,2,0,L|145:241,1,70,2|0,1:2|2:0,2:0:0:0:
219,334,193201,2,0,L|228:262,1,70,10|0,2:0|2:0,2:0:0:0:
346,123,193439,6,0,P|278:125|231:175,1,140,2|0,1:2|2:0,2:0:0:0:
406,194,193797,2,0,P|437:133|417:68,1,140,10|10,2:0|2:0,2:0:0:0:
314,210,194154,1,10,2:0:0:0:
370,288,194273,2,0,L|439:298,2,70,0|2|0,2:0|1:2|2:0,2:0:0:0:
231,175,194630,2,0,L|241:105,1,70,10|0,2:0|2:0,2:0:0:0:
185,294,194868,6,0,L|115:304,2,70,2|0|0,1:2|2:0|2:0,2:0:0:0:
264,353,195225,1,10,2:0:0:0:
324,279,195344,2,0,L|313:209,1,70,0|10,2:0|2:0,2:0:0:0:
241,105,195582,2,0,L|231:175,1,70,10|0,2:0|2:0,2:0:0:0:
339,277,195820,2,0,L|328:207,1,70,2|0,1:2|2:0,2:0:0:0:
230,100,196058,2,0,L|219:169,1,70,10|0,2:0|2:0,2:0:0:0:
409,18,196297,6,0,P|371:53|320:58,1,105,6|0,1:2|2:0,2:0:0:0:
307,56,196535,2,0,L|146:28,1,140,2|0,2:0|2:0,2:0:0:0:
141,112,196892,1,10,2:0:0:0:
53,115,197011,2,0,L|42:45,1,70,10|0,2:0|2:0,2:0:0:0:
230,100,197249,2,0,L|219:169,1,70,2|0,1:2|2:0,2:0:0:0:
97,187,197487,2,0,L|108:257,1,70,10|0,2:0|2:0,2:0:0:0:
212,252,197725,6,0,P|276:230|301:167,1,140,2|0,1:2|2:0,2:0:0:0:
308,86,198082,1,10,2:0:0:0:
230,100,198201,2,0,L|219:169,1,70,0|10,2:0|2:0,2:0:0:0:
222,321,198439,2,0,L|211:251,1,70,10|0,2:0|2:0,2:0:0:0:
97,187,198677,2,0,L|108:257,1,70,2|0,1:2|2:0,2:0:0:0:
234,326,198916,2,0,L|223:256,2,70,10|0|2,2:0|2:0|1:2,2:0:0:0:
86,185,199392,6,0,L|96:254,1,70,2|8,2:0|2:0,2:0:0:0:
10,266,199630,2,0,L|0:196,1,70,2|8,2:0|2:0,2:0:0:0:
179,117,199868,2,0,P|207:136|219:168,1,70,10|0,2:0|2:0,2:0:0:0:
233,325,200106,2,0,P|245:357|274:377,1,70,2|0,1:2|2:0,2:0:0:0:
317,192,200344,2,0,P|287:221|272:260,1,70,10|0,2:0|2:0,2:0:0:0:
363,378,200582,1,2,1:2:0:0:
364,15,201177,5,0,1:2:0:0:
364,15,201237,1,0,1:2:0:0:
364,15,201297,2,0,L|359:84,1,70,8|8,2:0|2:0,2:0:0:0:
420,157,201535,1,8,2:3:0:0:
317,192,201654,1,4,2:3:0:0:
436,243,201773,2,0,L|440:312,1,70,8|4,2:3|2:3,2:0:0:0:
240,359,202011,6,0,B|296:366|296:366|316:192,1,231,6|0,1:2|2:0,2:0:0:0:
168,320,202487,2,0,P|194:288|231:277,1,77,0|0,1:2|1:2,2:0:0:0:
64,210,202725,2,0,P|118:264|155:331,1,154,10|0,2:0|1:2,2:0:0:0:
193,196,203082,1,0,2:0:0:0:
112,134,203201,2,0,P|104:174|78:202,1,77,8|0,2:0|2:0,2:0:0:0:
275,47,203439,2,0,P|165:33|91:116,1,231,2|8,1:2|2:0,2:0:0:0:
266,151,203916,2,0,P|241:122|204:111,1,77,0|0,2:0|1:2,2:0:0:0:
272,259,204154,2,0,P|306:149|382:63,1,231,10|0,2:0|2:0,2:0:0:0:
489,52,204630,1,8,2:0:0:0:
470,75,204868,6,0,B|420:169|532:198|469:294,1,231,6|0,1:2|2:0,2:0:0:0:
355,288,205344,2,0,P|373:255|407:238,1,77,0|0,1:2|1:2,2:0:0:0:
313,366,205582,2,0,P|262:311|253:236,1,154,10|0,2:0|1:2,2:0:0:0:
165,236,205939,1,0,2:0:0:0:
203,315,206058,2,0,P|168:342|133:344,1,77,8|0,2:0|2:0,2:0:0:0:
102,134,206297,2,0,P|156:149|155:246,1,154,2|0,1:2|2:0,2:0:0:0:
87,272,206654,1,8,2:0:0:0:
12,239,206773,2,0,P|1:205|27:163,1,77,0|0,2:0|1:2,2:0:0:0:
111,57,207011,6,0,L|102:133,1,77,14|0,2:0|1:2,2:0:0:0:
216,86,207249,1,8,2:0:0:0:
226,190,207368,2,0,L|163:235,2,77,8|8|4,2:0|2:3|2:3,2:0:0:0:
327,38,207725,6,0,P|341:153|367:266,1,231,6|0,1:2|2:0,2:0:0:0:
375,119,208201,2,0,P|336:120|301:136,1,77,0|0,1:2|1:2,2:0:0:0:
441,177,208439,2,0,P|463:118|413:42,1,154,10|0,2:0|1:2,2:0:0:0:
327,38,208797,1,0,2:0:0:0:
242,81,208916,2,0,P|221:119|220:155,1,77,8|0,2:0|2:0,2:0:0:0:
219,296,209154,2,0,P|276:272|381:267,1,154,2|0,1:2|2:0,2:0:0:0:
278,229,209511,1,8,2:0:0:0:
226,308,209630,2,0,B|264:331|266:335|292:368,1,77,0|0,2:0|1:2,2:0:0:0:
424,326,209868,2,0,P|445:238|409:194,1,154,10|0,2:0|1:2,2:0:0:0:
26,348,210344,1,8,2:0:0:0:
14,344,210582,6,0,B|-18:278|54:274|54:274|168:327,1,231,14|0,2:0|1:2,2:0:0:0:
138,243,211058,2,0,P|104:259|66:257,1,77,0|0,1:2|1:2,2:0:0:0:
111,35,211297,6,0,B|157:17|171:36|171:36|114:78|88:178,1,231,14|0,2:0|1:2,2:0:0:0:
28,33,211773,2,0,P|36:71|61:100,1,77,0|0,1:2|1:2,2:0:0:0:
266,153,212011,6,0,B|248:98|248:98|424:43,1,231,14|0,2:0|1:2,2:0:0:0:
275,60,212487,2,0,L|354:96,1,77,0|0,1:2|1:2,2:0:0:0:
322,282,212725,6,0,P|336:246|330:209,2,77,10|8|8,2:0|2:0|2:3,2:0:0:0:
195,191,213082,2,0,P|217:221|253:234,2,77,4|8|4,2:3|2:3|2:3,2:0:0:0:
271,359,213439,6,0,B|216:366|216:366|196:192,1,231,6|0,1:2|2:0,2:0:0:0:
344,320,213916,2,0,P|317:288|280:277,1,77,0|0,1:2|1:2,2:0:0:0:
448,210,214154,2,0,P|393:264|356:331,1,154,10|0,2:0|1:2,2:0:0:0:
319,196,214511,1,0,2:0:0:0:
400,134,214630,2,0,P|407:174|433:202,1,77,8|0,2:0|2:0,2:0:0:0:
236,47,214868,2,0,P|346:33|420:116,1,231,2|8,1:2|2:0,2:0:0:0:
246,151,215344,2,0,P|270:122|307:111,1,77,0|0,2:0|1:2,2:0:0:0:
240,259,215582,2,0,P|205:149|129:63,1,231,10|0,2:0|2:0,2:0:0:0:
23,52,216058,1,8,2:0:0:0:
41,75,216297,6,0,B|92:169|-20:198|42:294,1,231,6|0,1:2|2:0,2:0:0:0:
156,288,216773,2,0,P|138:255|104:238,1,77,0|0,1:2|1:2,2:0:0:0:
198,366,217011,2,0,P|249:311|258:236,1,154,10|0,2:0|1:2,2:0:0:0:
347,236,217368,1,0,2:0:0:0:
309,315,217487,2,0,P|344:342|379:344,1,77,8|0,2:0|2:0,2:0:0:0:
410,134,217725,2,0,P|356:149|357:246,1,154,2|0,1:2|2:0,2:0:0:0:
425,272,218082,1,8,2:0:0:0:
500,239,218201,2,0,P|511:205|485:163,1,77,0|0,2:0|1:2,2:0:0:0:
401,57,218439,6,0,L|409:133,1,77,14|0,2:0|1:2,2:0:0:0:
241,257,218677,1,8,2:0:0:0:
331,120,218797,1,8,2:0:0:0:
348,235,218916,2,0,L|286:190,1,77,8|4,2:3|2:3,2:0:0:0:
185,38,219154,6,0,P|171:153|145:266,1,231,6|0,1:2|2:0,2:0:0:0:
137,119,219630,2,0,P|175:120|210:136,1,77,0|0,1:2|1:2,2:0:0:0:
71,177,219868,2,0,P|49:118|99:42,1,154,10|0,2:0|1:2,2:0:0:0:
185,38,220225,1,0,2:0:0:0:
270,81,220344,2,0,P|291:119|292:155,1,77,8|0,2:0|2:0,2:0:0:0:
293,296,220582,2,0,P|236:272|131:267,1,154,2|0,1:2|2:0,2:0:0:0:
234,229,220939,1,8,2:0:0:0:
286,308,221058,2,0,B|248:331|246:335|220:368,1,77,0|0,2:0|1:2,2:0:0:0:
88,326,221297,2,0,P|67:238|103:194,1,154,10|0,2:0|1:2,2:0:0:0:
486,348,221773,1,8,2:0:0:0:
475,328,222011,6,0,L|489:252,1,77,14|0,2:0|1:2,2:0:0:0:
350,275,222249,2,0,L|344:198,1,77,8|0,2:0|1:2,2:0:0:0:
215,256,222487,2,0,L|189:183,1,77,8|0,2:0|1:2,2:0:0:0:
92,43,222725,6,0,L|66:115,1,77,10|0,2:0|1:2,2:0:0:0:
253,94,222963,2,0,L|267:169,1,77,8|0,2:0|1:2,2:0:0:0:
417,57,223201,2,0,L|467:115,1,77,8|0,2:0|1:2,2:0:0:0:
349,275,223439,6,0,B|279:314|215:367,1,154,14|0,2:0|1:2,2:0:0:0:
189,183,223797,2,0,B|147:251|122:321,1,154,12|0,2:0|1:2,2:0:0:0:
4,184,224154,6,0,B|10:224|44:246,1,77,12|8,2:0|2:0,2:0:0:0:
134,100,224392,2,0,B|102:124|100:165,1,77,8|8,2:0|2:0,2:0:0:0:
188,264,224630,1,8,2:0:0:0:
311,191,224749,1,8,2:0:0:0:
415,293,224868,6,0,P|377:277|348:274,1,70,2|2,2:0|2:0,2:0:0:0:
311,191,225106,2,0,P|291:208|267:219,1,52.5000000000001,2|2,2:0|2:0,2:0:0:0:
188,264,225344,2,0,P|173:255|156:249,1,35,2|2,2:0|2:0,2:0:0:0:
108,187,225582,1,2,2:0:0:0:
370,91,226297,5,6,1:2:0:0:
35,83,237487,6,0,P|40:66|39:42,1,35,0|0,2:0|2:0,2:0:0:0:
35,83,237725,6,0,P|108:38|194:45,1,175,6|10,1:2|2:0,2:0:0:0:
221,187,238082,1,2,1:2:0:0:
90,139,238201,2,0,P|125:114|168:119,1,87.5,0|2,2:0|1:2,2:0:0:0:
298,137,238439,5,10,2:0:0:0:
298,137,238499,1,0,1:2:0:0:
298,137,238558,2,0,L|293:94,4,43.75,0|0|0|0|0,1:2|1:2|1:2|1:2|1:2,2:0:0:0:
378,151,238916,2,0,L|368:64,1,87.5,10|0,2:0|2:0,2:0:0:0:
464,270,239154,6,0,B|423:275|387:238|387:238|373:285|326:300,1,175,2|8,1:2|2:0,2:0:0:0:
139,263,239511,2,0,P|127:169|220:186,1,218.75,2|0,1:2|2:0,2:0:0:0:
224,202,239868,2,0,P|231:244|222:287,1,87.5,8|0,2:0|2:0,2:0:0:0:
146,367,240106,2,0,L|49:356,1,87.5,0|0,1:2|1:2,2:0:0:0:
0,200,240344,2,0,L|86:190,1,87.5,10|2,2:0|2:0,2:0:0:0:
222,287,240582,6,0,P|264:276|294:247,1,87.5,6|0,1:2|2:0,2:0:0:0:
365,177,240820,1,10,2:0:0:0:
460,332,240939,2,0,P|422:307|404:269,1,87.5,2|0,1:2|2:0,2:0:0:0:
367,161,241177,5,2,1:2:0:0:
331,348,241297,2,0,L|364:176,1,175,10|2,2:0|1:2,2:0:0:0:
391,41,241654,1,0,1:2:0:0:
258,75,241773,2,0,L|274:160,1,87.5,10|0,2:0|2:0,2:0:0:0:
49,85,242011,6,0,P|98:45|159:61,1,131.25,6|0,1:2|2:0,2:0:0:0:
168,72,242249,2,0,L|184:157,1,87.5,8|0,2:0|1:2,2:0:0:0:
103,275,242487,2,0,L|86:189,1,87.5,0|0,2:0|1:2,2:0:0:0:
265,256,242725,2,0,P|192:291|181:352,1,131.25,14|0,2:0|2:0,2:0:0:0:
182,351,242963,2,0,P|220:367|271:320,2,87.5,8|4|8,2:3|2:3|2:3,2:0:0:0:
184,157,243439,6,0,P|220:112|196:42,1,131.25,4|0,1:2|2:0,2:0:0:0:
190,38,243677,2,0,L|87:61,1,105,0|0,2:0|2:0,2:0:0:0:
399,35,244154,6,0,P|435:80|411:150,1,131.25,4|0,1:2|2:0,2:0:0:0:
405,154,244392,2,0,L|302:130,1,105,0|0,2:0|2:0,2:0:0:0:
476,206,244868,5,4,1:2:0:0:
408,288,244987,1,0,2:0:0:0:
473,360,245106,2,0,P|445:304|388:288,1,105,0|0,2:0|2:0,2:0:0:0:
99,324,245582,6,0,B|64:298|64:298|66:254,1,87.5,14|0,2:0|1:2,2:0:0:0:
236,213,245820,2,0,B|238:256|238:256|203:282,1,87.5,14|0,2:0|1:2,2:0:0:0:
7,206,246058,2,0,B|12:162|12:162|51:142,1,87.5,14|0,2:0|1:2,2:0:0:0:
211,44,246297,6,0,L|223:130,1,87.5,6|0,1:2|2:0,2:0:0:0:
318,360,246535,2,0,L|330:273,1,87.5,8|0,2:0|1:2,2:0:0:0:
387,63,246773,2,0,L|399:149,1,87.5,8|0,2:0|1:2,2:0:0:0:
149,225,247011,6,0,L|235:212,1,87.5,10|0,2:0|1:2,2:0:0:0:
485,162,247249,2,0,L|398:149,1,87.5,8|0,2:0|1:2,2:0:0:0:
136,143,247487,2,0,L|222:130,1,87.5,8|0,2:0|1:2,2:0:0:0:
422,318,247725,5,14,2:0:0:0:
422,318,247785,1,8,2:0:0:0:
422,318,247844,2,0,L|432:360,5,43.75,8|8|8|8|4|4,2:0|2:0|2:3|2:3|2:3|2:3,2:0:0:0:
443,297,248201,2,0,L|448:233,2,43.75,8|8|4,2:3|2:3|2:3,2:0:0:0:
318,360,248439,5,10,2:0:0:0:
256,192,249193,12,0,250523,2:0:0:0:
351,92,250582,6,0,P|311:165|300:248,1,168,6|10,1:2|2:0,2:0:0:0:
416,196,250939,2,0,P|449:220|463:259,2,84,2|0|0,1:2|2:0|1:2,2:0:0:0:
222,160,251297,6,0,L|97:180,1,126,10|0,2:0|2:0,2:0:0:0:
97,179,251535,2,0,P|62:201|52:241,1,84,2|0,1:2|1:2,2:0:0:0:
183,337,251773,2,0,L|168:254,1,84,10|0,2:0|2:0,2:0:0:0:
87,79,252011,6,0,B|102:35|102:35|227:68,1,168,2|8,1:2|2:0,2:0:0:0:
320,179,252368,2,0,B|317:228|317:228|290:99,1,168,2|0,1:2|1:2,2:0:0:0:
461,75,252725,2,0,P|468:159|404:204,2,168,10|0|8,2:0|1:2|2:0,2:0:0:0:
435,338,253439,6,0,B|399:305|399:305|282:331,1,168,6|8,1:2|2:0,2:0:0:0:
110,383,253797,2,0,P|74:360|58:323,2,84,2|0|0,1:2|2:0|1:2,2:0:0:0:
161,182,254154,6,0,P|141:241|137:304,1,126,10|0,2:0|2:0,2:0:0:0:
138,305,254392,2,0,L|235:280,1,84,2|0,1:2|1:2,2:0:0:0:
242,134,254630,2,0,L|160:155,1,84,10|0,2:0|2:0,2:0:0:0:
299,308,254868,6,0,P|300:225|327:146,1,168,2|8,1:2|2:0,2:0:0:0:
141,30,255225,2,0,P|217:56|242:134,1,168,2|0,1:2|1:2,2:0:0:0:
409,163,255582,6,0,L|317:143,1,84,10|0,2:0|2:0,2:0:0:0:
160,155,255820,2,0,L|242:134,1,84,8|8,2:0|2:0,2:0:0:0:
402,74,256058,2,0,L|310:54,1,84,8|4,2:3|2:3,2:0:0:0:
312,307,256297,6,0,B|354:228|289:219|327:145,1,168,6|10,1:2|2:0,2:0:0:0:
240,257,256654,2,0,L|158:278,2,84,0|10|2,1:2|2:0|1:2,2:0:0:0:
171,380,257011,2,0,P|138:305|53:276,1,168,6|10,1:2|2:0,2:0:0:0:
160,155,257368,2,0,L|181:73,2,84,0|10|2,1:2|2:0|1:2,2:0:0:0:
74,188,257725,6,0,P|39:167|27:128,1,84,6|0,1:2|2:0,2:0:0:0:
226,222,257963,2,0,P|225:263|197:294,1,84,10|0,2:0|1:2,2:0:0:0:
180,73,258201,2,0,P|216:53|256:62,1,84,10|2,2:0|1:2,2:0:0:0:
325,197,258439,6,0,L|74:188,1,252,6|0,1:2|1:2,2:0:0:0:
197,294,258916,2,0,P|225:263|226:222,1,84,10|2,2:0|1:2,2:0:0:0:
378,41,259154,5,6,1:2:0:0:
353,75,259273,1,0,2:0:0:0:
336,113,259392,1,8,2:0:0:0:
327,154,259511,1,0,1:2:0:0:
325,196,259630,2,0,P|348:244|376:260,1,84,10|2,2:0|1:2,2:0:0:0:
378,41,259868,5,2,1:2:0:0:
353,75,259987,1,0,1:2:0:0:
336,113,260106,1,8,2:0:0:0:
327,154,260225,1,0,1:2:0:0:
325,196,260344,2,0,P|348:244|376:260,1,84,10|0,2:0|1:2,2:0:0:0:
309,347,260582,6,0,L|299:306,7,42,10|8|8|8|8|8|4|4,2:0|2:0|2:0|2:0|2:3|2:3|2:3|2:3,2:0:0:0:
277,344,261058,2,0,L|267:384,2,42,8|8|4,2:3|2:3|2:3,2:0:0:0:
197,294,261297,6,0,P|160:276|122:291,1,84,14|0,2:0|1:2,2:0:0:0:
325,196,261535,2,0,P|322:155|289:130,1,84,8|0,2:0|1:2,2:0:0:0:
473,266,261773,2,0,P|506:243|512:202,1,84,8|0,2:0|1:2,2:0:0:0:
352,69,262011,6,0,P|284:100|194:114,1,157.5,6|8,1:2|2:0,2:0:0:0:
128,50,262487,2,0,L|147:-17,1,52.5000000000001,2|8,2:0|2:0,2:0:0:0:
238,206,262725,2,0,P|184:158|91:159,1,157.5,10|8,2:0|2:0,2:0:0:0:
49,234,263201,2,0,L|63:284,1,52.5000000000001,10|0,2:0|2:0,2:0:0:0:
241,367,263439,2,0,B|322:347|279:302|389:279,1,157.5,2|10,1:2|2:0,2:0:0:0:
226,287,263916,2,0,L|163:261,1,52.5000000000001,0|8,2:0|2:0,2:0:0:0:
370,190,264154,2,0,B|425:224|425:224|394:366,1,210.000000000001,10|2,2:0|2:0,2:0:0:0:
271,65,264868,6,0,L|286:221,1,157.5,2|8,1:2|2:0,2:0:0:0:
363,104,265344,2,0,P|388:79|419:76,1,52.5000000000001,2|8,2:0|2:0,2:0:0:0:
192,127,265582,2,0,P|131:81|118:5,1,157.5,10|8,2:0|2:0,2:0:0:0:
150,242,266058,2,0,P|169:221|191:215,1,52.5000000000001,10|0,2:0|2:0,2:0:0:0:
10,212,266297,2,0,B|87:245|40:291|106:328,1,157.5,2|8,1:2|2:0,2:0:0:0:
222,375,266773,2,0,P|201:334|187:323,1,52.5000000000001,2|8,2:0|2:0,2:0:0:0:
340,195,267011,2,0,B|309:337|309:337|363:371,1,210.000000000001,10|2,2:0|2:0,2:0:0:0:
454,133,267725,6,0,P|415:197|340:195,1,157.5,2|8,1:2|2:0,2:0:0:0:
325,99,268201,2,0,P|357:108|378:126,1,52.5000000000001,2|8,2:0|2:0,2:0:0:0:
176,66,268439,2,0,P|206:123|227:224,1,157.5,10|8,2:0|2:0,2:0:0:0:
70,230,268916,2,0,P|78:198|96:177,1,52.5000000000001,10|0,2:0|2:0,2:0:0:0:
263,324,269154,2,0,P|226:256|151:243,1,157.5,2|8,1:2|2:0,2:0:0:0:
19,305,269630,2,0,L|26:367,1,52.5000000000001,2|8,2:0|2:0,2:0:0:0:
168,346,269868,2,0,L|152:243,2,105,10|8|2,2:0|2:0|2:0,2:0:0:0:
132,67,270582,6,0,B|97:54|97:54|188:132,1,157.5,2|8,1:2|2:0,2:0:0:0:
273,193,271058,2,0,L|265:244,1,52.5000000000001,2|8,2:0|2:0,2:0:0:0:
398,87,271297,2,0,B|426:63|426:63|312:102,1,157.5,10|8,2:0|2:0,2:0:0:0:
235,52,271773,2,0,L|227:0,1,52.5000000000001,10|0,2:0|2:0,2:0:0:0:
151,243,272011,2,0,B|159:291|159:291|189:133,1,210.000000000001,2|2,1:2|2:0,2:0:0:0:
289,283,272725,2,0,P|323:244|374:232,1,105,10|0,2:0|1:2,2:0:0:0:
205,313,273082,5,0,1:2:0:0:
151,243,273201,1,8,2:0:0:0:
65,218,273320,1,8,2:0:0:0:
76,34,273439,6,0,B|174:90|174:90|188:132,1,157.5,6|8,1:2|2:0,2:0:0:0:
303,59,273916,2,0,L|273:111,1,52.5000000000001,2|8,2:0|2:0,2:0:0:0:
371,230,274154,2,0,L|276:104,1,157.5,10|8,2:0|2:0,2:0:0:0:
243,279,274630,2,0,L|276:223,1,52.5000000000001,10|0,2:0|2:0,2:0:0:0:
485,304,274868,2,0,P|469:261|356:236,1,157.5,2|10,1:2|2:0,2:0:0:0:
330,311,275344,2,0,L|355:374,1,52.5000000000001,0|8,2:0|2:0,2:0:0:0:
151,384,275582,2,0,B|207:354|207:354|189:210,1,210.000000000001,10|2,2:0|2:0,2:0:0:0:
75,34,276297,6,0,P|99:106|171:127,1,157.5,2|8,1:2|2:0,2:0:0:0:
219,57,276773,2,0,P|247:34|266:30,1,52.5000000000001,2|8,2:0|2:0,2:0:0:0:
187,207,277011,2,0,P|263:231|331:270,1,157.5,10|8,2:0|2:0,2:0:0:0:
410,323,277487,2,0,P|382:346|363:350,1,52.5000000000001,10|0,2:0|2:0,2:0:0:0:
470,94,277725,2,0,B|429:110|429:110|409:221,1,157.5,2|8,1:2|2:0,2:0:0:0:
336,177,278201,2,0,L|344:125,1,52.5000000000001,2|8,2:0|2:0,2:0:0:0:
284,384,278439,2,0,B|191:400|189:284|86:315,1,210.000000000001,10|2,2:0|2:0,2:0:0:0:
110,7,279154,6,0,B|156:17|156:17|171:126,1,157.5,2|8,1:2|2:0,2:0:0:0:
103,201,279630,2,0,L|43:184,1,52.5000000000001,2|8,2:0|2:0,2:0:0:0:
273,114,279868,2,0,L|215:260,1,157.5,10|8,2:0|2:0,2:0:0:0:
97,312,280344,2,0,L|37:295,1,52.5000000000001,10|0,2:0|2:0,2:0:0:0:
283,383,280582,2,0,P|354:360|356:286,1,157.5,2|8,1:2|2:0,2:0:0:0:
215,260,281058,2,0,P|227:299|251:312,1,52.5000000000001,2|8,2:0|2:0,2:0:0:0:
396,222,281297,2,0,P|346:235|297:217,2,105,10|8|2,2:0|2:0|2:0,2:0:0:0:
365,41,282011,6,0,B|365:3|365:3|323:115,1,157.5,2|8,1:2|2:0,2:0:0:0:
297,217,282487,2,0,L|246:226,1,52.5000000000001,2|8,2:0|2:0,2:0:0:0:
437,296,282725,2,0,B|469:314|469:314|393:220,1,157.5,10|8,2:0|2:0,2:0:0:0:
415,131,283201,2,0,L|461:105,1,52.5000000000001,10|0,2:0|2:0,2:0:0:0:
207,118,283439,2,0,B|164:141|164:141|323:116,1,210.000000000001,2|2,1:2|2:0,2:0:0:0:
215,260,284154,2,0,P|263:278|291:322,1,105,10|0,2:0|1:2,2:0:0:0:
159,193,284511,5,0,1:2:0:0:
207,118,284630,1,8,2:0:0:0:
200,30,284749,1,8,2:0:0:0:
40,279,285701,6,0,L|48:303,2,26.2500000000001,0|0|0,1:2|1:2|1:2,2:0:0:0:
74,170,285939,1,4,1:2:0:0:
256,192,285999,12,0,294749,2:0:0:0:
