osu file format v14

[General]
AudioFilename: audio.mp3
AudioLeadIn: 0
PreviewTime: 161783
Countdown: 0
SampleSet: Soft
StackLeniency: 0.5
Mode: 0
LetterboxInBreaks: 0
EpilepsyWarning: 1
WidescreenStoryboard: 1

[Editor]
Bookmarks: 12983,24412,35840,47269,58696,78933,91299,101076,101790,107504,118933,130346,130361,141789,142013,162026,166297,184883,202026,224883,226311,237740,248454,250597,262026,273454,284764,284883,285791,285865,285954,294764
DistanceSpacing: 0.8
BeatDivisor: 4
GridSize: 32
TimelineZoom: 2.599999

[Metadata]
Title:Oxalis
TitleUnicode:Oxalis
Artist:Wolpis Kater
ArtistUnicode:ウォルピスカーター
Creator:Tocorn
Version:Collab Extreme
Source:
Tags:Carter SILVANA 西坂恭平 Hatsune Miku 初音ミク vocaloid Nishizaka Cover Japanese Rock ウォルピス社 j-rock jrock utaite 音坂 キョーヘイ Kyohei Kyouhei Taeyang Kyrian SirAeon Kaguya_Sama CutoNaito Houtaro Kyutei Anya Melfissa Anya_Melfissa Banter Nagaraia Himada
BeatmapID:2903363
BeatmapSetID:1347859

[Difficulty]
HPDrainRate:5.6
CircleSize:3.8
OverallDifficulty:9.3
ApproachRate:9.6
SliderMultiplier:1.8
SliderTickRate:1

[Events]
//Background and Video events
0,0,"BG.jpg",0,0
//Break Periods
2,101975,106775
2,185068,189868
2,226497,236978
//Storyboard Layer 0 (Background)
//Storyboard Layer 1 (Fail)
//Storyboard Layer 2 (Pass)
//Storyboard Layer 3 (Foreground)
//Storyboard Layer 4 (Overlay)
//Storyboard Sound Samples

[TimingPoints]
1540,238.095238095238,3,2,2,60,1,0
1778,-100,3,2,2,40,0,0
1897,-100,3,2,1,40,0,0
2254,-100,3,2,2,60,0,0
2492,-100,3,2,2,40,0,0
2730,-71.4285714285714,3,2,2,60,0,0
3087,-100,3,2,2,60,0,0
3325,-100,3,2,1,40,0,0
3682,-100,3,2,2,60,0,0
3920,-100,3,2,2,40,0,0
4159,-71.4285714285714,3,2,2,60,0,0
4397,-100,3,2,2,60,0,0
4754,-100,3,2,1,40,0,0
5111,-100,3,2,2,60,0,0
5349,-100,3,2,2,40,0,0
5587,-71.4285714285714,3,2,2,60,0,0
6182,-71.4285714285714,3,2,1,40,0,0
6540,-100,3,2,2,60,0,0
6778,-100,3,2,2,40,0,0
7016,-100,3,2,2,60,0,0
7254,-76.9230769230769,3,2,1,60,0,0
7611,-250,3,2,1,60,0,0
7968,-250,3,2,5,60,0,0
8444,-100,3,2,5,60,0,0
8682,-76.9230769230769,3,2,5,60,0,0
9040,-250,3,2,5,60,0,0
9873,-100,3,2,5,60,0,0
10111,-76.9230769230769,3,2,5,60,0,0
10468,-250,3,2,5,60,0,0
11540,-250,3,2,5,65,0,0
12135,-250,3,2,5,55,0,0
12254,-58.8235294117647,3,2,16,65,0,0
12492,-58.8235294117647,3,2,3,65,0,0
12968,-76.9230769230769,3,2,17,75,0,0
13206,-76.9230769230769,3,2,3,75,0,0
14397,-71.4285714285714,3,2,3,75,0,0
14754,-76.9230769230769,3,2,3,75,0,0
15349,-90.9090909090909,3,2,3,75,0,0
15825,-76.9230769230769,3,2,3,75,0,0
17254,-71.4285714285714,3,2,3,75,0,0
17611,-76.9230769230769,3,2,3,75,0,0
18206,-100,3,2,3,70,0,0
18265,-100,3,2,4,70,0,0
18325,-100,3,2,4,65,0,0
18444,-100,3,2,1,70,0,0
18563,-100,3,2,1,65,0,0
18682,-71.4285714285714,3,2,1,75,0,0
18920,-71.4285714285714,3,2,3,75,0,0
19159,-76.9230769230769,3,2,3,75,0,0
19397,-76.9230769230769,3,2,7,75,0,0
19635,-76.9230769230769,3,2,3,75,0,0
20825,-71.4285714285714,3,2,7,75,0,0
21063,-71.4285714285714,3,2,3,75,0,0
21301,-83.3333333333333,3,2,3,75,0,0
21540,-71.4285714285714,3,2,3,75,0,0
22254,-76.9230769230769,3,2,3,75,0,0
22730,-111.111111111111,3,2,3,75,0,0
22968,-83.3333333333333,3,2,4,70,0,0
23206,-100,3,2,1,70,0,0
23444,-100,3,2,2,65,0,0
23682,-100,3,2,3,75,0,0
24397,-76.9230769230769,3,2,6,75,0,0
24635,-76.9230769230769,3,2,3,75,0,0
25825,-71.4285714285714,3,2,3,75,0,0
26182,-76.9230769230769,3,2,3,75,0,0
26778,-90.9090909090909,3,2,3,75,0,0
27254,-76.9230769230769,3,2,3,75,0,0
29635,-76.9230769230769,3,2,3,70,0,0
29754,-76.9230769230769,3,2,4,65,0,0
29873,-76.9230769230769,3,2,1,70,0,0
29992,-76.9230769230769,3,2,1,65,0,0
30111,-71.4285714285714,3,2,1,75,0,0
30349,-71.4285714285714,3,2,3,75,0,0
30587,-76.9230769230769,3,2,3,75,0,0
30825,-71.4285714285714,3,2,7,75,0,0
31063,-71.4285714285714,3,2,3,75,0,0
31540,-76.9230769230769,3,2,3,75,0,0
32254,-71.4285714285714,3,2,7,75,0,0
32492,-71.4285714285714,3,2,3,75,0,0
32730,-83.3333333333333,3,2,3,75,0,0
32968,-71.4285714285714,3,2,3,75,0,0
34397,-83.3333333333333,3,2,4,70,0,0
34635,-100,3,2,1,70,0,0
34873,-100,3,2,2,65,0,0
35111,-100,3,2,3,75,0,0
35825,-100,3,2,3,50,0,0
36540,-100,3,2,3,40,0,0
41540,-333.333333333333,3,2,8,40,0,0
42968,-250,3,2,8,40,0,0
43682,-500,3,2,8,40,0,0
44158,-500,3,2,8,20,0,0
44397,-333.333333333333,3,2,8,40,0,0
45825,-333.333333333333,3,2,5,50,0,0
46540,-333.333333333333,3,2,5,60,0,0
46659,-333.333333333333,3,2,5,40,0,0
47016,-333.333333333333,3,2,5,50,0,0
47254,-83.3333333333333,3,2,4,60,0,0
47492,-111.111111111111,3,2,4,60,0,0
48444,-111.111111111111,3,2,3,60,0,0
48920,-111.111111111111,3,2,4,60,0,0
49397,-83.3333333333333,3,2,4,60,0,0
49873,-83.3333333333333,3,2,3,60,0,0
50111,-111.111111111111,3,2,3,60,0,0
50349,-111.111111111111,3,2,4,60,0,0
51301,-111.111111111111,3,2,3,60,0,0
51778,-111.111111111111,3,2,4,60,0,0
52254,-71.4285714285714,3,2,4,60,0,0
52730,-71.4285714285714,3,2,1,55,0,0
52968,-83.3333333333333,3,2,1,60,0,0
53206,-111.111111111111,3,2,4,60,0,0
54159,-111.111111111111,3,2,3,60,0,0
54635,-111.111111111111,3,2,4,60,0,0
55111,-83.3333333333333,3,2,4,60,0,0
55349,-111.111111111111,3,2,4,60,0,0
55587,-111.111111111111,3,2,3,60,0,0
56063,-111.111111111111,3,2,4,60,0,0
57016,-111.111111111111,3,2,3,60,0,0
57254,-83.3333333333333,3,2,4,70,0,0
57611,-83.3333333333333,3,2,7,70,0,0
58206,-83.3333333333333,3,2,1,65,0,0
58682,238.095238095238,5,2,1,60,1,0
58920,-125,5,2,1,60,0,0
59039,-125,5,2,9,60,0,0
59872,-100,5,2,9,60,0,0
60110,-125,5,2,9,60,0,0
60824,-100,5,2,9,60,0,0
61539,-125,5,2,9,60,0,0
62015,-100,5,2,9,60,0,0
62610,-125,5,2,9,60,0,0
62848,-125,5,2,9,40,0,0
62967,-125,5,2,9,60,0,0
63443,-100,5,2,9,60,0,0
63682,-125,5,2,9,60,0,0
64634,-100,5,2,9,60,0,0
64872,-125,5,2,9,60,0,0
65229,-125,5,2,9,40,0,0
65348,-125,5,2,9,60,0,0
65586,-100,5,2,9,60,0,0
66301,-125,5,2,9,60,0,0
66420,-125,5,2,9,40,0,0
66539,-125,5,2,9,60,0,0
67015,238.095238095238,3,2,4,70,1,0
67015,-71.4285714285714,3,2,4,70,0,0
67372,-71.4285714285714,3,2,7,70,0,0
67729,-71.4285714285714,3,2,4,70,0,0
67788,-71.4285714285714,3,2,4,60,0,0
67967,-100,3,2,1,65,0,0
68205,-71.4285714285714,3,2,2,60,0,0
68443,238.095238095238,5,2,1,60,1,0
68681,-125,5,2,1,60,0,0
69038,-125,5,2,1,40,0,0
69157,-125,5,2,1,60,0,0
69395,-125,5,2,9,60,0,0
69633,-100,5,2,9,60,0,0
69990,-125,5,2,9,60,0,0
70228,-125,5,2,9,40,0,0
70347,-125,5,2,9,60,0,0
70585,-100,5,2,9,60,0,0
71300,-125,5,2,9,60,0,0
71419,-125,5,2,9,40,0,0
71538,-125,5,2,9,60,0,0
71776,-100,5,2,9,60,0,0
72490,-125,5,2,9,60,0,0
72847,-125,5,2,1,55,0,0
73085,-125,5,2,9,60,0,0
73204,238.095238095238,3,2,10,50,1,0
73204,-200,3,2,10,50,0,0
73918,-166.666666666667,3,2,10,50,0,0
74632,-142.857142857143,3,2,10,50,0,0
75346,-100,3,2,3,60,0,0
75584,-100,3,2,4,50,0,0
75823,-100,3,2,1,50,0,0
76061,-66.6666666666667,3,2,4,70,0,0
76418,-66.6666666666667,3,2,7,70,0,0
76775,-66.6666666666667,3,2,4,70,0,0
77013,-66.6666666666667,3,2,7,70,0,0
77251,-66.6666666666667,3,2,4,70,0,0
77489,-66.6666666666667,3,2,4,40,0,0
77846,-66.6666666666667,3,2,4,50,0,0
78204,-1000,3,2,15,60,0,0
78680,-100,3,2,15,60,0,0
78918,-71.4285714285714,3,2,6,75,0,1
79156,-71.4285714285714,3,2,3,75,0,1
79632,-83.3333333333333,3,2,3,75,0,1
80346,-76.9230769230769,3,2,3,75,0,1
81775,-71.4285714285714,3,2,3,75,0,1
82727,-83.3333333333333,3,2,3,75,0,1
83204,-76.9230769230769,3,2,3,75,0,1
84632,-71.4285714285714,3,2,3,75,0,1
85346,-83.3333333333333,3,2,3,75,0,1
86061,-71.4285714285714,3,2,3,75,0,1
87489,-62.5,3,2,3,75,0,1
89275,-62.5,3,2,7,75,0,1
89632,-100,3,2,7,70,0,1
89870,-100,3,2,1,65,0,1
90108,-83.3333333333333,3,2,4,70,0,1
90346,-71.4285714285714,3,2,6,75,0,1
90584,-71.4285714285714,3,2,3,75,0,1
91061,-83.3333333333333,3,2,3,75,0,1
91775,-76.9230769230769,3,2,3,75,0,1
93204,-71.4285714285714,3,2,3,75,0,1
94632,-76.9230769230769,3,2,3,75,0,1
96061,-76.9230769230769,3,2,5,70,0,0
98203,-55.5555555555556,3,2,4,80,0,1
98918,-62.5,3,2,4,75,0,1
99156,-62.5,3,2,3,75,0,1
99632,-71.4285714285714,3,2,3,75,0,1
100406,-71.4285714285714,3,2,4,75,0,1
100584,-71.4285714285714,3,2,1,70,0,1
100823,-71.4285714285714,3,2,2,65,0,1
101061,-71.4285714285714,3,2,3,70,0,1
101775,-71.4285714285714,3,2,3,60,0,0
107489,-76.9230769230769,3,2,6,75,0,0
107727,-76.9230769230769,3,2,3,75,0,0
108918,-71.4285714285714,3,2,3,75,0,0
109275,-76.9230769230769,3,2,3,75,0,0
109870,-90.9090909090909,3,2,3,75,0,0
110346,-76.9230769230769,3,2,3,75,0,0
111775,-71.4285714285714,3,2,3,75,0,0
112132,-76.9230769230769,3,2,3,75,0,0
112727,-76.9230769230769,3,2,3,70,0,0
112787,-76.9230769230769,3,2,4,70,0,0
112846,-76.9230769230769,3,2,4,65,0,0
112965,-76.9230769230769,3,2,1,70,0,0
113084,-76.9230769230769,3,2,1,65,0,0
113204,-71.4285714285714,3,2,1,75,0,0
113442,-71.4285714285714,3,2,3,75,0,0
113680,-76.9230769230769,3,2,3,75,0,0
113918,-76.9230769230769,3,2,7,75,0,0
114156,-76.9230769230769,3,2,3,75,0,0
115346,-71.4285714285714,3,2,7,75,0,0
115584,-71.4285714285714,3,2,3,75,0,0
115823,-83.3333333333333,3,2,3,75,0,0
116061,-71.4285714285714,3,2,3,75,0,0
116775,-76.9230769230769,3,2,3,75,0,0
117251,-111.111111111111,3,2,3,75,0,0
117489,-83.3333333333333,3,2,4,70,0,0
117727,-100,3,2,1,70,0,0
117965,-100,3,2,2,65,0,0
118204,-100,3,2,3,75,0,0
118918,-76.9230769230769,3,2,6,75,0,0
119156,-76.9230769230769,3,2,3,75,0,0
120346,-71.4285714285714,3,2,3,75,0,0
120704,-76.9230769230769,3,2,3,75,0,0
121061,-90.9090909090909,3,2,3,75,0,0
121775,-76.9230769230769,3,2,3,75,0,0
124156,-76.9230769230769,3,2,3,70,0,0
124275,-76.9230769230769,3,2,4,65,0,0
124394,-76.9230769230769,3,2,1,70,0,0
124513,-76.9230769230769,3,2,1,65,0,0
124632,-71.4285714285714,3,2,1,75,0,0
124870,-71.4285714285714,3,2,3,75,0,0
125108,-76.9230769230769,3,2,3,75,0,0
125346,-71.4285714285714,3,2,7,75,0,0
125584,-71.4285714285714,3,2,3,75,0,0
126061,-76.9230769230769,3,2,3,75,0,0
126775,-71.4285714285714,3,2,7,75,0,0
127013,-71.4285714285714,3,2,3,75,0,0
127251,-83.3333333333333,3,2,3,75,0,0
127489,-71.4285714285714,3,2,3,75,0,0
128918,-83.3333333333333,3,2,4,70,0,0
129156,-100,3,2,1,70,0,0
129394,-100,3,2,2,65,0,0
129632,-100,3,2,3,75,0,0
130346,-83.3333333333333,3,2,3,60,0,0
130584,-111.111111111111,3,2,4,60,0,0
131537,-111.111111111111,3,2,3,60,0,0
132013,-111.111111111111,3,2,4,60,0,0
132489,-83.3333333333333,3,2,4,60,0,0
132965,-83.3333333333333,3,2,3,60,0,0
133204,-111.111111111111,3,2,3,60,0,0
133442,-111.111111111111,3,2,4,60,0,0
134394,-111.111111111111,3,2,3,60,0,0
134870,-111.111111111111,3,2,4,60,0,0
135346,-71.4285714285714,3,2,4,60,0,0
135584,-71.4285714285714,3,2,4,65,0,0
135823,-71.4285714285714,3,2,1,60,0,0
136061,-83.3333333333333,3,2,1,60,0,0
136299,-111.111111111111,3,2,4,60,0,0
137251,-111.111111111111,3,2,3,60,0,0
137727,-111.111111111111,3,2,4,60,0,0
138204,-83.3333333333333,3,2,4,60,0,0
138442,-111.111111111111,3,2,4,60,0,0
138680,-111.111111111111,3,2,3,60,0,0
139156,-111.111111111111,3,2,4,60,0,0
140108,-111.111111111111,3,2,3,60,0,0
140346,-83.3333333333333,3,2,4,70,0,0
140704,-83.3333333333333,3,2,7,70,0,0
141299,-83.3333333333333,3,2,1,65,0,0
141775,238.095238095238,5,2,1,60,1,0
141775,-200,5,2,1,60,0,0
142489,-200,5,2,5,60,0,0
150108,238.095238095238,3,2,5,50,1,0
150227,-200,3,2,5,50,0,0
150822,-200,3,2,4,70,0,0
151060,-200,3,2,1,65,0,0
151298,-200,3,2,2,60,0,0
151536,238.095238095238,5,2,1,60,1,0
151714,-100,5,2,1,5,0,0
151774,-100,5,2,1,60,0,0
152131,-100,5,2,1,40,0,0
152250,-100,5,2,1,60,0,0
152488,-100,5,2,9,60,0,0
153321,-100,5,2,9,40,0,0
153440,-100,5,2,9,60,0,0
154512,-100,5,2,9,40,0,0
154631,-100,5,2,9,60,0,0
155940,-100,5,2,1,55,0,0
156178,-100,5,2,9,60,0,0
156297,238.095238095238,3,2,10,50,1,0
156297,-200,3,2,10,50,0,0
157011,-166.666666666667,3,2,10,50,0,0
157725,-142.857142857143,3,2,10,50,0,0
158320,-100,3,2,10,50,0,0
158439,-100,3,2,3,60,0,0
158677,-66.6666666666667,3,2,4,50,0,0
158916,-66.6666666666667,3,2,1,50,0,0
159154,-66.6666666666667,3,2,4,70,0,0
159511,-66.6666666666667,3,2,7,70,0,0
159868,-100,3,2,4,70,0,0
160106,-83.3333333333333,3,2,7,70,0,0
160344,-66.6666666666667,3,2,4,70,0,0
160582,-66.6666666666667,3,2,4,40,0,0
161297,-500,3,2,12,60,0,0
162011,-71.4285714285714,3,2,6,75,0,1
162249,-71.4285714285714,3,2,3,75,0,1
172368,-71.4285714285714,3,2,7,75,0,1
172725,-71.4285714285714,3,2,7,70,0,1
172963,-71.4285714285714,3,2,1,65,0,1
173201,-71.4285714285714,3,2,4,70,0,1
173439,-71.4285714285714,3,2,6,75,0,1
173677,-71.4285714285714,3,2,3,75,0,1
179154,-71.4285714285714,3,2,5,70,0,0
181297,-55.5555555555556,3,2,4,80,0,1
182011,-62.5,3,2,4,75,0,1
182249,-62.5,3,2,3,75,0,1
182725,-71.4285714285714,3,2,3,75,0,1
183499,-71.4285714285714,3,2,4,80,0,1
183677,-71.4285714285714,3,2,1,70,0,1
183916,-71.4285714285714,3,2,2,65,0,1
184154,-71.4285714285714,3,2,3,75,0,1
184868,-71.4285714285714,3,2,3,60,0,0
190582,-111.111111111111,3,2,3,50,0,0
190760,-111.111111111111,3,2,3,5,0,0
190820,-111.111111111111,3,2,3,50,0,0
190939,-111.111111111111,3,2,5,50,0,0
193201,-111.111111111111,3,2,10,50,0,0
193439,-125,3,2,5,50,0,0
196058,-125,3,2,10,50,0,0
196297,-125,3,2,1,60,0,0
196654,-125,3,2,5,60,0,0
198916,-125,3,2,10,60,0,0
199154,-125,3,2,5,60,0,0
200344,-125,3,2,10,60,0,0
200582,-111.111111111111,3,2,5,60,0,0
201297,-111.111111111111,3,2,4,60,0,0
201535,-111.111111111111,3,2,1,55,0,0
201773,-111.111111111111,3,2,1,50,0,0
202011,-100,3,2,1,65,0,0
202725,-100,3,2,4,65,0,0
207011,-71.4285714285714,3,2,4,65,0,0
207249,-83.3333333333333,3,2,4,65,0,0
207487,-90.9090909090909,3,2,1,60,0,0
207725,-100,3,2,1,65,0,0
208439,-100,3,2,4,65,0,0
210582,-76.9230769230769,3,2,4,70,0,0
210939,-76.9230769230769,3,2,4,65,0,0
211297,-83.3333333333333,3,2,7,70,0,0
211654,-83.3333333333333,3,2,7,65,0,0
212011,-90.9090909090909,3,2,7,70,0,0
212368,-90.9090909090909,3,2,7,65,0,0
212963,-90.9090909090909,3,2,1,60,0,0
213201,-90.9090909090909,3,2,2,55,0,0
213439,-100,3,2,4,65,0,0
218439,-71.4285714285714,3,2,4,65,0,0
218677,-83.3333333333333,3,2,4,65,0,0
218916,-90.9090909090909,3,2,1,60,0,0
219154,-100,3,2,1,65,0,0
219868,-100,3,2,4,65,0,0
222011,-76.9230769230769,3,2,3,80,0,0
223439,-76.9230769230769,3,2,4,80,0,0
223797,-76.9230769230769,3,2,7,80,0,0
224154,-76.9230769230769,3,2,4,80,0,0
224868,-76.9230769230769,3,2,4,40,0,0
225582,-76.9230769230769,3,2,15,60,0,0
226297,-76.9230769230769,3,2,13,60,0,0
237725,-71.4285714285714,3,2,6,75,0,1
237963,-71.4285714285714,3,2,3,75,0,1
242844,-71.4285714285714,3,2,4,75,0,1
242963,-71.4285714285714,3,2,1,70,0,1
243201,-71.4285714285714,3,2,2,65,0,1
243439,-71.4285714285714,3,2,5,70,0,0
245582,-71.4285714285714,3,2,4,80,0,1
245820,-55.5555555555556,3,2,4,80,0,1
246297,-62.5,3,2,4,75,0,1
246535,-62.5,3,2,3,75,0,1
247011,-71.4285714285714,3,2,3,75,0,1
247785,-71.4285714285714,3,2,4,80,0,1
247963,-71.4285714285714,3,2,1,70,0,1
248201,-71.4285714285714,3,2,2,65,0,1
248439,-71.4285714285714,3,2,3,75,0,1
249868,-71.4285714285714,3,2,3,60,0,1
250523,-71.4285714285714,3,2,3,5,0,1
250582,-71.4285714285714,3,2,6,75,0,0
250820,-71.4285714285714,3,2,3,75,0,0
252011,-66.6666666666667,3,2,3,75,0,0
252368,-76.9230769230769,3,2,3,75,0,0
252963,-83.3333333333333,3,2,3,75,0,0
253439,-71.4285714285714,3,2,3,75,0,0
254868,-66.6666666666667,3,2,3,75,0,0
255820,-66.6666666666667,3,2,3,70,0,0
255939,-66.6666666666667,3,2,4,65,0,0
256058,-66.6666666666667,3,2,1,70,0,0
256177,-66.6666666666667,3,2,1,65,0,0
256297,-62.5,3,2,1,75,0,0
256535,-62.5,3,2,3,75,0,0
257011,-71.4285714285714,3,2,7,75,0,0
257249,-71.4285714285714,3,2,3,75,0,0
258439,-71.4285714285714,3,2,7,75,0,0
258677,-71.4285714285714,3,2,3,75,0,0
259154,-62.5,3,2,3,75,0,0
260582,-66.6666666666667,3,2,4,70,0,0
260820,-76.9230769230769,3,2,1,70,0,0
261058,-76.9230769230769,3,2,2,65,0,0
261297,-76.9230769230769,3,2,3,75,0,0
262011,-125,3,2,14,60,0,0
262368,-125,3,2,1,50,0,0
262606,-125,3,2,2,55,0,0
262963,-125,3,2,1,50,0,0
263201,-125,3,2,2,55,0,0
263439,-125,3,2,1,55,0,0
263797,-125,3,2,1,50,0,0
264035,-125,3,2,2,55,0,0
264392,-125,3,2,1,50,0,0
264630,-125,3,2,10,50,0,0
264868,-125,3,2,14,60,0,0
265225,-125,3,2,1,50,0,0
265463,-125,3,2,2,55,0,0
265820,-125,3,2,1,50,0,0
266058,-125,3,2,2,55,0,0
266297,-125,3,2,1,55,0,0
266654,-125,3,2,1,50,0,0
266892,-125,3,2,2,55,0,0
267249,-125,3,2,1,50,0,0
267487,-125,3,2,10,50,0,0
267725,-125,3,2,14,60,0,0
268082,-125,3,2,1,50,0,0
268320,-125,3,2,2,55,0,0
268677,-125,3,2,1,50,0,0
268916,-125,3,2,2,55,0,0
269154,-125,3,2,1,55,0,0
269511,-125,3,2,1,50,0,0
269749,-125,3,2,2,55,0,0
270106,-125,3,2,1,50,0,0
270344,-125,3,2,10,50,0,0
270582,-100,3,2,14,60,0,0
270939,-100,3,2,1,50,0,0
271177,-100,3,2,2,55,0,0
271535,-100,3,2,1,50,0,0
271773,-100,3,2,2,55,0,0
272011,-100,3,2,1,55,0,0
272368,-100,3,2,1,50,0,0
272606,-100,3,2,2,55,0,0
272963,-100,3,2,1,55,0,0
273201,-100,3,2,4,60,0,0
273439,-125,3,2,14,60,0,0
273797,-125,3,2,1,50,0,0
274035,-125,3,2,2,55,0,0
274392,-125,3,2,1,50,0,0
274630,-125,3,2,2,55,0,0
274868,-125,3,2,1,55,0,0
275225,-125,3,2,1,50,0,0
275463,-125,3,2,2,55,0,0
275820,-125,3,2,1,50,0,0
276058,-125,3,2,10,50,0,0
276297,-125,3,2,14,60,0,0
276654,-125,3,2,1,50,0,0
276892,-125,3,2,2,55,0,0
277249,-125,3,2,1,50,0,0
277487,-125,3,2,2,55,0,0
277725,-125,3,2,1,55,0,0
278082,-125,3,2,1,50,0,0
278320,-125,3,2,2,55,0,0
278677,-125,3,2,1,50,0,0
278916,-125,3,2,10,50,0,0
279154,-125,3,2,14,60,0,0
279511,-125,3,2,1,50,0,0
279749,-125,3,2,2,55,0,0
280106,-125,3,2,1,50,0,0
280344,-125,3,2,2,55,0,0
280582,-125,3,2,1,55,0,0
280939,-125,3,2,1,50,0,0
281177,-125,3,2,2,55,0,0
281535,-125,3,2,1,50,0,0
281773,-125,3,2,10,50,0,0
282011,-100,3,2,14,60,0,0
282368,-100,3,2,1,50,0,0
282606,-100,3,2,2,55,0,0
282963,-100,3,2,1,50,0,0
283201,-100,3,2,2,55,0,0
283439,-100,3,2,1,55,0,0
283797,-100,3,2,1,50,0,0
284035,-100,3,2,2,55,0,0
284392,-100,3,2,1,55,0,0
284630,-100,3,2,4,60,0,0
284749,-100,3,2,4,65,0,0
285701,-100,3,2,4,50,0,0
285939,-100,3,2,4,70,0,0
292725,-100,3,2,4,60,0,0
293439,-100,3,2,4,50,0,0
294154,-100,3,2,4,40,0,0
294749,-100,3,2,18,60,0,0

[Colours]
Combo1 : 129,131,131
Combo2 : 221,0,0
Combo3 : 250,194,67
Combo4 : 214,22,104
Combo5 : 0,119,176

[HitObjects]
199,49,1540,6,0,P|237:67|255:123,1,90,10|0,1:2|2:0,2:0:0:0:
357,118,1778,1,0,2:0:0:0:
357,118,1897,2,0,P|360:159|320:203,1,90,10|0,2:0|2:0,2:0:0:0:
384,292,2135,1,2,3:2:0:0:
384,292,2254,5,10,2:0:0:0:
359,304,2373,1,0,2:0:0:0:
332,309,2492,1,0,1:2:0:0:
263,252,2611,1,0,2:0:0:0:
263,252,2730,6,0,P|220:239|146:269,1,126,10|0,2:0|2:0,2:0:0:0:
23,375,2968,5,10,1:2:0:0:
23,375,3087,2,0,L|43:282,1,90,0|0,2:0|2:0,2:0:0:0:
85,194,3325,1,10,2:0:0:0:
85,194,3444,2,0,L|66:106,1,90,0|2,2:0|3:2,2:0:0:0:
170,15,3682,5,10,2:0:0:0:
164,41,3801,1,0,2:0:0:0:
158,67,3920,1,0,1:2:0:0:
241,116,4040,1,0,2:0:0:0:
241,116,4159,6,0,B|291:113|291:113|304:102|304:102|373:102,1,126,10|0,2:0|2:0,2:0:0:0:
502,22,4397,6,0,P|481:7|495:41,1,90,10|0,1:2|2:0,2:0:0:0:
362,102,4635,1,0,2:0:0:0:
362,102,4754,2,0,P|347:123|381:109,1,90,10|0,2:0|2:0,2:0:0:0:
496,218,4992,5,2,3:2:0:0:
496,218,5111,5,10,1:2:0:0:
473,245,5230,1,0,2:0:0:0:
508,253,5349,1,0,1:2:0:0:
391,226,5468,1,0,2:0:0:0:
391,226,5587,6,0,L|250:234,1,126,10|0,2:0|2:0,2:0:0:0:
133,331,5825,5,10,1:2:0:0:
149,322,5944,1,0,2:0:0:0:
167,280,6063,1,0,2:0:0:0:
151,228,6182,1,10,2:0:0:0:
46,202,6301,5,0,2:0:0:0:
18,106,6420,1,2,3:2:0:0:
122,34,6540,2,0,L|114:96,2,60,10|0|0,1:2|2:0|2:0,2:0:0:0:
222,19,6778,5,0,1:2:0:0:
297,83,6897,1,0,2:0:0:0:
220,118,7016,1,10,2:0:0:0:
244,149,7135,1,0,1:2:0:0:
265,256,7254,6,0,B|321:225|327:166|327:166|333:225|416:261,1,234,6|0,1:2|2:0,2:0:0:0:
336,383,7611,2,0,L|334:299,1,72,2|2,1:2|3:2,2:0:0:0:
400,253,7968,5,10,1:2:0:0:
426,256,8087,1,0,2:0:0:0:
411,279,8206,1,0,1:2:0:0:
420,159,8325,5,0,2:0:0:0:
510,301,8444,2,0,L|513:186,1,90,2|0,1:2|2:0,2:0:0:0:
357,55,8682,6,0,B|331:57|309:78|309:78|388:125|492:137,1,234,2|0,1:2|2:0,2:0:0:0:
510,57,9040,2,0,P|484:48|437:40,1,72,2|2,1:2|3:2,2:0:0:0:
262,181,9397,5,10,1:2:0:0:
294,165,9516,1,0,2:0:0:0:
263,145,9635,1,0,1:2:0:0:
317,243,9754,5,0,2:0:0:0:
183,115,9873,2,0,P|175:162|182:210,1,90,2|0,1:2|2:0,2:0:0:0:
336,384,10111,6,0,P|254:312|121:300,1,234,2|0,1:2|2:0,2:0:0:0:
56,341,10468,2,0,P|45:366|75:358,1,72,2|2,1:2|3:2,2:0:0:0:
58,250,10825,5,10,1:2:0:0:
49,224,10944,1,0,2:0:0:0:
41,198,11063,1,0,1:2:0:0:
10,108,11182,5,0,1:2:0:0:
93,135,11301,1,2,1:2:0:0:
172,21,11420,1,0,1:2:0:0:
333,89,11540,5,6,1:2:0:0:
333,89,12135,5,2,1:2:0:0:
333,89,12194,1,0,1:2:0:0:
333,89,12254,6,0,L|307:246,1,153,14|0,2:0|2:0,2:0:0:0:
416,327,12432,1,0,2:0:0:0:
416,327,12492,2,0,L|440:176,1,153,10|0,2:0|1:2,2:0:0:0:
423,36,12670,5,0,2:0:0:0:
423,36,12730,2,0,B|444:42|461:41|461:41|447:47|435:67,1,76.5,10|0,2:0|2:0,2:0:0:0:
232,121,12849,2,0,B|210:114|193:115|193:115|208:109|219:90,1,76.5,2|0,1:2|2:0,2:0:0:0:
498,272,12968,6,0,P|411:250|247:310,1,234,6|10,1:2|2:0,2:0:0:0:
218,206,13325,2,0,P|186:238|175:334,1,117,2|0,1:2|2:0,2:0:0:0:
234,374,13563,1,0,1:2:0:0:
46,286,13682,5,10,2:0:0:0:
82,277,13801,1,0,2:0:0:0:
33,210,13920,5,2,1:2:0:0:
84,359,14040,1,0,1:2:0:0:
115,183,14159,5,10,2:0:0:0:
8,362,14278,1,0,2:0:0:0:
5,107,14397,6,0,B|48:118|48:118|117:92|117:92|206:121,1,189,2|0,1:2|2:0,2:0:0:0:
211,128,14635,1,8,2:0:0:0:
460,61,14754,6,0,P|378:30|276:84,1,175.5,2|0,1:2|2:0,2:0:0:0:
293,85,14992,1,0,1:2:0:0:
274,271,15111,5,10,2:0:0:0:
385,337,15230,1,0,2:0:0:0:
401,176,15349,2,0,P|363:200|380:271,1,99,0|0,1:2|1:2,2:0:0:0:
508,380,15587,2,0,P|507:332|467:305,1,99,8|0,2:0|2:0,2:0:0:0:
154,377,15825,6,0,L|416:331,1,234,6|8,1:2|2:0,2:0:0:0:
489,219,16182,2,0,B|508:164|508:164|470:106,1,117,2|0,1:2|2:0,2:0:0:0:
401,176,16420,1,0,1:2:0:0:
240,131,16540,5,10,2:0:0:0:
273,107,16659,1,0,2:0:0:0:
204,62,16778,5,2,1:2:0:0:
300,182,16897,1,0,1:2:0:0:
158,134,17016,5,10,2:0:0:0:
351,111,17135,1,0,2:0:0:0:
95,33,17254,6,0,B|80:87|109:126|109:126|143:166|128:228,1,189,2|0,1:2|2:0,2:0:0:0:
123,239,17492,1,8,2:0:0:0:
0,383,17611,6,0,P|99:332|204:328,1,175.5,2|0,1:2|2:0,2:0:0:0:
194,332,17849,1,0,1:2:0:0:
400,204,17968,5,10,2:0:0:0:
224,159,18087,1,0,2:0:0:0:
357,278,18206,6,0,L|361:335,2,45,8|8|8,2:0|2:0|2:0,2:0:0:0:
337,146,18444,1,8,2:3:0:0:
291,220,18563,1,4,2:3:0:0:
470,85,18682,6,0,L|220:29,1,252,6|10,1:2|2:0,2:0:0:0:
128,87,19040,1,0,1:2:0:0:
172,238,19159,2,0,P|212:190|230:118,1,117,10|2,2:0|1:2,2:0:0:0:
63,13,19397,6,0,B|13:70|13:70|54:261,1,234,6|10,1:2|2:0,2:0:0:0:
109,323,19754,1,0,1:2:0:0:
241,302,19873,1,10,2:0:0:0:
114,174,19992,1,2,1:2:0:0:
210,380,20111,6,0,B|279:382|279:382|314:355|314:355|390:359,1,175.5,6|0,1:2|2:0,2:0:0:0:
406,358,20349,2,0,B|435:306|435:306|415:247,1,117,10|0,2:0|1:2,2:0:0:0:
321,122,20587,5,10,2:0:0:0:
331,241,20706,1,2,1:2:0:0:
479,120,20825,6,0,B|391:112|391:112|340:161|340:161|193:151,1,252,6|8,1:2|2:0,2:0:0:0:
162,68,21182,1,0,1:2:0:0:
115,291,21301,2,0,L|150:178,1,108,10|2,2:0|1:2,2:0:0:0:
27,52,21540,6,0,B|50:131|50:131|267:67,1,252,6|8,1:2|2:0,2:0:0:0:
310,54,21897,1,0,1:2:0:0:
226,244,22016,5,10,2:0:0:0:
358,201,22135,1,2,1:2:0:0:
371,384,22254,6,0,P|328:357|323:293,1,117,2|0,1:2|1:2,2:0:0:0:
496,156,22492,2,0,P|494:206|441:243,1,117,8|0,2:0|1:2,2:0:0:0:
262,143,22730,2,0,L|343:110,1,81.0000000000001,10|0,2:0|1:2,2:0:0:0:
512,0,22968,6,0,L|492:64,3,54,10|8|8|8,2:0|2:0|2:0|2:0,2:0:0:0:
424,104,23206,2,0,L|407:52,3,45,8|8|4|4,2:3|2:3|2:3|2:3,2:0:0:0:
330,27,23444,1,8,2:3:0:0:
358,201,23563,1,4,2:3:0:0:
189,115,23682,5,14,2:0:0:0:
262,143,23801,1,0,1:2:0:0:
210,39,23920,5,8,2:0:0:0:
255,217,24040,1,0,1:2:0:0:
110,129,24159,5,8,2:0:0:0:
288,19,24278,1,0,1:2:0:0:
17,8,24397,6,0,P|54:71|75:274,1,234,6|10,1:2|2:0,2:0:0:0:
129,384,24754,2,0,P|140:322|170:266,1,117,2|0,1:2|2:0,2:0:0:0:
230,378,24992,1,0,1:2:0:0:
376,299,25111,5,10,2:0:0:0:
340,272,25230,1,0,2:0:0:0:
342,367,25349,5,2,1:2:0:0:
400,221,25468,1,0,1:2:0:0:
271,301,25587,5,10,2:0:0:0:
452,281,25706,1,0,2:0:0:0:
166,231,25825,6,0,P|253:214|333:116,1,189,2|0,1:2|2:0,2:0:0:0:
332,124,26063,1,8,2:0:0:0:
460,27,26182,6,0,B|272:51,1,175.5,2|0,1:2|2:0,2:0:0:0:
266,54,26420,1,0,1:2:0:0:
53,135,26540,5,10,2:0:0:0:
82,230,26659,1,0,2:0:0:0:
183,11,26778,2,0,P|153:14|109:77,1,99,0|0,1:2|1:2,2:0:0:0:
180,222,27016,2,0,P|202:179|189:132,1,99,8|0,2:0|2:0,2:0:0:0:
19,364,27254,6,0,B|78:330|78:330|165:335|165:335|262:279,1,234,6|8,1:2|2:0,2:0:0:0:
356,185,27611,2,0,B|316:231|316:231|324:302,1,117,2|0,1:2|2:0,2:0:0:0:
398,335,27849,1,0,1:2:0:0:
481,178,27968,5,10,2:0:0:0:
454,148,28087,1,0,2:0:0:0:
512,99,28206,5,2,1:2:0:0:
427,229,28325,1,0,1:2:0:0:
436,72,28444,5,10,2:0:0:0:
504,257,28563,1,0,2:0:0:0:
343,89,28682,6,0,B|247:72|267:138|151:120,1,175.5,2|0,1:2|2:0,2:0:0:0:
141,102,28920,1,8,2:0:0:0:
11,26,29040,6,0,B|45:64|45:64|17:230,1,175.5,2|0,1:2|2:0,2:0:0:0:
13,216,29278,1,0,1:2:0:0:
183,346,29397,5,10,2:0:0:0:
99,222,29516,1,0,2:0:0:0:
95,353,29635,5,8,2:0:0:0:
215,264,29754,1,8,2:0:0:0:
363,356,29873,5,8,2:3:0:0:
281,322,29992,1,4,2:3:0:0:
420,163,30111,6,0,B|520:203|549:293|444:352|388:285|436:230,1,252,6|10,1:2|2:0,2:0:0:0:
512,119,30468,1,0,1:2:0:0:
345,216,30587,2,0,L|223:174,1,117,10|2,2:0|1:2,2:0:0:0:
87,0,30825,6,0,B|180:28|180:28|209:67|209:67|308:104,1,252,6|10,1:2|2:0,2:0:0:0:
383,78,31182,1,0,1:2:0:0:
307,14,31301,1,10,2:0:0:0:
437,0,31420,1,2,1:2:0:0:
292,97,31540,6,0,L|240:289,1,175.5,6|0,1:2|2:0,2:0:0:0:
232,293,31778,2,0,P|160:282|128:246,1,117,10|0,2:0|1:2,2:0:0:0:
0,149,32016,5,10,2:0:0:0:
122,99,32135,1,2,1:2:0:0:
22,325,32254,6,0,L|42:65,1,252,6|8,1:2|2:0,2:0:0:0:
128,15,32611,1,0,1:2:0:0:
289,183,32730,6,0,B|246:173|246:173|237:159|237:159|172:149,1,108,10|2,2:0|1:2,2:0:0:0:
334,6,32968,6,0,B|517:48|517:48|482:45|449:61,1,252,6|8,1:2|2:0,2:0:0:0:
413,137,33325,1,0,1:2:0:0:
510,273,33444,2,0,L|503:135,1,126,10|2,2:0|1:2,2:0:0:0:
391,281,33682,5,2,1:2:0:0:
463,365,33801,1,0,1:2:0:0:
307,353,33920,5,8,2:0:0:0:
377,381,34040,1,0,1:2:0:0:
226,330,34159,5,10,2:0:0:0:
236,383,34278,1,0,1:2:0:0:
178,265,34397,6,0,P|151:292|142:326,3,54,10|8|8|8,2:0|2:0|2:0|2:0,2:0:0:0:
218,194,34635,2,0,P|181:184|147:193,3,45,8|8|4|4,2:3|2:3|2:3|2:3,2:0:0:0:
244,109,34873,1,8,2:3:0:0:
94,228,34992,1,4,2:3:0:0:
109,18,35111,5,14,2:0:0:0:
130,103,35230,1,0,1:2:0:0:
253,0,35349,5,8,2:0:0:0:
242,77,35468,1,0,1:2:0:0:
380,15,35587,5,8,2:0:0:0:
368,56,35706,1,0,1:2:0:0:
507,8,35825,5,0,1:2:0:0:
507,8,36301,1,0,2:0:0:0:
473,80,36540,1,2,2:0:0:0:
512,151,37254,5,2,2:0:0:0:
512,151,37730,1,0,2:0:0:0:
478,223,37968,1,2,2:0:0:0:
180,331,38682,5,2,2:0:0:0:
180,331,39159,1,0,2:0:0:0:
241,280,39397,1,2,2:0:0:0:
241,280,39873,1,0,2:0:0:0:
307,322,40111,1,2,2:0:0:0:
307,322,40587,1,0,2:0:0:0:
380,236,40825,5,2,2:0:0:0:
310,124,41063,1,0,2:0:0:0:
174,140,41301,1,0,2:0:0:0:
8,1,41540,6,0,P|26:55|26:112,1,108,2|0,2:0|2:0,2:0:0:0:
62,180,42254,2,0,P|47:222|47:266,1,81.0000000000001,2|0,2:0|2:0,2:0:0:0:
55,276,42730,1,0,2:0:0:0:
130,384,42968,6,0,P|143:359|147:315,2,72,2|0|0,2:0|2:0|2:0,2:0:0:0:
246,298,43682,6,0,P|237:284|217:270,2,36,2|0|2,2:0|2:0|2:0,2:0:0:0:
296,194,44397,6,0,P|240:171|192:184,1,108,2|0,2:0|2:0,2:0:0:0:
121,86,45111,2,0,P|173:96|221:73,1,108,2|2,2:0|2:0,2:0:0:0:
274,0,45825,1,2,2:0:0:0:
274,0,46420,5,0,1:2:0:0:
274,0,46480,1,0,1:2:0:0:
274,0,46540,5,6,1:2:0:0:
316,107,46659,1,2,2:0:0:0:
406,106,46778,5,2,2:0:0:0:
378,178,46897,1,2,2:0:0:0:
443,238,47016,5,2,2:0:0:0:
399,265,47135,1,2,2:0:0:0:
412,362,47254,6,0,P|359:353|313:308,1,108,4|0,1:2|2:0,2:0:0:0:
148,147,47492,6,0,L|231:128,1,81.0000000000001,8|0,2:0|1:2,2:0:0:0:
291,213,47730,2,0,L|208:232,1,81.0000000000001,0|0,1:2|1:2,2:0:0:0:
1,2,47968,6,0,P|80:-4|155:61,1,162,8|0,2:0|1:2,2:0:0:0:
58,170,48325,1,0,1:2:0:0:
58,170,48444,2,0,P|58:116|83:83,1,81.0000000000001,8|0,2:0|2:0,2:0:0:0:
223,10,48682,6,0,P|277:14|308:53,1,81.0000000000001,0|0,1:2|2:0,2:0:0:0:
421,0,48920,2,0,P|444:48|426:95,1,81.0000000000001,8|0,2:0|1:2,2:0:0:0:
474,198,49159,1,0,1:2:0:0:
316,137,49278,1,0,1:2:0:0:
391,333,49397,6,0,L|509:295,1,108,8|0,2:0|2:0,2:0:0:0:
316,137,49635,6,0,L|161:186,1,162,0|0,1:2|2:0,2:0:0:0:
136,199,49873,5,8,2:0:0:0:
258,281,49992,1,0,2:0:0:0:
169,59,50111,6,0,B|154:25|100:17|100:17|127:46|125:96,1,162,0|8,1:2|2:0,2:0:0:0:
24,81,50468,1,0,1:2:0:0:
39,250,50587,2,0,L|53:142,1,81.0000000000001,0|0,1:2|1:2,2:0:0:0:
317,48,50825,6,0,P|391:68|415:132,1,121.5,8|0,2:0|2:0,2:0:0:0:
413,134,51063,1,0,1:2:0:0:
332,246,51182,1,0,1:2:0:0:
508,230,51301,2,0,L|403:217,1,81.0000000000001,8|0,2:0|2:0,2:0:0:0:
225,328,51540,6,0,L|385:347,1,162,0|8,1:2|2:0,2:0:0:0:
332,246,51897,1,0,1:2:0:0:
484,377,52016,2,0,P|482:326|437:292,1,81.0000000000001,0|0,2:0|1:2,2:0:0:0:
235,134,52254,6,0,B|184:158|193:205|193:205|213:169|232:167,1,126,8|0,2:0|1:2,2:0:0:0:
157,30,52492,5,8,2:0:0:0:
184,44,52611,1,8,2:0:0:0:
139,110,52730,5,8,1:3:0:0:
265,52,52849,1,4,1:3:0:0:
27,0,52968,6,0,P|53:51|52:114,1,108,4|0,1:2|2:0,2:0:0:0:
0,281,53206,6,0,P|31:263|81:266,1,81.0000000000001,8|0,2:0|1:2,2:0:0:0:
96,355,53444,2,0,P|60:374|20:372,1,81.0000000000001,0|0,1:2|1:2,2:0:0:0:
136,196,53682,6,0,B|228:197|211:257|301:265,1,162,8|0,2:0|1:2,2:0:0:0:
294,179,54040,1,0,1:2:0:0:
252,340,54159,2,0,B|268:358|277:377|277:377|279:359|303:332,1,81.0000000000001,8|0,2:0|2:0,2:0:0:0:
508,169,54397,6,0,P|471:137|371:120,1,121.5,0|0,1:2|2:0,2:0:0:0:
369,123,54635,1,8,2:0:0:0:
407,230,54754,1,0,1:2:0:0:
296,0,54873,2,0,L|279:92,1,81.0000000000001,0|0,1:2|1:2,2:0:0:0:
477,339,55111,6,0,B|429:324|429:324|410:328|410:328|346:311,1,108,8|0,2:0|2:0,2:0:0:0:
113,114,55349,6,0,P|178:120|218:189,1,121.5,0|0,1:2|2:0,2:0:0:0:
207,183,55587,1,8,2:0:0:0:
207,43,55706,1,0,2:0:0:0:
27,227,55825,6,0,L|109:210,1,81.0000000000001,0|0,1:2|2:0,2:0:0:0:
198,311,56063,2,0,L|118:294,1,81.0000000000001,8|0,2:0|1:2,2:0:0:0:
0,125,56301,1,0,1:2:0:0:
113,114,56420,1,0,1:2:0:0:
1,8,56540,6,0,P|52:22|187:12,1,162,8|0,2:0|1:2,2:0:0:0:
276,4,56897,1,0,1:2:0:0:
256,190,57016,2,0,L|236:88,1,81.0000000000001,8|0,2:0|2:0,2:0:0:0:
505,9,57254,6,0,P|412:47|394:182,1,216,12|0,2:0|1:2,2:0:0:0:
461,225,57611,1,12,2:0:0:0:
375,333,57730,2,0,P|364:280|339:232,1,108,0|0,2:0|1:2,2:0:0:0:
190,228,57968,5,8,2:0:0:0:
289,126,58087,1,8,2:0:0:0:
115,128,58206,5,8,2:3:0:0:
189,136,58325,1,8,2:3:0:0:
151,48,58444,5,4,2:3:0:0:
178,56,58563,1,4,2:3:0:0:
342,32,58682,6,0,P|284:11|243:15,1,90,4|0,1:2|2:0,2:0:0:0:
60,74,58920,6,0,L|85:209,1,108,0|0,2:0|2:0,2:0:0:0:
106,205,59158,2,0,L|92:275,1,72,0|8,2:0|2:0,2:0:0:0:
0,384,59396,6,0,P|50:362|150:375,1,144,8|2,2:0|1:2,2:0:0:0:
293,309,59753,1,0,1:2:0:0:
293,309,59872,2,0,B|249:320|249:320|207:306,1,90,2|0,1:2|2:0,2:0:0:0:
392,189,60110,6,0,P|357:213|356:263,1,72,0|8,2:0|2:0,2:0:0:0:
420,311,60348,2,0,P|455:287|456:237,1,72,0|8,2:0|2:0,2:0:0:0:
416,86,60586,6,0,B|376:89|376:89|357:103|357:103|294:107,1,108,8|0,2:0|2:0,2:0:0:0:
293,72,60824,2,0,L|197:73,1,90,2|0,1:2|1:2,2:0:0:0:
10,13,61062,6,0,B|69:30|69:30|46:182,1,180,2|0,1:2|2:0,2:0:0:0:
134,217,61420,1,8,2:0:0:0:
134,217,61539,2,0,L|151:123,1,72,0|8,2:0|2:0,2:0:0:0:
288,365,61777,6,0,L|272:224,1,108,8|0,2:0|2:0,2:0:0:0:
306,239,62015,2,0,P|259:203|219:212,1,90,2|0,1:2|1:2,2:0:0:0:
34,374,62253,6,0,B|80:381|123:357|101:329|147:300|205:313,1,180,2|0,1:2|2:0,2:0:0:0:
371,367,62610,2,0,L|299:372,1,72,8|0,2:0|2:0,2:0:0:0:
417,268,62848,5,8,2:0:0:0:
495,384,62967,2,0,L|503:304,1,72,8|0,2:0|2:0,2:0:0:0:
496,172,63205,5,2,1:2:0:0:
428,246,63324,1,0,1:2:0:0:
380,91,63443,6,0,P|430:73|468:79,1,90,2|0,1:2|2:0,2:0:0:0:
343,187,63682,6,0,L|214:158,1,108,0|0,2:0|2:0,2:0:0:0:
215,147,63920,2,0,P|216:125|236:156,1,72,0|8,2:0|2:0,2:0:0:0:
175,268,64158,6,0,P|139:244|93:140,1,144,8|2,2:0|1:2,2:0:0:0:
140,0,64515,1,0,1:2:0:0:
140,0,64634,2,0,P|151:50|143:95,1,90,2|0,1:2|2:0,2:0:0:0:
21,257,64872,6,0,P|67:234|110:236,1,72,0|8,1:2|2:0,2:0:0:0:
141,358,65110,2,0,P|110:376|75:382,1,72,0|8,2:0|2:0,2:0:0:0:
175,268,65289,1,8,2:0:0:0:
175,268,65348,6,0,B|236:271|215:305|289:320,1,108,8|0,2:0|2:0,2:0:0:0:
299,308,65586,2,0,L|297:205,1,90,2|0,1:2|1:2,2:0:0:0:
401,44,65824,6,0,P|492:74|435:109,1,180,2|0,1:2|2:0,2:0:0:0:
387,130,66182,1,8,2:0:0:0:
387,130,66301,2,0,L|390:220,1,72,0|8,2:0|2:0,2:0:0:0:
402,292,66479,1,8,2:0:0:0:
402,292,66539,2,0,P|449:277|491:286,1,72,8|0,2:0|2:0,2:0:0:0:
482,372,66777,2,0,P|448:385|413:384,1,72,0|0,1:2|2:0,2:0:0:0:
18,165,67015,6,0,B|105:141|105:141|163:175|163:175|273:140,1,252,12|0,1:2|1:0,2:0:0:0:
305,70,67372,2,0,B|283:41|276:14|276:14|264:43|219:67,1,126,12|0,2:0|2:0,2:0:0:0:
280,237,67610,1,0,1:2:0:0:
0,331,67729,5,12,2:0:0:0:
0,331,67788,1,8,2:0:0:0:
0,331,67848,1,8,2:0:0:0:
0,331,67907,1,8,2:0:0:0:
0,331,67967,2,0,L|5:243,3,45,8|8|4|4,2:3|2:3|2:3|2:3,2:0:0:0:
91,342,68205,2,0,L|94:272,3,63,8|8|4|4,2:3|2:3|2:3|2:3,2:0:0:0:
183,360,68443,6,0,L|189:244,1,90,4|0,1:2|2:0,2:0:0:0:
9,20,68681,6,0,P|45:51|117:51,1,108,0|0,2:0|2:0,2:0:0:0:
122,37,68919,2,0,P|178:30|199:42,1,72,0|0,2:0|1:2,2:0:0:0:
307,176,69157,2,0,L|156:118,1,144,0|10,1:2|2:0,2:0:0:0:
82,157,69514,1,8,2:0:0:0:
271,59,69633,6,0,L|358:92,1,90,10|0,2:0|2:0,2:0:0:0:
443,136,69871,1,0,2:0:0:0:
443,136,69990,2,0,L|437:211,1,72,0|0,1:2|2:0,2:0:0:0:
487,293,70228,1,0,1:2:0:0:
487,293,70288,1,0,1:2:0:0:
487,293,70347,6,0,P|431:247|374:241,1,108,0|0,1:2|2:0,2:0:0:0:
365,249,70585,2,0,P|351:294|361:355,1,90,10|8,2:0|2:0,2:0:0:0:
86,362,70823,6,0,P|165:338|181:232,1,180,10|0,2:0|2:0,2:0:0:0:
72,175,71181,1,0,1:2:0:0:
72,175,71240,1,0,2:0:0:0:
72,175,71300,2,0,L|87:256,1,72,0|0,2:0|1:2,2:0:0:0:
223,162,71538,6,0,L|194:28,1,108,0|0,1:2|2:0,2:0:0:0:
210,29,71776,2,0,P|160:21|121:47,1,90,10|8,2:0|2:0,2:0:0:0:
337,132,72014,6,0,L|548:84,1,180,10|0,2:0|2:0,2:0:0:0:
512,192,72371,1,0,1:2:0:0:
512,192,72490,2,0,L|441:207,1,72,0|8,1:2|2:0,2:0:0:0:
283,371,72728,5,8,2:0:0:0:
372,326,72847,1,8,2:3:0:0:
454,341,72966,1,4,2:3:0:0:
495,375,73085,1,8,2:0:0:0:
512,277,73204,6,0,B|515:230|475:201|475:201|428:171|436:113,1,180,2|0,1:2|2:0,2:0:0:0:
512,2,73918,6,0,P|524:40|458:215,1,216,2|0,1:2|2:0,2:0:0:0:
308,178,74632,6,0,B|254:149|270:57|369:46|446:136,1,252,2|0,1:2|2:0,2:0:0:0:
396,198,75227,5,0,1:2:0:0:
396,198,75287,1,0,1:2:0:0:
396,198,75346,6,0,L|388:346,1,135,12|0,2:0|2:0,2:0:0:0:
386,363,75584,1,8,2:0:0:0:
334,384,75704,1,8,2:0:0:0:
188,357,75823,1,8,2:3:0:0:
144,226,75942,1,4,2:3:0:0:
235,69,76061,6,0,B|237:36|202:3|202:3|156:44|179:111|179:111|326:100,1,337.5,12|0,2:0|2:0,2:0:0:0:
425,91,76418,6,0,B|481:67|486:11|486:11|407:-34|306:8,1,270,12|0,2:0|1:2,2:0:0:0:
40,42,76775,6,0,B|28:70|59:101|59:101|84:67|63:34,1,135,12|0,2:0|1:2,2:0:0:0:
273,246,77013,6,0,B|291:224|318:212|318:212|141:227,1,202.5,12|0,2:0|2:0,2:0:0:0:
61,214,77251,6,0,B|46:254|19:269|19:269|48:260|99:287,1,135,12|0,2:0|1:2,2:0:0:0:
179,384,77489,5,2,2:0:0:0:
267,336,77608,1,2,2:0:0:0:
348,384,77727,5,2,2:0:0:0:
379,332,77846,1,2,2:0:0:0:
466,340,77965,5,2,2:0:0:0:
466,303,78084,1,2,2:0:0:0:
511,232,78204,6,0,L|504:206,1,27,2|0,2:0|2:0,2:0:0:0:
506,125,78680,6,0,P|461:128|427:164,1,90,0|0,2:0|2:0,2:0:0:0:
72,0,78918,6,0,P|149:22|240:190,1,252,6|10,1:2|2:0,2:0:0:0:
134,326,79275,2,0,P|132:243|156:191,1,126,2|0,1:2|2:0,2:0:0:0:
333,134,79513,1,2,1:2:0:0:
315,309,79632,6,0,B|262:320|249:276|249:276|256:294|293:297,1,108,10|0,2:0|2:0,2:0:0:0:
452,273,79870,2,0,B|488:312|457:346|457:346|468:330|452:297,1,108,0|0,1:2|1:2,2:0:0:0:
314,158,80108,1,10,2:0:0:0:
412,29,80227,1,0,2:0:0:0:
127,12,80346,6,0,B|114:78|147:123|147:123|186:173|168:245,1,234,2|8,1:2|2:0,2:0:0:0:
76,312,80704,1,2,1:2:0:0:
197,356,80823,5,0,2:0:0:0:
62,200,80942,1,0,1:2:0:0:
219,50,81061,2,0,P|286:54|326:107,1,117,8|0,2:0|2:0,2:0:0:0:
313,378,81299,2,0,P|282:317|308:256,1,117,0|0,1:2|1:2,2:0:0:0:
479,98,81537,5,10,2:0:0:0:
412,279,81656,1,2,2:0:0:0:
40,191,81775,6,0,L|305:173,1,252,6|10,1:2|2:0,2:0:0:0:
500,204,82132,2,0,P|433:236|379:211,1,126,2|0,1:2|2:0,2:0:0:0:
328,51,82370,1,2,1:2:0:0:
294,272,82489,5,10,2:0:0:0:
396,128,82608,1,0,1:2:0:0:
189,295,82727,2,0,L|329:265,1,108,0|0,1:2|1:2,2:0:0:0:
328,51,82965,2,0,L|204:77,1,108,10|0,2:0|2:0,2:0:0:0:
0,365,83204,6,0,P|51:320|51:134,1,234,2|8,1:2|2:0,2:0:0:0:
4,49,83561,1,2,1:2:0:0:
172,163,83680,1,0,2:0:0:0:
131,17,83799,1,0,1:2:0:0:
197,266,83918,2,0,B|284:276|284:276|258:268|248:254,1,117,8|0,2:0|2:0,2:0:0:0:
363,135,84156,2,0,B|328:54|328:54|334:81|327:96,1,117,0|0,1:2|1:2,2:0:0:0:
392,346,84394,5,10,2:0:0:0:
478,224,84513,1,2,2:0:0:0:
172,163,84632,6,0,B|336:158|336:158|364:135|364:135|438:136,1,252,6|10,1:2|2:0,2:0:0:0:
512,18,84989,2,0,P|447:7|406:60,1,126,2|0,1:2|2:0,2:0:0:0:
389,235,85227,1,2,1:2:0:0:
227,25,85346,6,0,B|218:51|234:75|234:75|252:52|239:18,1,108,10|0,2:0|2:0,2:0:0:0:
139,317,85584,2,0,B|147:290|131:266|131:266|113:289|126:323,1,108,0|0,1:2|1:2,2:0:0:0:
62,82,85823,2,0,B|33:95|8:84|8:84|34:101|35:135,1,108,10|0,2:0|2:0,2:0:0:0:
413,330,86061,6,0,P|384:234|213:172,1,252,6|8,1:2|2:0,2:0:0:0:
64,206,86418,1,0,1:2:0:0:
295,266,86537,1,0,2:0:0:0:
157,85,86656,1,0,1:2:0:0:
66,360,86775,6,0,P|132:363|192:341,1,126,10|0,2:0|2:0,2:0:0:0:
309,28,87013,2,0,P|273:83|262:146,1,126,0|0,1:2|1:2,2:0:0:0:
501,383,87251,2,0,P|470:324|421:283,1,126,8|0,2:0|2:0,2:0:0:0:
25,75,87489,6,0,L|315:26,1,288,6|10,1:2|2:0,2:0:0:0:
449,42,87846,2,0,B|417:45|397:87|397:87|411:42|388:0,2,144,2|0|0,1:2|1:2|1:2,2:0:0:0:
487,129,88204,6,0,L|473:277,1,144,14|0,2:0|2:0,2:0:0:0:
329,309,88442,2,0,L|342:165,1,144,0|0,1:2|1:2,2:0:0:0:
512,115,88680,2,0,L|498:263,1,144,10|0,2:0|2:0,2:0:0:0:
184,93,88918,6,0,B|246:137|246:137|222:377,1,288,12|0,2:0|1:2,2:0:0:0:
49,224,89275,1,14,2:0:0:0:
104,149,89394,1,0,1:2:0:0:
140,234,89513,1,0,1:2:0:0:
16,141,89632,2,0,L|13:81,3,45,10|8|8|8,2:0|2:0|2:0|2:0,2:0:0:0:
100,15,89870,2,0,L|97:59,3,45,8|8|4|4,2:3|2:3|2:3|2:3,2:0:0:0:
184,93,90108,6,0,P|248:87|301:57,1,108,8|8,2:0|2:0,2:0:0:0:
492,12,90346,6,0,P|423:69|336:245,1,252,6|10,1:2|2:0,2:0:0:0:
505,363,90704,2,0,P|479:288|429:240,1,126,2|0,1:2|2:0,2:0:0:0:
235,188,90942,1,2,1:2:0:0:
317,327,91061,6,0,B|350:313|350:313|259:286,1,108,10|0,2:0|2:0,2:0:0:0:
140,354,91299,2,0,B|135:389|135:389|204:324,1,108,0|0,1:2|1:2,2:0:0:0:
142,138,91537,2,0,P|134:188|175:256,1,108,10|0,2:0|2:0,2:0:0:0:
372,8,91775,6,0,L|102:15,1,234,2|8,1:2|2:0,2:0:0:0:
30,111,92132,1,2,1:2:0:0:
227,100,92251,1,0,2:0:0:0:
32,11,92370,1,0,1:2:0:0:
69,301,92489,2,0,L|101:179,1,117,8|0,2:0|2:0,2:0:0:0:
227,100,92727,2,0,L|259:222,1,117,0|0,1:2|1:2,2:0:0:0:
381,327,92965,5,10,2:0:0:0:
182,309,93084,1,2,2:0:0:0:
503,73,93204,6,0,L|231:134,1,252,6|10,1:2|2:0,2:0:0:0:
113,184,93561,2,0,P|157:163|106:148,1,126,2|0,1:2|2:0,2:0:0:0:
0,187,93799,1,2,1:2:0:0:
173,266,93918,5,10,2:0:0:0:
194,74,94037,1,0,2:0:0:0:
285,267,94156,5,2,1:2:0:0:
245,147,94275,1,0,1:2:0:0:
386,251,94394,5,10,2:0:0:0:
321,189,94513,1,0,2:0:0:0:
478,363,94632,6,0,P|433:283|465:121,1,234,6|8,1:2|2:0,2:0:0:0:
512,66,94989,1,0,1:2:0:0:
321,59,95108,2,0,P|384:19|443:24,1,117,0|0,1:2|1:2,2:0:0:0:
330,164,95346,5,14,2:0:0:0:
210,98,95465,1,0,1:2:0:0:
163,228,95584,5,0,1:2:0:0:
239,184,95704,1,0,1:2:0:0:
117,117,95823,5,8,2:0:0:0:
143,144,95942,1,0,1:2:0:0:
156,27,96061,5,4,1:2:0:0:
239,184,96299,1,0,2:0:0:0:
322,341,96537,1,0,2:0:0:0:
284,48,96775,5,4,1:2:0:0:
239,184,97013,1,0,2:0:0:0:
194,320,97251,1,0,2:0:0:0:
377,133,97489,5,4,1:2:0:0:
308,158,97608,1,0,2:0:0:0:
239,184,97727,1,0,2:0:0:0:
102,235,97965,1,0,2:0:0:0:
408,259,98204,6,0,B|440:293|440:293|314:265,1,162,14|0,2:0|1:2,2:0:0:0:
107,26,98442,2,0,P|192:48|234:197,1,243,14|0,2:0|2:0,2:0:0:0:
207,282,98680,2,0,B|161:283|134:314|134:314|158:283|146:211,1,162,14|0,2:0|1:2,2:0:0:0:
397,46,98918,6,0,P|303:93|86:138,1,288,6|8,1:2|2:0,2:0:0:0:
107,26,99275,1,0,1:2:0:0:
3,183,99394,2,0,P|-25:125|29:62,1,144,8|0,2:0|1:2,2:0:0:0:
227,261,99632,6,0,L|199:415,1,126,10|0,2:0|1:2,2:0:0:0:
319,220,99870,2,0,L|371:367,1,126,8|0,2:0|1:2,2:0:0:0:
391,150,100108,2,0,L|510:251,1,126,8|0,2:0|1:2,2:0:0:0:
386,43,100346,5,14,2:0:0:0:
404,37,100406,1,8,2:0:0:0:
422,32,100465,1,8,2:0:0:0:
440,27,100525,1,8,2:0:0:0:
458,21,100584,2,0,L|446:96,1,63,8|8,2:3|2:3,2:0:0:0:
300,130,100704,2,0,L|290:67,1,63,4|4,2:3|2:3,2:0:0:0:
143,32,100823,5,8,2:3:0:0:
146,50,100882,1,8,2:3:0:0:
149,68,100942,1,4,2:3:0:0:
152,86,101001,1,4,2:3:0:0:
155,104,101061,1,8,2:0:0:0:
9,346,101775,5,2,1:2:0:0:
294,384,107489,6,0,P|281:285|298:95,1,234,6|10,1:2|2:0,2:0:0:0:
188,44,107846,2,0,P|192:106|186:169,1,117,2|0,1:2|2:0,2:0:0:0:
105,222,108084,1,0,1:2:0:0:
43,88,108204,5,10,2:0:0:0:
63,93,108323,1,0,2:0:0:0:
33,163,108442,5,2,1:2:0:0:
78,18,108561,1,0,1:2:0:0:
110,191,108680,5,10,2:0:0:0:
3,0,108799,1,0,2:0:0:0:
0,268,108918,6,0,B|56:256|56:256|118:283|118:283|229:253,1,189,2|0,1:2|2:0,2:0:0:0:
218,250,109156,1,8,2:0:0:0:
420,152,109275,6,0,P|337:105|262:171,1,175.5,2|0,1:2|2:0,2:0:0:0:
266,170,109513,1,0,1:2:0:0:
381,384,109632,5,10,2:0:0:0:
444,241,109751,1,0,2:0:0:0:
298,257,109870,6,0,P|350:303|390:293,1,99,0|0,1:2|1:2,2:0:0:0:
497,109,110108,2,0,P|449:113|420:152,1,99,8|0,2:0|2:0,2:0:0:0:
257,365,110346,6,0,L|509:314,1,234,6|8,1:2|2:0,2:0:0:0:
351,109,110704,6,0,B|325:168|325:168|379:234,1,117,2|0,1:2|2:0,2:0:0:0:
420,152,110942,1,0,1:2:0:0:
246,31,111061,5,10,2:0:0:0:
261,57,111180,1,0,2:0:0:0:
186,78,111299,5,2,1:2:0:0:
325,13,111418,1,0,1:2:0:0:
157,0,111537,5,10,2:0:0:0:
358,84,111656,1,0,2:0:0:0:
168,384,111775,6,0,P|183:282|181:164,1,189,2|0,1:2|2:0,2:0:0:0:
181,174,112013,1,8,2:0:0:0:
10,114,112132,6,0,B|-5:169|-5:169|31:136|106:116,1,175.5,2|0,1:2|2:0,2:0:0:0:
117,125,112370,1,0,1:2:0:0:
271,260,112489,5,10,2:0:0:0:
95,294,112608,1,0,2:0:0:0:
267,167,112727,1,8,2:0:0:0:
267,167,112787,1,8,2:0:0:0:
267,167,112846,1,8,2:0:0:0:
258,349,112965,1,8,2:3:0:0:
356,216,113084,1,4,2:3:0:0:
92,79,113204,6,0,P|180:111|382:115,1,252,6|10,1:2|2:0,2:0:0:0:
430,68,113561,1,0,1:2:0:0:
476,286,113680,2,0,L|468:169,1,117,10|2,2:0|1:2,2:0:0:0:
223,5,113918,6,0,B|204:62|241:103|241:103|282:148|270:224,1,234,6|10,1:2|2:0,2:0:0:0:
193,336,114275,1,0,1:2:0:0:
318,371,114394,1,10,2:0:0:0:
183,219,114513,1,2,1:2:0:0:
12,336,114632,6,0,P|77:346|111:390,1,117,6|0,1:2|2:0,2:0:0:0:
104,172,114870,2,0,P|62:223|7:230,1,117,10|0,2:0|1:2,2:0:0:0:
193,336,115108,6,0,L|180:183,1,117,10|2,2:0|1:2,2:0:0:0:
329,71,115346,6,0,B|268:139|268:139|86:41,1,252,6|8,1:2|2:0,2:0:0:0:
197,0,115704,1,0,1:2:0:0:
42,104,115823,2,0,L|16:0,1,108,10|2,2:0|1:2,2:0:0:0:
428,143,116061,6,0,L|136:203,1,252,6|8,1:2|2:0,2:0:0:0:
105,290,116418,1,0,1:2:0:0:
332,361,116537,2,0,P|372:300|344:241,1,126,10|2,2:0|1:2,2:0:0:0:
126,39,116775,6,0,P|140:78|221:81,1,117,2|0,1:2|1:2,2:0:0:0:
372,91,117013,2,0,P|316:93|289:142,1,117,8|0,2:0|1:2,2:0:0:0:
247,300,117251,6,0,L|235:208,1,81.0000000000001,10|0,2:0|1:2,2:0:0:0:
95,152,117489,6,0,P|71:187|76:213,3,54,10|8|8|8,2:0|2:0|2:0|2:0,2:0:0:0:
0,247,117727,2,0,P|18:285|43:293,3,45,8|8|4|4,2:3|2:3|2:3|2:3,2:0:0:0:
67,376,117965,1,8,2:3:0:0:
131,272,118084,1,4,2:3:0:0:
223,377,118204,5,14,2:0:0:0:
195,367,118323,1,0,1:2:0:0:
331,334,118442,5,8,2:0:0:0:
256,369,118561,1,0,1:2:0:0:
435,363,118680,5,8,2:0:0:0:
312,303,118799,1,0,1:2:0:0:
482,143,118918,6,0,P|387:133|263:231,1,234,6|10,1:2|2:0,2:0:0:0:
115,126,119275,2,0,P|175:138|228:106,1,117,2|0,1:2|2:0,2:0:0:0:
239,19,119513,1,0,1:2:0:0:
179,228,119632,5,10,2:0:0:0:
183,249,119751,1,0,2:0:0:0:
253,298,119870,5,2,1:2:0:0:
187,365,119989,1,0,1:2:0:0:
382,361,120108,5,10,2:0:0:0:
281,384,120227,1,0,2:0:0:0:
512,384,120346,6,0,P|470:300|460:192,1,189,2|0,1:2|2:0,2:0:0:0:
475,179,120584,1,8,2:0:0:0:
499,68,120704,6,0,P|421:33|349:76,1,175.5,2|0,1:2|2:0,2:0:0:0:
332,117,120942,1,0,1:2:0:0:
298,285,121061,6,0,P|346:251|364:198,1,99,10|0,2:0|2:0,2:0:0:0:
241,97,121299,2,0,P|193:131|175:184,1,99,0|0,1:2|1:2,2:0:0:0:
248,384,121537,6,0,L|358:375,1,99,8|0,2:0|2:0,2:0:0:0:
259,8,121775,6,0,B|117:-1|178:103|-7:85,1,234,6|8,1:2|2:0,2:0:0:0:
11,0,122132,2,0,P|84:6|135:48,1,117,2|0,1:2|2:0,2:0:0:0:
177,166,122370,1,0,1:2:0:0:
30,274,122489,5,10,2:0:0:0:
54,255,122608,1,0,2:0:0:0:
86,333,122727,5,2,1:2:0:0:
0,193,122846,1,0,1:2:0:0:
10,365,122965,5,10,2:0:0:0:
83,178,123084,1,0,2:0:0:0:
184,372,123204,6,0,B|311:357|311:357|274:354|257:334,1,175.5,2|0,1:2|2:0,2:0:0:0:
250,323,123442,1,8,2:0:0:0:
350,76,123561,6,0,L|324:264,1,175.5,2|0,1:2|2:0,2:0:0:0:
323,276,123799,1,0,1:2:0:0:
148,168,123918,5,10,2:0:0:0:
247,140,124037,1,0,2:0:0:0:
141,86,124156,5,8,2:0:0:0:
229,107,124275,1,8,2:0:0:0:
200,32,124394,5,8,2:3:0:0:
226,68,124513,1,4,2:3:0:0:
43,33,124632,6,0,L|345:1,1,252,6|10,1:2|2:0,2:0:0:0:
438,58,124989,1,0,1:2:0:0:
368,201,125108,2,0,L|337:53,1,117,10|2,2:0|1:2,2:0:0:0:
464,284,125346,6,0,B|426:341|426:341|251:284,1,252,6|10,1:2|2:0,2:0:0:0:
167,252,125704,1,0,1:2:0:0:
255,197,125823,1,10,2:0:0:0:
188,350,125942,1,2,1:2:0:0:
44,174,126061,6,0,L|166:151,1,117,6|0,1:2|2:0,2:0:0:0:
188,350,126299,2,0,L|73:328,1,117,10|0,2:0|1:2,2:0:0:0:
33,150,126537,2,0,L|155:127,1,117,10|2,2:0|1:2,2:0:0:0:
427,226,126775,6,0,B|258:152|258:152|270:108|238:68,1,252,6|8,1:2|2:0,2:0:0:0:
168,36,127132,1,0,1:2:0:0:
296,3,127251,2,0,P|348:44|343:101,1,108,10|2,2:0|1:2,2:0:0:0:
417,334,127489,6,0,L|165:220,1,252,6|8,1:2|2:0,2:0:0:0:
86,275,127846,1,0,1:2:0:0:
167,362,127965,2,0,P|244:344|260:283,1,126,10|2,2:0|1:2,2:0:0:0:
88,91,128204,5,2,1:2:0:0:
101,171,128323,1,0,1:2:0:0:
178,61,128442,5,8,2:0:0:0:
172,107,128561,1,0,1:2:0:0:
276,46,128680,5,10,2:0:0:0:
264,73,128799,1,0,1:2:0:0:
365,14,128918,6,0,P|371:46|364:75,3,54,10|8|8|8,2:0|2:0|2:0|2:0,2:0:0:0:
433,131,129156,2,0,P|408:152|379:160,3,45,8|8|4|4,2:3|2:3|2:3|2:3,2:0:0:0:
477,226,129394,1,8,2:3:0:0:
385,268,129513,1,4,2:3:0:0:
469,316,129632,5,14,2:0:0:0:
305,213,129751,1,0,1:2:0:0:
389,370,129870,5,8,2:0:0:0:
392,241,129989,1,0,1:2:0:0:
247,328,130108,5,8,2:0:0:0:
331,305,130227,1,0,1:2:0:0:
210,233,130346,6,0,L|210:121,1,108,4|0,1:2|2:0,2:0:0:0:
28,101,130584,6,0,P|77:117|118:108,1,81.0000000000001,8|8,2:0|2:0,2:0:0:0:
116,11,130823,2,0,P|67:-5|26:4,1,81.0000000000001,0|0,1:2|1:2,2:0:0:0:
12,215,131061,6,0,B|60:232|68:273|68:273|75:230|126:204,1,162,8|0,2:0|1:2,2:0:0:0:
162,299,131418,1,0,2:0:0:0:
162,299,131537,2,0,L|159:382,1,81.0000000000001,8|0,2:0|2:0,2:0:0:0:
214,98,131775,6,0,P|268:96|299:137,1,81.0000000000001,0|0,1:2|2:0,2:0:0:0:
389,78,132013,2,0,P|417:123|397:171,1,81.0000000000001,8|8,2:0|2:0,2:0:0:0:
355,317,132251,1,0,1:2:0:0:
292,223,132370,1,0,1:2:0:0:
466,259,132489,6,0,L|450:371,1,108,8|0,2:0|1:2,2:0:0:0:
270,384,132727,6,0,L|297:190,1,162,0|0,1:2|2:0,2:0:0:0:
298,197,132965,1,8,2:0:0:0:
164,271,133084,1,0,2:0:0:0:
49,43,133204,6,0,P|139:41|190:108,1,162,0|8,1:2|2:0,2:0:0:0:
85,209,133561,1,8,2:0:0:0:
85,209,133680,2,0,P|78:153|90:126,1,81.0000000000001,0|0,1:2|1:2,2:0:0:0:
259,23,133918,6,0,B|333:23|308:64|393:82,1,121.5,8|0,2:0|2:0,2:0:0:0:
396,71,134156,1,0,1:2:0:0:
325,182,134275,1,0,2:0:0:0:
478,221,134394,2,0,P|451:171|398:148,1,81.0000000000001,8|0,2:0|2:0,2:0:0:0:
226,291,134632,6,0,L|421:269,1,162,0|8,1:2|2:0,2:0:0:0:
314,384,134989,1,8,2:0:0:0:
250,189,135108,2,0,B|287:171|287:171|337:186,1,81.0000000000001,0|0,1:2|1:2,2:0:0:0:
124,367,135346,6,0,B|68:371|41:340|41:340|74:329|89:343,1,126,8|0,2:0|1:2,2:0:0:0:
21,234,135584,2,0,B|-10:187|2:148|2:148|28:171|24:191,1,126,8|0,2:0|1:2,2:0:0:0:
88,71,135823,2,0,B|112:20|152:12|152:12|145:46|126:52,1,126,8|4,1:3|1:3,2:0:0:0:
250,189,136061,6,0,L|127:169,1,108,4|0,1:2|2:0,2:0:0:0:
337,13,136299,6,0,P|366:56|366:90,1,81.0000000000001,8|8,2:0|2:0,2:0:0:0:
277,107,136537,2,0,P|248:64|248:30,1,81.0000000000001,0|0,1:2|1:2,2:0:0:0:
465,93,136775,6,0,L|439:289,1,162,8|0,2:0|1:2,2:0:0:0:
398,348,137132,1,0,2:0:0:0:
362,175,137251,2,0,L|348:273,1,81.0000000000001,8|0,2:0|2:0,2:0:0:0:
151,333,137489,6,0,P|200:283|263:281,1,121.5,0|0,1:2|2:0,2:0:0:0:
271,281,137727,1,8,2:0:0:0:
240,381,137846,1,8,2:0:0:0:
154,180,137965,2,0,P|209:195|265:188,1,81.0000000000001,0|0,1:2|1:2,2:0:0:0:
96,18,138204,6,0,P|19:28|-9:75,1,108,8|0,2:0|1:2,2:0:0:0:
0,293,138442,2,0,L|9:144,1,121.5,0|0,1:2|2:0,2:0:0:0:
11,146,138680,1,8,2:0:0:0:
97,246,138799,1,0,2:0:0:0:
372,82,138918,6,0,L|192:95,1,162,0|8,1:2|2:0,2:0:0:0:
118,143,139275,1,8,2:0:0:0:
118,143,139394,2,0,P|166:170|186:211,1,81.0000000000001,0|0,1:2|1:2,2:0:0:0:
120,356,139632,6,0,P|166:317|275:338,1,162,8|0,2:0|1:2,2:0:0:0:
393,367,139989,1,0,2:0:0:0:
393,367,140108,2,0,P|349:303|355:271,1,81.0000000000001,8|0,2:0|2:0,2:0:0:0:
457,68,140346,6,0,L|436:265,1,162,12|0,2:0|2:0,2:0:0:0:
438,258,140584,1,0,1:2:0:0:
347,108,140704,1,12,2:0:0:0:
197,216,140823,2,0,L|327:202,1,108,0|0,2:0|1:2,2:0:0:0:
317,14,141061,6,0,P|256:44|245:101,1,108,8|8,2:0|2:0,2:0:0:0:
290,298,141299,5,8,2:3:0:0:
169,124,141418,1,8,2:3:0:0:
151,313,141537,5,4,2:3:0:0:
197,216,141656,1,4,2:3:0:0:
207,384,141775,6,0,P|244:370|265:370,1,45,4|0,1:2|2:0,2:0:0:0:
290,298,142013,2,0,P|327:312|348:312,1,45,0|0,2:0|1:2,2:0:0:0:
405,373,142251,2,0,P|442:359|463:359,1,45,0|0,2:0|2:0,2:0:0:0:
489,272,142489,2,0,P|465:235|456:177,1,90,8|2,2:0|1:2,2:0:0:0:
472,162,142846,1,0,1:2:0:0:
498,58,142965,6,0,L|395:83,1,90,2|0,1:2|2:0,2:0:0:0:
341,20,143322,2,0,L|289:7,1,45,0|0,1:2|1:2,2:0:0:0:
235,87,143560,1,0,2:0:0:0:
235,87,143679,2,0,L|183:99,1,45,8|0,2:0|2:0,2:0:0:0:
166,180,143917,2,0,L|115:165,1,45,2|0,1:2|1:2,2:0:0:0:
51,228,144155,6,0,P|29:185|36:130,1,90,2|0,1:2|2:0,2:0:0:0:
83,35,144513,1,0,1:2:0:0:
83,35,144632,2,0,P|98:69|99:96,1,45,0|0,2:0|2:0,2:0:0:0:
166,180,144870,6,0,P|161:216|149:240,1,45,8|0,2:0|2:0,2:0:0:0:
217,296,145108,6,0,P|183:311|156:311,1,45,2|0,1:2|1:2,2:0:0:0:
351,365,145346,6,0,P|318:334|314:276,1,90,2|0,1:2|2:0,2:0:0:0:
403,258,145703,2,0,P|436:289|440:347,1,90,0|0,1:2|2:0,2:0:0:0:
328,206,146060,6,0,L|312:153,1,45,8|0,2:0|2:0,2:0:0:0:
414,133,146298,2,0,L|427:176,1,45,2|0,1:2|1:2,2:0:0:0:
282,31,146536,6,0,L|393:38,1,90,2|0,1:2|2:0,2:0:0:0:
463,12,146894,1,0,1:2:0:0:
463,12,147013,2,0,P|470:39|464:65,1,45,0|0,2:0|2:0,2:0:0:0:
284,142,147251,6,0,P|240:130|206:102,1,90,8|2,2:0|1:2,2:0:0:0:
148,28,147608,1,0,1:2:0:0:
148,28,147727,2,0,P|126:33|89:95,1,90,2|0,1:2|2:0,2:0:0:0:
121,212,148084,1,0,1:2:0:0:
121,212,148203,2,0,P|143:172|144:156,1,45,0|0,2:0|2:0,2:0:0:0:
0,67,148441,6,0,L|8:127,1,45,8|0,2:0|2:0,2:0:0:0:
31,198,148679,2,0,L|25:242,1,45,2|0,1:2|1:2,2:0:0:0:
6,352,148917,6,0,L|107:316,1,90,2|0,1:2|2:0,2:0:0:0:
263,319,149275,2,0,L|178:288,1,90,0|0,1:2|2:0,2:0:0:0:
232,209,149632,2,0,L|274:224,1,45,8|0,2:0|2:0,2:0:0:0:
368,318,149870,2,0,L|352:360,1,45,2|0,1:2|1:2,2:0:0:0:
378,208,150108,5,2,2:0:0:0:
482,180,150227,2,0,L|466:138,1,45,0|0,2:0|2:0,2:0:0:0:
342,83,150465,1,2,2:0:0:0:
330,77,150584,2,0,L|346:35,1,45,0|0,2:0|2:0,2:0:0:0:
235,102,150822,5,8,2:0:0:0:
220,93,150881,1,8,2:0:0:0:
204,89,150941,1,8,2:0:0:0:
187,89,151000,1,8,2:0:0:0:
171,95,151060,2,0,L|178:133,1,22.5,8|8,2:3|2:3,2:0:0:0:
113,168,151179,2,0,L|106:206,5,22.5,4|4|8|8|4|4,2:3|2:3|2:3|2:3|2:3|2:3,2:0:0:0:
38,229,151536,6,0,P|98:238|170:254,1,135,4|0,1:2|2:0,2:0:0:0:
184,265,151774,2,0,P|230:244|240:207,1,90,0|0,2:0|1:2,2:0:0:0:
88,156,152012,2,0,P|42:177|32:214,1,90,0|0,2:0|1:2,2:0:0:0:
317,338,152250,2,0,P|227:347|139:366,1,180,0|10,1:2|2:0,2:0:0:0:
338,340,152607,5,8,2:0:0:0:
100,289,152726,2,0,P|95:333|123:367,2,90,10|0|0,2:0|2:0|2:0,2:0:0:0:
229,119,153083,5,0,1:2:0:0:
139,95,153202,2,0,B|181:83|181:83|218:111,1,90,0|0,2:0|1:2,2:0:0:0:
88,156,153440,2,0,B|55:124|55:124|61:80,1,90,0|0,1:2|2:0,2:0:0:0:
290,170,153678,6,0,L|279:259,1,90,10|8,2:0|2:0,2:0:0:0:
371,132,153916,2,0,L|353:320,1,180,10|0,2:0|2:0,2:0:0:0:
476,182,154274,2,0,P|455:102|374:113,1,180,0|0,1:2|1:2,2:0:0:0:
370,300,154631,2,0,P|395:258|380:210,1,90,0|0,1:2|2:0,2:0:0:0:
205,126,154869,5,10,2:0:0:0:
214,209,154988,1,8,2:0:0:0:
278,258,155107,2,0,P|174:220|62:223,1,225,10|0,2:0|2:0,2:0:0:0:
16,236,155464,2,0,B|48:267|48:267|90:254,1,90,0|0,1:2|1:2,2:0:0:0:
31,148,155702,5,8,2:0:0:0:
129,328,155821,1,8,2:0:0:0:
126,164,155940,1,8,2:3:0:0:
44,372,156059,2,0,L|156:336,1,90,4|8,2:3|2:0,2:0:0:0:
187,239,156297,6,0,B|215:224|202:210|245:213|255:206|268:233|277:197|254:255|287:191|260:233|243:226|331:206|299:243|327:287|345:255|366:282|404:255,1,225,2|0,1:2|2:0,2:0:0:0:
367,123,157011,6,0,P|294:236|235:358,1,269.999999999999,2|0,1:2|2:0,2:0:0:0:
379,114,157725,6,0,B|400:101|407:89|408:76|400:61|381:50|362:62|356:70|333:101|371:166,1,189,2|0,1:2|2:0,2:0:0:0:
508,290,158201,5,0,2:0:0:0:
299,246,158320,2,0,L|342:255,1,45,0|0,1:2|1:2,2:0:0:0:
274,245,158439,2,0,P|240:273|244:316,1,90,12|0,2:0|2:0,2:0:0:0:
393,147,158677,2,0,P|408:56|401:14,1,135,8|8,2:0|2:0,2:0:0:0:
128,186,158916,2,0,P|89:101|85:59,1,135,8|4,2:3|2:3,2:0:0:0:
375,149,159154,5,12,2:0:0:0:
248,91,159273,1,0,1:2:0:0:
156,184,159392,1,0,1:2:0:0:
306,18,159511,5,12,2:0:0:0:
274,245,159630,1,0,1:2:0:0:
169,40,159749,1,0,1:2:0:0:
114,308,159868,6,0,P|158:309|187:277,1,90,12|0,2:0|1:2,2:0:0:0:
312,33,160106,2,0,P|345:86|357:141,1,108,12|0,2:0|1:2,2:0:0:0:
450,330,160344,2,0,P|387:344|343:298,1,135,12|0,2:0|1:2,2:0:0:0:
277,132,160582,5,2,2:0:0:0:
204,201,160701,1,2,2:0:0:0:
113,175,160820,5,2,2:0:0:0:
97,233,160939,1,2,2:0:0:0:
11,248,161058,5,2,2:0:0:0:
20,284,161177,1,2,2:0:0:0:
22,369,161297,6,0,L|75:372,1,54,2|0,2:0|2:0,2:0:0:0:
226,311,161773,5,0,2:0:0:0:
226,311,161892,1,0,2:0:0:0:
38,81,162011,6,0,B|183:41|144:187|319:119,1,252,6|10,1:2|2:0,2:0:0:0:
401,57,162368,2,0,P|338:13|263:27,1,126,2|0,1:2|2:0,2:0:0:0:
300,157,162606,1,2,1:2:0:0:
471,162,162725,2,0,P|513:98|498:23,1,126,10|0,2:0|2:0,2:0:0:0:
300,157,162963,2,0,P|330:222|342:294,1,126,0|0,1:2|1:2,2:0:0:0:
512,331,163201,2,0,P|450:333|401:371,1,126,10|0,2:0|2:0,2:0:0:0:
221,90,163439,6,0,P|285:189|314:321,1,252,2|8,1:2|2:0,2:0:0:0:
51,238,163797,1,2,1:2:0:0:
165,365,163916,1,0,2:0:0:0:
151,254,164035,1,0,1:2:0:0:
48,326,164154,2,0,P|58:384|72:337,1,126,8|0,2:0|2:0,2:0:0:0:
168,231,164392,2,0,P|158:173|144:220,1,126,0|0,1:2|1:2,2:0:0:0:
32,93,164630,1,10,2:0:0:0:
297,152,164749,1,2,2:0:0:0:
58,95,164868,6,0,P|49:-4|128:56,1,252,6|10,1:2|2:0,2:0:0:0:
432,84,165225,2,0,P|297:109|178:151,1,252,2|2,1:2|1:2,2:0:0:0:
310,377,165582,2,0,P|342:294|373:227,1,126,10|0,2:0|1:2,2:0:0:0:
391,180,165820,1,0,1:2:0:0:
254,251,165939,1,0,1:2:0:0:
183,163,166058,2,0,P|208:220|230:279,1,126,10|0,2:0|2:0,2:0:0:0:
42,324,166297,6,0,B|187:284|148:430|323:362,1,252,2|8,1:2|2:0,2:0:0:0:
488,303,166654,2,0,B|343:343|382:197|207:265,1,252,2|0,1:2|1:2,2:0:0:0:
183,163,167011,1,8,2:0:0:0:
279,100,167130,1,0,2:0:0:0:
180,58,167249,1,0,1:2:0:0:
296,78,167368,1,0,1:2:0:0:
252,6,167487,1,10,2:0:0:0:
318,67,167606,1,2,2:0:0:0:
318,67,167725,6,0,B|306:153|303:188|303:188|297:191|297:191|306:194|306:194|301:197|301:197|297:251|291:328,1,252,6|10,1:2|2:0,2:0:0:0:
400,73,168082,2,0,P|406:165|365:182,1,126,2|0,1:2|2:0,2:0:0:0:
205,310,168320,1,2,1:2:0:0:
205,310,168439,2,0,P|199:218|240:201,1,126,10|0,2:0|2:0,2:0:0:0:
305,164,168677,1,0,1:2:0:0:
512,286,168797,2,0,L|353:260,1,126,0|10,1:2|2:0,2:0:0:0:
313,154,169035,1,0,2:0:0:0:
17,209,169154,6,0,B|-11:269|47:316|47:316|47:326|47:326|54:321|54:321|143:328|159:261,1,252,6|8,1:2|2:0,2:0:0:0:
319,145,169511,1,0,1:2:0:0:
252,300,169630,1,0,1:2:0:0:
145,153,169749,1,0,1:2:0:0:
462,137,169868,6,0,B|480:108|480:108|334:131,1,126,10|0,2:0|2:0,2:0:0:0:
204,356,170106,2,0,B|220:386|220:386|273:248,1,126,0|0,1:2|1:2,2:0:0:0:
100,63,170344,2,0,B|65:61|65:61|158:176,1,126,8|0,2:0|2:0,2:0:0:0:
504,121,170582,6,0,B|518:102|533:85|533:85|417:102|417:102|403:93|403:93|300:108,1,252,6|10,1:2|2:0,2:0:0:0:
36,208,170939,2,0,P|107:220|173:244,1,126,2|0,1:2|1:2,2:0:0:0:
204,356,171177,1,0,1:2:0:0:
207,90,171297,2,0,P|268:172|320:328,1,252,14|0,2:0|1:2,2:0:0:0:
389,198,171654,1,0,1:2:0:0:
283,141,171773,1,10,2:0:0:0:
362,53,171892,1,0,1:2:0:0:
512,190,172011,6,0,P|441:202|375:226,1,126,12|0,2:0|1:2,2:0:0:0:
84,72,172249,1,0,1:2:0:0:
72,60,172368,2,0,P|143:72|209:96,1,126,14|0,2:0|1:2,2:0:0:0:
357,285,172606,1,0,1:2:0:0:
278,48,172725,1,10,2:0:0:0:
157,264,172844,1,8,2:0:0:0:
400,141,172963,5,8,2:3:0:0:
155,113,173082,1,4,2:3:0:0:
317,181,173201,5,8,2:0:0:0:
214,195,173320,1,8,2:0:0:0:
298,43,173439,6,0,B|337:172|211:164|259:306,1,252,6|10,1:2|2:0,2:0:0:0:
511,235,173797,2,0,P|459:183|375:176,1,126,2|0,1:2|2:0,2:0:0:0:
280,309,174035,1,2,1:2:0:0:
438,61,174154,2,0,P|364:60|300:115,1,126,10|0,2:0|2:0,2:0:0:0:
117,175,174392,2,0,P|188:166|260:177,1,126,0|0,1:2|1:2,2:0:0:0:
106,0,174630,2,0,P|174:26|215:100,1,126,10|0,2:0|2:0,2:0:0:0:
27,229,174868,6,0,P|140:198|275:211,1,252,2|8,1:2|2:0,2:0:0:0:
480,240,175225,1,2,1:2:0:0:
357,298,175344,1,0,2:0:0:0:
332,157,175463,1,0,1:2:0:0:
498,369,175582,6,0,P|477:307|503:248,1,126,8|0,2:0|2:0,2:0:0:0:
356,152,175820,2,0,P|377:214|351:273,1,126,0|0,1:2|1:2,2:0:0:0:
451,29,176058,1,10,2:0:0:0:
246,163,176177,1,2,2:0:0:0:
463,14,176297,6,0,B|414:52|394:114|394:114|347:65|266:57,1,252,6|10,1:2|2:0,2:0:0:0:
60,91,176654,2,0,P|86:30|138:138,1,252,2|2,1:2|1:2,2:0:0:0:
64,363,177011,5,10,2:0:0:0:
22,183,177130,1,0,2:0:0:0:
143,302,177249,5,2,1:2:0:0:
152,152,177368,1,0,1:2:0:0:
237,245,177487,5,10,2:0:0:0:
302,137,177606,1,0,2:0:0:0:
414,359,177725,6,0,P|313:338|204:235,1,252,6|8,1:2|2:0,2:0:0:0:
305,157,178082,1,0,1:2:0:0:
479,164,178201,2,0,P|423:226|350:247,1,126,0|0,1:2|1:2,2:0:0:0:
203,260,178439,5,14,2:0:0:0:
101,94,178558,1,0,2:0:0:0:
260,75,178677,1,0,1:2:0:0:
191,151,178797,1,0,1:2:0:0:
195,166,178916,1,8,2:0:0:0:
170,24,179035,1,0,1:2:0:0:
97,187,179154,5,4,1:2:0:0:
187,136,179273,1,0,2:0:0:0:
286,163,179392,1,0,2:0:0:0:
203,260,179630,1,0,2:0:0:0:
101,94,179868,5,4,1:2:0:0:
205,280,180106,1,0,2:0:0:0:
260,75,180344,1,0,2:0:0:0:
83,190,180582,5,4,1:2:0:0:
186,124,180701,1,0,2:0:0:0:
299,163,180820,1,0,2:0:0:0:
208,299,181058,1,0,2:0:0:0:
79,207,181297,6,0,B|55:172|55:172|226:217,1,162,14|0,2:0|1:2,2:0:0:0:
319,325,181535,2,0,B|293:379|293:379|219:304|300:207,1,243,14|0,2:0|2:0,2:0:0:0:
385,45,181773,2,0,B|307:69|307:69|304:84|304:84|236:104,1,162,14|0,2:0|1:2,2:0:0:0:
16,140,182011,6,0,P|130:164|324:228,1,288,6|8,1:2|2:0,2:0:0:0:
319,325,182368,1,0,1:2:0:0:
447,193,182487,2,0,P|443:287|359:281,1,144,8|0,2:0|1:2,2:0:0:0:
131,132,182725,6,0,P|101:43|74:-5,1,126,10|0,2:0|1:2,2:0:0:0:
228,138,182963,2,0,P|238:45|235:-10,1,126,8|0,2:0|1:2,2:0:0:0:
308,187,183201,2,0,P|357:107|377:55,1,126,8|0,2:0|1:2,2:0:0:0:
408,300,183439,5,14,2:0:0:0:
377,305,183499,1,8,2:0:0:0:
346,313,183558,1,8,2:0:0:0:
316,321,183618,1,8,2:0:0:0:
286,331,183677,2,0,P|278:300|266:271,1,63,8|8,2:3|2:3,2:0:0:0:
184,230,183797,2,0,P|176:260|164:289,1,63,4|4,2:3|2:3,2:0:0:0:
122,364,183916,5,8,2:3:0:0:
91,358,183975,1,8,2:3:0:0:
60,350,184035,1,4,2:3:0:0:
30,342,184094,1,4,2:3:0:0:
0,334,184154,6,0,P|-15:276|27:235,1,126,10|0,2:0|1:2,2:0:0:0:
316,137,184392,2,0,P|231:146|179:116,1,126,10|0,2:0|1:2,2:0:0:0:
19,2,184630,2,0,P|68:70|68:130,1,126,10|0,2:0|1:2,2:0:0:0:
28,234,184868,5,6,1:2:0:0:
68,91,190582,6,0,P|128:104|167:46,1,121.5,4|0,1:2|2:0,2:0:0:0:
177,37,190820,2,0,B|165:130|165:130|170:138|170:138|163:142|163:142|155:212,1,162,2|0,2:0|2:0,2:0:0:0:
316,253,191177,1,10,2:0:0:0:
316,253,191297,2,0,B|307:210|307:210|263:165,1,81.0000000000001,10|0,2:0|2:0,2:0:0:0:
143,299,191535,2,0,B|186:293|186:293|234:252,1,81.0000000000001,2|0,1:2|2:0,2:0:0:0:
339,375,191773,2,0,P|394:326|464:349,1,121.5,10|0,2:0|2:0,2:0:0:0:
468,358,192011,6,0,B|463:318|454:290|454:290|463:256|463:256|452:223|448:181,1,162,2|0,1:2|2:0,2:0:0:0:
506,47,192368,2,0,P|447:72|372:136,1,162,10|10,2:0|2:0,2:0:0:0:
294,53,192725,5,10,2:0:0:0:
263,63,192804,5,0,2:0:0:0:
231,71,192884,5,0,2:0:0:0:
199,78,192963,6,0,P|176:32|187:-13,1,81.0000000000001,2|0,1:2|2:0,2:0:0:0:
188,172,193201,2,0,P|139:155|115:116,1,81.0000000000001,10|0,2:0|2:0,2:0:0:0:
273,146,193439,6,0,B|298:122|298:122|280:186|281:229,1,144,2|0,1:2|2:0,2:0:0:0:
91,352,193797,2,0,P|134:296|202:277,1,144,10|10,2:0|2:0,2:0:0:0:
343,313,194154,2,0,P|299:322|253:338,1,72,10|0,2:0|2:0,2:0:0:0:
467,312,194392,2,0,P|442:349|421:393,1,72,2|0,1:2|2:0,2:0:0:0:
398,225,194630,2,0,P|432:214|467:207,1,72,10|0,2:0|2:0,2:0:0:0:
202,277,194868,6,0,P|272:290|341:311,1,144,2|0,1:2|2:0,2:0:0:0:
48,220,195225,2,0,P|116:196|187:185,1,144,10|10,2:0|2:0,2:0:0:0:
44,50,195582,2,0,P|44:101|66:132,1,72,10|0,2:0|2:0,2:0:0:0:
151,102,195820,2,0,P|150:50|128:19,1,72,2|0,1:2|2:0,2:0:0:0:
87,229,196058,2,0,P|140:214|183:208,1,72,10|0,2:0|2:0,2:0:0:0:
366,175,196297,6,0,B|291:197|307:125|230:144,1,144,6|2,1:2|2:0,2:0:0:0:
363,68,196654,1,8,2:0:0:0:
363,68,196773,1,0,2:0:0:0:
459,56,196892,1,10,2:0:0:0:
472,167,197011,6,0,P|465:205|440:235,1,72,10|0,2:0|2:0,2:0:0:0:
504,305,197249,2,0,P|472:326|433:330,1,72,2|0,1:2|2:0,2:0:0:0:
280,252,197487,2,0,P|318:247|340:320,1,108,10|0,2:0|2:0,2:0:0:0:
336,334,197725,2,0,B|341:283|341:283|348:279|348:279|343:272|343:272|355:178,1,144,2|0,1:2|2:0,2:0:0:0:
295,108,198082,1,10,2:0:0:0:
286,88,198201,1,0,2:0:0:0:
189,126,198320,1,10,2:0:0:0:
204,39,198439,6,0,P|172:86|79:69,1,144,10|2,2:0|1:2,2:0:0:0:
0,215,198797,1,0,2:0:0:0:
0,215,198916,2,0,P|48:184|91:188,1,72,10|0,2:0|2:0,2:0:0:0:
146,355,199154,6,0,B|168:325|168:325|154:206,1,144,2|2,1:2|2:0,2:0:0:0:
69,298,199511,1,8,2:0:0:0:
249,348,199630,2,0,P|283:307|325:283,1,72,2|8,2:0|2:0,2:0:0:0:
274,200,199868,2,0,P|327:195|373:207,1,72,10|0,2:0|2:0,2:0:0:0:
512,265,200106,2,0,P|458:269|412:257,1,72,2|0,1:2|2:0,2:0:0:0:
473,163,200344,2,0,P|432:128|408:87,1,72,10|0,2:0|2:0,2:0:0:0:
253,0,200582,6,0,P|303:11|276:121,1,162,2|0,1:2|2:0,2:0:0:0:
112,80,200939,2,0,P|103:29|85:-9,1,81.0000000000001,0|0,1:2|2:0,2:0:0:0:
218,173,201177,1,0,1:2:0:0:
218,173,201237,1,0,1:2:0:0:
218,173,201297,5,8,2:0:0:0:
36,228,201416,1,8,2:0:0:0:
228,274,201535,5,8,2:3:0:0:
119,211,201654,1,4,2:3:0:0:
112,313,201773,5,8,2:3:0:0:
142,295,201892,1,4,2:3:0:0:
52,124,202011,6,0,P|146:139|257:158,1,180,6|0,1:2|2:0,2:0:0:0:
326,132,202368,1,0,2:0:0:0:
315,106,202487,1,0,1:2:0:0:
388,45,202606,1,0,1:2:0:0:
508,116,202725,2,0,P|459:116|408:163,1,90,10|0,2:0|1:2,2:0:0:0:
435,263,202963,2,0,P|400:228|331:225,1,90,0|0,1:2|2:0,2:0:0:0:
439,359,203201,2,0,P|480:336|537:313,1,90,8|0,2:0|2:0,2:0:0:0:
296,282,203439,6,0,P|271:232|344:125,1,180,2|0,1:2|2:0,2:0:0:0:
351,359,203797,1,8,2:0:0:0:
346,382,203916,1,0,2:0:0:0:
296,282,204035,1,0,1:2:0:0:
217,371,204154,1,10,2:0:0:0:
188,242,204273,1,0,1:2:0:0:
0,346,204392,2,0,P|44:353|88:360,1,90,0|0,1:2|2:0,2:0:0:0:
46,179,204630,2,0,P|71:216|98:253,1,90,8|0,2:0|2:0,2:0:0:0:
218,49,204868,6,0,P|202:137|188:226,1,180,6|0,1:2|2:0,2:0:0:0:
36,63,205225,2,0,P|74:85|118:83,1,90,0|0,2:0|1:2,2:0:0:0:
312,66,205463,1,0,1:2:0:0:
312,66,205523,1,0,1:2:0:0:
312,66,205582,2,0,P|317:110|299:151,1,90,10|0,2:0|1:2,2:0:0:0:
188,226,205820,1,0,1:2:0:0:
179,211,205939,1,0,2:0:0:0:
383,200,206058,2,0,P|355:234|313:250,1,90,8|0,2:0|2:0,2:0:0:0:
115,377,206297,6,0,P|152:325|281:344,1,180,2|0,1:2|2:0,2:0:0:0:
376,280,206654,1,8,2:0:0:0:
370,301,206773,1,0,2:0:0:0:
270,361,206892,1,0,1:2:0:0:
102,148,207011,6,0,P|158:170|188:248,1,126,14|0,2:0|1:2,2:0:0:0:
204,53,207249,2,0,P|245:96|239:179,1,108,8|8,2:0|2:0,2:0:0:0:
339,1,207487,2,0,P|356:52|319:119,1,99,8|4,2:3|2:3,2:0:0:0:
252,142,207725,6,0,P|323:130|443:114,1,180,6|0,1:2|2:0,2:0:0:0:
501,188,208082,1,0,2:0:0:0:
501,188,208201,2,0,P|465:213|417:206,1,90,0|0,1:2|1:2,2:0:0:0:
308,268,208439,5,10,2:0:0:0:
252,142,208558,1,0,1:2:0:0:
290,370,208677,2,0,P|230:347|208:303,1,90,0|0,1:2|2:0,2:0:0:0:
100,353,208916,2,0,P|104:288|140:254,1,90,8|0,2:0|2:0,2:0:0:0:
168,58,209154,2,0,P|217:104|210:218,1,180,2|0,1:2|2:0,2:0:0:0:
37,204,209511,2,0,P|85:161|134:163,1,90,8|0,2:0|2:0,2:0:0:0:
252,142,209749,1,0,1:2:0:0:
362,136,209868,5,10,2:0:0:0:
372,151,209987,1,0,1:2:0:0:
428,17,210106,2,0,P|382:47|333:45,1,90,0|0,1:2|2:0,2:0:0:0:
252,142,210344,2,0,P|260:186|267:230,1,90,8|0,2:0|1:2,2:0:0:0:
282,345,210582,6,0,P|396:321|512:303,1,234,14|0,2:0|2:0,2:0:0:0:
500,210,210939,1,0,1:2:0:0:
500,210,211058,2,0,P|448:218|382:232,1,117,0|0,1:2|1:2,2:0:0:0:
64,287,211297,2,0,P|178:262|294:244,1,216,14|0,2:0|2:0,2:0:0:0:
374,142,211654,1,0,1:2:0:0:
374,142,211773,2,0,P|322:150|256:164,1,108,0|0,1:2|1:2,2:0:0:0:
26,92,212011,6,0,P|48:195|65:301,1,198,14|0,2:0|2:0,2:0:0:0:
127,66,212368,1,0,1:2:0:0:
127,66,212487,2,0,P|136:114|144:163,1,99,0|0,1:2|1:2,2:0:0:0:
230,248,212725,5,10,2:0:0:0:
277,58,212844,1,8,2:0:0:0:
332,191,212963,1,8,2:3:0:0:
250,37,213082,1,4,2:3:0:0:
173,147,213201,1,8,2:3:0:0:
173,147,213320,1,4,2:3:0:0:
449,108,213439,6,0,P|379:113|368:232,1,180,6|0,1:2|2:0,2:0:0:0:
464,205,213797,1,0,2:0:0:0:
475,231,213916,1,0,1:2:0:0:
415,310,214035,1,0,1:2:0:0:
250,351,214154,2,0,P|298:314|340:297,1,90,10|0,2:0|1:2,2:0:0:0:
148,209,214392,2,0,P|208:216|249:234,1,90,0|0,1:2|2:0,2:0:0:0:
111,377,214630,2,0,P|146:342|127:273,1,90,8|0,2:0|2:0,2:0:0:0:
111,110,214868,6,0,P|64:145|73:280,1,180,2|0,1:2|2:0,2:0:0:0:
223,128,215225,1,8,2:0:0:0:
212,102,215344,1,0,2:0:0:0:
254,19,215463,1,0,1:2:0:0:
401,156,215582,5,10,2:0:0:0:
316,87,215701,1,0,1:2:0:0:
497,79,215820,2,0,P|449:72|403:64,1,90,0|0,1:2|2:0,2:0:0:0:
453,228,216058,2,0,P|424:189|397:150,1,90,8|0,2:0|2:0,2:0:0:0:
272,346,216297,6,0,P|287:236|306:132,1,180,6|0,1:2|2:0,2:0:0:0:
461,327,216654,2,0,P|400:320|356:342,1,90,0|0,2:0|1:2,2:0:0:0:
179,319,216892,1,0,1:2:0:0:
179,319,216951,1,0,1:2:0:0:
179,319,217011,2,0,P|172:275|194:234,1,90,10|0,2:0|1:2,2:0:0:0:
298,168,217249,1,0,1:2:0:0:
295,192,217368,1,0,2:0:0:0:
105,175,217487,2,0,P|133:139|177:126,1,90,8|0,2:0|2:0,2:0:0:0:
380,3,217725,6,0,P|321:72|228:39,1,180,2|0,1:2|2:0,2:0:0:0:
108,20,218082,1,8,2:0:0:0:
114,41,218201,1,0,2:0:0:0:
174,126,218320,1,0,1:2:0:0:
8,238,218439,6,0,P|44:188|104:174,1,126,14|0,2:0|1:2,2:0:0:0:
167,352,218677,2,0,P|158:296|188:248,1,108,8|8,2:0|2:0,2:0:0:0:
346,367,218916,2,0,P|308:335|296:288,1,99,8|4,2:3|2:3,2:0:0:0:
474,262,219154,6,0,P|385:277|296:288,1,180,6|0,1:2|2:0,2:0:0:0:
407,165,219511,1,0,2:0:0:0:
407,165,219630,2,0,P|451:143|503:164,1,90,0|0,1:2|1:2,2:0:0:0:
286,83,219868,1,10,2:0:0:0:
308,193,219987,1,0,1:2:0:0:
328,3,220106,2,0,P|318:62|310:121,1,90,0|0,1:2|2:0,2:0:0:0:
153,36,220344,2,0,P|187:84|224:131,1,90,8|0,2:0|2:0,2:0:0:0:
0,172,220582,6,0,P|107:190|215:203,1,180,2|0,1:2|2:0,2:0:0:0:
160,289,220939,2,0,P|116:297|78:276,1,90,8|0,2:0|2:0,2:0:0:0:
195,186,221177,1,0,1:2:0:0:
274,261,221297,5,10,2:0:0:0:
282,240,221416,1,0,1:2:0:0:
276,359,221535,2,0,P|266:299|258:240,1,90,0|0,1:2|2:0,2:0:0:0:
446,323,221773,2,0,P|397:288|350:251,1,90,8|0,2:0|1:2,2:0:0:0:
509,105,222011,6,0,B|447:112|392:119|392:119|385:111|385:111|382:121|382:121|327:132|248:144,1,234,14|8,2:0|2:0,2:0:0:0:
105,159,222368,1,0,1:2:0:0:
171,25,222487,1,8,2:0:0:0:
217,233,222606,1,0,1:2:0:0:
277,32,222725,6,0,P|226:57|167:51,1,117,10|0,2:0|1:2,2:0:0:0:
4,202,222963,2,0,P|50:177|116:185,1,117,8|0,2:0|1:2,2:0:0:0:
210,264,223201,1,8,2:0:0:0:
272,56,223320,1,0,1:2:0:0:
434,293,223439,6,0,B|391:291|347:275|347:275|319:304|264:336,1,175.5,14|0,2:0|2:0,2:0:0:0:
210,264,223677,1,0,1:2:0:0:
347,74,223797,2,0,P|355:131|365:189,1,117,12|0,2:0|1:2,2:0:0:0:
203,295,224035,1,0,1:2:0:0:
309,46,224154,6,0,P|317:103|327:161,1,117,12|8,2:0|2:0,2:0:0:0:
354,319,224392,1,8,2:0:0:0:
462,189,224511,1,8,2:0:0:0:
226,160,224630,1,8,2:0:0:0:
483,194,224749,1,8,2:0:0:0:
280,246,224868,5,2,2:0:0:0:
247,258,224987,1,2,2:0:0:0:
213,269,225106,1,2,2:0:0:0:
130,242,225225,5,2,2:0:0:0:
104,251,225344,1,2,2:0:0:0:
77,260,225463,1,2,2:0:0:0:
0,246,225582,5,2,2:0:0:0:
226,160,226297,5,6,1:2:0:0:
329,328,237487,5,0,2:0:0:0:
329,328,237606,1,0,2:0:0:0:
443,104,237725,6,0,B|436:15|345:-8|287:39|287:39|283:80|243:118,1,252,6|10,1:2|2:0,2:0:0:0:
178,41,238082,2,0,P|172:103|202:157,1,126,2|0,1:2|2:0,2:0:0:0:
293,105,238320,1,2,1:2:0:0:
100,199,238439,2,0,P|145:250|218:261,1,126,10|0,2:0|1:2,2:0:0:0:
336,207,238677,2,0,P|308:288|308:359,1,126,0|0,1:2|1:2,2:0:0:0:
88,226,238916,2,0,P|133:274|206:285,1,126,10|0,2:0|2:0,2:0:0:0:
396,143,239154,6,0,P|337:289|326:417,1,252,2|8,1:2|2:0,2:0:0:0:
249,87,239511,2,0,P|287:53|292:104,1,126,2|0,1:2|2:0,2:0:0:0:
88,226,239749,1,0,1:2:0:0:
141,81,239868,1,8,2:0:0:0:
213,177,239987,1,0,2:0:0:0:
46,102,240106,2,0,P|7:68|2:119,1,126,0|0,1:2|1:2,2:0:0:0:
198,266,240344,1,10,2:0:0:0:
147,97,240463,1,2,2:0:0:0:
9,333,240582,6,0,B|137:281|119:410|266:355,1,252,6|10,1:2|2:0,2:0:0:0:
401,199,240939,2,0,P|342:231|291:293,1,126,2|0,1:2|2:0,2:0:0:0:
512,264,241177,1,2,1:2:0:0:
479,114,241297,2,0,P|414:94|334:102,1,126,10|0,2:0|2:0,2:0:0:0:
277,257,241535,1,2,1:2:0:0:
358,122,241654,1,0,1:2:0:0:
244,5,241773,2,0,B|211:62|211:62|234:158,1,126,10|0,2:0|2:0,2:0:0:0:
81,127,242011,6,0,B|119:203|119:203|313:268,1,252,6|8,1:2|2:0,2:0:0:0:
346,135,242368,1,0,1:2:0:0:
326,370,242487,2,0,B|383:337|383:337|411:242,1,126,0|0,2:0|1:2,2:0:0:0:
117,196,242725,5,14,2:0:0:0:
166,283,242844,1,8,2:0:0:0:
267,245,242963,1,8,2:3:0:0:
65,292,243082,1,4,2:3:0:0:
58,309,243201,1,8,2:3:0:0:
121,182,243320,1,4,2:3:0:0:
267,245,243439,5,4,1:2:0:0:
233,90,243677,1,0,2:0:0:0:
117,196,243916,1,0,2:0:0:0:
284,268,244154,5,4,1:2:0:0:
236,47,244392,1,0,2:0:0:0:
69,199,244630,1,0,2:0:0:0:
284,268,244868,5,4,1:2:0:0:
260,158,244987,1,0,2:0:0:0:
236,47,245106,1,0,2:0:0:0:
69,199,245344,1,0,2:0:0:0:
284,268,245582,5,14,2:0:0:0:
236,47,245701,1,0,1:2:0:0:
155,270,245820,2,0,B|118:304|118:304|168:296|217:292|217:292|226:305|226:305|273:298|350:291,1,243,14|0,2:0|2:0,2:0:0:0:
354,99,246058,2,0,P|282:133|305:226,1,162,14|0,2:0|1:2,2:0:0:0:
312,384,246297,6,0,P|328:240|354:99,1,288,6|8,1:2|2:0,2:0:0:0:
291,10,246654,1,0,1:2:0:0:
512,53,246773,2,0,P|466:-2|372:20,1,144,8|0,2:0|1:2,2:0:0:0:
49,167,247011,6,0,P|23:224|8:285,1,126,10|0,2:0|1:2,2:0:0:0:
154,205,247249,2,0,P|156:268|166:330,1,126,8|0,2:0|1:2,2:0:0:0:
259,178,247487,2,0,P|286:235|322:286,1,126,8|0,2:0|1:2,2:0:0:0:
81,15,247725,5,14,2:0:0:0:
107,19,247785,1,8,2:0:0:0:
133,26,247844,1,8,2:0:0:0:
158,33,247904,1,8,2:0:0:0:
183,41,247963,2,0,P|215:58|231:78,1,63,8|8,2:3|2:3,2:0:0:0:
154,205,248082,2,0,P|157:174|175:142,1,63,4|4,2:3|2:3,2:0:0:0:
321,100,248201,5,8,2:3:0:0:
346,91,248261,1,8,2:3:0:0:
371,84,248320,1,4,2:3:0:0:
397,78,248380,1,4,2:3:0:0:
423,74,248439,1,10,2:0:0:0:
256,192,249193,12,0,250523,2:0:0:0:
430,129,250582,6,0,P|309:160|186:208,1,252,6|10,1:2|2:0,2:0:0:0:
99,105,250939,2,0,P|56:170|78:264,1,126,2|0,1:2|2:0,2:0:0:0:
129,297,251177,1,0,1:2:0:0:
250,123,251297,5,10,2:0:0:0:
270,148,251416,1,0,2:0:0:0:
336,77,251535,5,2,1:2:0:0:
217,207,251654,1,0,1:2:0:0:
223,46,251773,5,10,2:0:0:0:
314,234,251892,1,0,2:0:0:0:
447,29,252011,6,0,B|402:57|351:19|351:19|301:0|254:37,1,202.5,2|0,1:2|2:0,2:0:0:0:
223,46,252249,1,8,2:0:0:0:
0,75,252368,2,0,P|72:62|151:148,1,175.5,2|0,1:2|2:0,2:0:0:0:
159,157,252606,1,0,1:2:0:0:
79,339,252725,5,10,2:0:0:0:
196,264,252844,1,0,2:0:0:0:
35,248,252963,2,0,P|36:175|70:129,1,108,0|0,1:2|1:2,2:0:0:0:
186,363,253201,2,0,P|185:290|151:244,1,108,8|0,2:0|2:0,2:0:0:0:
383,158,253439,2,0,B|328:203|270:172|270:172|267:175|267:175|269:166|269:166|264:171|264:171|204:135|136:165,1,252,6|8,1:2|2:0,2:0:0:0:
479,99,253797,2,0,P|418:57|332:72,1,126,2|0,1:2|2:0,2:0:0:0:
394,173,254035,1,0,1:2:0:0:
259,87,254154,5,10,2:0:0:0:
239,112,254273,1,0,2:0:0:0:
173,41,254392,5,2,1:2:0:0:
292,171,254511,1,0,1:2:0:0:
286,10,254630,5,10,2:0:0:0:
195,198,254749,1,0,2:0:0:0:
56,17,254868,6,0,B|17:48|5:70|5:70|26:130|43:205,1,202.5,2|0,1:2|2:0,2:0:0:0:
50,223,255106,1,8,2:0:0:0:
253,312,255225,2,0,B|279:270|279:270|205:298|114:315,1,202.5,2|0,1:2|2:0,2:0:0:0:
97,324,255463,1,0,1:2:0:0:
398,318,255582,5,10,2:0:0:0:
317,160,255701,1,0,2:0:0:0:
455,129,255820,5,8,2:0:0:0:
343,248,255939,1,8,2:0:0:0:
369,61,256058,5,8,2:3:0:0:
451,247,256177,1,4,2:3:0:0:
237,85,256297,6,0,B|222:96|194:105|168:97|163:69|168:36|184:14|224:5|265:7|301:18|340:44|362:85,1,288,6|10,1:2|2:0,2:0:0:0:
230,196,256654,1,0,1:2:0:0:
103,134,256773,2,0,P|84:60|114:-8,1,144,10|2,2:0|1:2,2:0:0:0:
243,212,257011,6,0,P|150:211|88:362,1,252,6|10,1:2|2:0,2:0:0:0:
374,245,257368,1,0,1:2:0:0:
278,341,257487,1,10,2:0:0:0:
243,212,257606,1,2,1:2:0:0:
443,356,257725,6,0,B|473:274|381:269|422:176,1,189,6|0,1:2|2:0,2:0:0:0:
435,149,257963,2,0,B|450:113|461:85|461:85|451:58|436:21,1,126,10|0,2:0|1:2,2:0:0:0:
322,68,258201,2,0,B|300:49|269:23|269:23|236:26|200:27,1,126,10|2,2:0|1:2,2:0:0:0:
0,135,258439,6,0,B|36:168|65:192|65:192|126:182|280:180,1,252,6|8,1:2|2:0,2:0:0:0:
322,68,258797,1,0,1:2:0:0:
411,323,258916,6,0,B|389:310|389:310|373:193,1,126,10|2,2:0|1:2,2:0:0:0:
476,61,259154,2,0,B|415:11|415:11|428:111|428:111|411:134|411:134|423:220,1,288,6|8,1:2|2:0,2:0:0:0:
504,159,259511,1,0,1:2:0:0:
311,54,259630,2,0,B|293:72|293:72|307:189,1,144,10|2,2:0|1:2,2:0:0:0:
302,381,259868,5,2,1:2:0:0:
411,323,259987,1,0,1:2:0:0:
227,360,260106,5,8,2:0:0:0:
261,295,260225,1,0,1:2:0:0:
147,362,260344,5,10,2:0:0:0:
145,320,260463,1,0,1:2:0:0:
45,308,260582,6,0,P|67:265|98:246,3,67.5,10|8|8|8,2:0|2:0|2:0|2:0,2:0:0:0:
33,177,260820,2,0,P|78:162|114:170,3,58.5,8|8|4|4,2:3|2:3|2:3|2:3,2:0:0:0:
164,87,261058,1,8,2:3:0:0:
108,245,261177,1,4,2:3:0:0:
81,19,261297,5,14,2:0:0:0:
66,42,261416,1,0,1:2:0:0:
197,3,261535,5,8,2:0:0:0:
180,101,261654,1,0,1:2:0:0:
295,0,261773,5,8,2:0:0:0:
306,132,261892,1,0,1:2:0:0:
452,74,262011,6,0,B|376:50|389:138|285:101,1,144,6|0,1:2|2:0,2:0:0:0:
475,184,262368,1,8,2:0:0:0:
475,184,262487,1,2,2:0:0:0:
332,142,262606,1,8,2:0:0:0:
379,266,262725,2,0,P|325:246|303:222,1,72,10|0,2:0|2:0,2:0:0:0:
229,293,262963,2,0,P|204:241|206:208,1,72,10|8,2:0|2:0,2:0:0:0:
143,117,263201,2,0,L|235:126,1,72,10|0,2:0|2:0,2:0:0:0:
61,241,263439,6,0,P|132:233|204:226,1,144,2|0,1:2|2:0,2:0:0:0:
72,57,263797,2,0,B|40:82|2:74|2:74|36:93|43:129,1,144,10|8,2:0|2:0,2:0:0:0:
274,53,264154,2,0,P|205:-4|182:45,1,144,10|8,2:0|2:0,2:0:0:0:
359,108,264511,2,0,P|380:79|377:44,2,72,8|2|0,2:0|2:0|2:0,2:0:0:0:
326,290,264868,6,0,B|354:258|354:258|395:252|453:238,1,144,2|0,1:2|2:0,2:0:0:0:
405,343,265225,1,8,2:0:0:0:
405,343,265344,1,2,2:0:0:0:
397,220,265463,1,8,2:0:0:0:
255,136,265582,6,0,P|272:180|289:232,1,72,10|0,2:0|2:0,2:0:0:0:
124,184,265820,2,0,P|167:203|215:227,1,72,10|8,2:0|2:0,2:0:0:0:
240,358,266058,2,0,P|245:306|228:277,1,72,10|0,2:0|2:0,2:0:0:0:
22,299,266297,6,0,P|68:285|160:334,1,144,2|0,1:2|2:0,2:0:0:0:
57,201,266654,2,0,P|73:143|98:193,1,144,8|8,2:0|2:0,2:0:0:0:
229,12,267011,2,0,B|192:27|166:53|166:53|133:32|94:30,1,144,10|8,2:0|2:0,2:0:0:0:
23,69,267368,1,8,2:0:0:0:
23,69,267487,2,0,P|8:14|-6:-22,1,72,2|0,2:0|2:0,2:0:0:0:
202,163,267725,6,0,P|258:116|350:87,1,144,2|0,1:2|2:0,2:0:0:0:
351,229,268082,2,0,P|320:201|321:236,2,72,8|2|8,2:0|2:0|2:0,2:0:0:0:
474,263,268439,2,0,P|467:200|431:108,1,144,10|10,2:0|2:0,2:0:0:0:
371,12,268797,2,0,P|403:36|449:34,2,72,8|10|0,2:0|2:0|2:0,2:0:0:0:
237,101,269154,6,0,P|267:83|302:72,1,72,2|0,1:2|2:0,2:0:0:0:
506,193,269392,2,0,P|494:153|476:119,1,72,0|8,2:0|2:0,2:0:0:0:
365,223,269630,2,0,P|334:195|335:230,1,72,2|8,2:0|2:0,2:0:0:0:
360,324,269868,2,0,P|288:343|273:274,1,144,10|8,2:0|2:0,2:0:0:0:
210,203,270225,1,8,2:0:0:0:
168,309,270344,2,0,P|138:284|96:289,1,72,2|0,2:0|2:0,2:0:0:0:
25,183,270582,6,0,B|-4:145|-4:145|139:182,1,180,2|0,1:2|2:0,2:0:0:0:
227,208,270939,1,8,2:0:0:0:
143,140,271058,2,0,P|115:173|120:219,1,90,2|8,2:0|2:0,2:0:0:0:
294,128,271297,2,0,B|159:93|159:93|143:55,1,180,10|10,2:0|2:0,2:0:0:0:
390,154,271654,1,8,2:0:0:0:
392,40,271773,2,0,P|424:66|468:61,1,90,10|0,2:0|2:0,2:0:0:0:
294,274,272011,6,0,P|349:238|413:334,1,180,2|0,1:2|2:0,2:0:0:0:
345,360,272368,1,8,2:0:0:0:
345,360,272487,1,2,2:0:0:0:
482,299,272606,1,8,2:0:0:0:
311,287,272725,6,0,P|263:265|212:245,1,90,10|0,2:0|2:0,2:0:0:0:
229,150,272963,2,0,P|179:168|129:190,1,90,0|0,1:2|1:2,2:0:0:0:
145,354,273201,1,8,2:0:0:0:
224,267,273320,1,8,2:0:0:0:
49,295,273439,6,0,B|88:232|6:222|62:125,1,144,6|0,1:2|2:0,2:0:0:0:
0,65,273797,1,8,2:0:0:0:
0,65,273916,1,2,2:0:0:0:
78,0,274035,1,8,2:0:0:0:
133,95,274154,2,0,P|175:74|219:81,1,72,10|0,2:0|2:0,2:0:0:0:
255,0,274392,2,0,P|294:25|310:67,1,72,10|8,2:0|2:0,2:0:0:0:
238,211,274630,2,0,P|250:168|279:121,1,72,10|0,2:0|2:0,2:0:0:0:
448,67,274868,6,0,P|365:55|286:44,1,144,2|0,1:2|2:0,2:0:0:0:
350,176,275225,2,0,B|378:153|378:153|494:171,1,144,10|8,2:0|2:0,2:0:0:0:
486,272,275582,2,0,P|434:310|403:255,1,144,10|8,2:0|2:0,2:0:0:0:
299,291,275939,2,0,P|314:323|323:358,2,72,8|2|0,2:0|2:0|2:0,2:0:0:0:
96,185,276297,6,0,P|169:197|246:212,1,144,2|0,1:2|2:0,2:0:0:0:
200,301,276654,1,8,2:0:0:0:
200,301,276773,1,2,2:0:0:0:
301,274,276892,1,8,2:0:0:0:
323,159,277011,2,0,P|297:134|263:121,1,72,10|0,2:0|2:0,2:0:0:0:
297,37,277249,2,0,P|261:30|226:39,1,72,10|8,2:0|2:0,2:0:0:0:
100,92,277487,6,0,P|141:98|186:107,1,72,10|0,2:0|2:0,2:0:0:0:
438,11,277725,2,0,P|365:23|288:38,1,144,2|0,1:2|2:0,2:0:0:0:
419,149,278082,2,0,B|412:108|412:108|449:103|544:80,1,144,8|8,2:0|2:0,2:0:0:0:
355,294,278439,2,0,B|349:255|349:255|333:239|333:239|320:148,1,144,10|8,2:0|2:0,2:0:0:0:
507,237,278797,1,8,2:0:0:0:
507,237,278916,2,0,P|471:232|439:246,1,72,2|0,2:0|2:0,2:0:0:0:
277,380,279154,6,0,P|264:329|183:256,1,144,2|0,1:2|2:0,2:0:0:0:
136,333,279511,2,0,L|66:346,2,72,8|2|8,2:0|2:0|2:0,2:0:0:0:
109,241,279868,2,0,P|131:173|184:126,1,144,10|10,2:0|2:0,2:0:0:0:
120,49,280225,2,0,L|49:61,2,72,8|10|0,2:0|2:0|2:0,2:0:0:0:
223,41,280582,2,0,P|252:61|269:92,1,72,2|0,1:2|2:0,2:0:0:0:
372,62,280820,2,0,P|378:97|368:131,1,72,0|8,2:0|2:0,2:0:0:0:
234,196,281058,2,0,P|268:201|304:208,1,72,2|8,2:0|2:0,2:0:0:0:
496,250,281297,6,0,P|449:229|387:287,1,144,10|8,2:0|2:0,2:0:0:0:
472,336,281654,1,8,2:0:0:0:
381,377,281773,2,0,P|346:370|311:365,1,72,2|0,2:0|2:0,2:0:0:0:
78,290,282011,6,0,B|133:271|133:271|204:298|204:298|248:287,1,180,2|0,1:2|2:0,2:0:0:0:
129,362,282368,1,8,2:0:0:0:
105,196,282487,2,0,L|-12:233,1,90,2|8,2:0|2:0,2:0:0:0:
253,125,282725,2,0,B|269:117|278:96|270:83|234:79|214:86|199:100|192:130|200:155|210:178|213:184|230:210,1,180,10|10,2:0|2:0,2:0:0:0:
326,194,283082,1,8,2:0:0:0:
361,60,283201,2,0,P|307:9|265:2,1,90,10|0,2:0|2:0,2:0:0:0:
512,103,283439,6,0,P|446:111|461:223,1,180,2|0,1:2|2:0,2:0:0:0:
492,292,283797,1,8,2:0:0:0:
492,292,283916,1,2,2:0:0:0:
406,362,284035,1,8,2:0:0:0:
290,306,284154,2,0,P|349:282|403:274,1,90,10|0,2:0|2:0,2:0:0:0:
182,309,284392,2,0,P|206:250|239:206,1,90,0|0,1:2|1:2,2:0:0:0:
269,138,284630,1,8,2:0:0:0:
229,54,284749,1,8,2:0:0:0:
256,192,285701,5,0,1:2:0:0:
256,192,285761,1,0,1:2:0:0:
256,192,285820,1,0,1:2:0:0:
77,290,285939,1,4,1:2:0:0:
256,192,285999,12,0,294749,2:0:0:0:
