osu file format v14

[General]
AudioFilename: audio.mp3
AudioLeadIn: 0
PreviewTime: 161783
Countdown: 0
SampleSet: Soft
StackLeniency: 0.5
Mode: 0
LetterboxInBreaks: 0
EpilepsyWarning: 1
WidescreenStoryboard: 1

[Editor]
Bookmarks: 12968,101061,107489,184868
DistanceSpacing: 1.2
BeatDivisor: 4
GridSize: 8
TimelineZoom: 1.98

[Metadata]
Title:Oxalis
TitleUnicode:Oxalis
Artist:Wolpis Kater
ArtistUnicode:ウォルピスカーター
Creator:Tocorn
Version:Collab Expert
Source:
Tags:Carter SILVANA 西坂恭平 Hatsune Miku 初音ミク vocaloid Nishizaka Cover Japanese Rock ウォルピス社 j-rock jrock utaite 音坂 キョーヘイ Kyohei Kyouhei Taeyang Kyrian SirAeon Kaguya_Sama CutoNaito Houtaro Kyutei Anya Melfissa Anya_Melfissa Banter Nagaraia Himada
BeatmapID:2893406
BeatmapSetID:1347859

[Difficulty]
HPDrainRate:6
CircleSize:3.7
OverallDifficulty:8.6
ApproachRate:9.2
SliderMultiplier:1.62
SliderTickRate:1

[Events]
//Background and Video events
0,0,"BG.jpg",0,0
//Break Periods
2,101975,106775
2,185068,189868
2,226497,236917
//Storyboard Layer 0 (Background)
//Storyboard Layer 1 (Fail)
//Storyboard Layer 2 (Pass)
//Storyboard Layer 3 (Foreground)
//Storyboard Layer 4 (Overlay)
//Storyboard Sound Samples

[TimingPoints]
1540,238.095238095238,3,2,2,60,1,0
1778,-100,3,2,2,40,0,0
1897,-108.695652173913,3,2,1,40,0,0
2254,-138.888888888889,3,2,2,60,0,0
2492,-138.888888888889,3,2,2,40,0,0
2730,-138.888888888889,3,2,2,60,0,0
3325,-108.695652173913,3,2,1,40,0,0
3682,-138.888888888889,3,2,2,60,0,0
3920,-138.888888888889,3,2,2,40,0,0
4159,-138.888888888889,3,2,2,60,0,0
4754,-108.695652173913,3,2,1,40,0,0
5111,-138.888888888889,3,2,2,60,0,0
5349,-138.888888888889,3,2,2,40,0,0
5587,-138.888888888889,3,2,2,60,0,0
5825,-108.695652173913,3,2,2,60,0,0
6182,-138.888888888889,3,2,1,40,0,0
6540,-138.888888888889,3,2,2,60,0,0
6778,-138.888888888889,3,2,2,40,0,0
7016,-138.888888888889,3,2,2,60,0,0
7254,-89.2857142857144,3,2,1,60,0,0
7611,-81.9672131147541,3,2,1,60,0,0
7968,-108.695652173913,3,2,5,60,0,0
8444,-138.888888888889,3,2,5,60,0,0
8682,-89.2857142857143,3,2,5,60,0,0
9040,-81.9672131147541,3,2,5,60,0,0
9397,-108.695652173913,3,2,5,60,0,0
9873,-138.888888888889,3,2,5,60,0,0
10111,-89.2857142857143,3,2,5,60,0,0
10468,-81.9672131147541,3,2,5,60,0,0
10825,-108.695652173913,3,2,5,60,0,0
11301,-138.888888888889,3,2,5,60,0,0
11540,-138.888888888889,3,2,5,65,0,0
12135,-138.888888888889,3,2,5,55,0,0
12254,-89.2857142857143,3,2,16,65,0,0
12492,-89.2857142857143,3,2,3,65,0,0
12968,-121.951219512195,3,2,17,75,0,0
13206,-121.951219512195,3,2,3,75,0,0
13325,-98.0392156862745,3,2,3,75,0,0
14397,-121.951219512195,3,2,3,75,0,0
14754,-98.0392156862745,3,2,3,75,0,0
15111,-89.2857142857143,3,2,3,75,0,0
15825,-121.951219512195,3,2,3,75,0,0
16182,-98.0392156862745,3,2,3,75,0,0
17254,-121.951219512195,3,2,3,75,0,0
17968,-70.4225352112676,3,2,3,75,0,0
18146,-70.4225352112676,3,2,3,5,0,0
18206,-70.4225352112676,3,2,3,70,0,0
18325,-70.4225352112676,3,2,4,65,0,0
18444,-83.3333333333333,3,2,1,70,0,0
18563,-83.3333333333333,3,2,1,65,0,0
18682,-76.8049155145929,3,2,1,75,0,0
18920,-76.8049155145929,3,2,3,75,0,0
19397,-76.8049155145929,3,2,7,75,0,0
19635,-76.8049155145929,3,2,3,75,0,0
20825,-76.8049155145929,3,2,7,75,0,0
21063,-76.8049155145929,3,2,3,75,0,0
22968,-108.695652173913,3,2,4,70,0,0
23206,-108.695652173913,3,2,1,70,0,0
23444,-108.695652173913,3,2,2,65,0,0
23682,-108.695652173913,3,2,3,75,0,0
24397,-121.951219512195,3,2,6,75,0,0
24635,-121.951219512195,3,2,3,75,0,0
24754,-98.0392156862745,3,2,3,75,0,0
25825,-121.951219512195,3,2,3,75,0,0
26182,-98.0392156862745,3,2,3,75,0,0
26540,-89.2857142857143,3,2,3,75,0,0
27254,-121.951219512195,3,2,3,75,0,0
27611,-98.0392156862745,3,2,3,75,0,0
28682,-121.951219512195,3,2,3,75,0,0
29397,-70.4225352112676,3,2,3,75,0,0
29575,-70.4225352112676,3,2,3,5,0,0
29635,-70.4225352112676,3,2,3,70,0,0
29754,-70.4225352112676,3,2,4,65,0,0
29873,-83.3333333333333,3,2,1,70,0,0
29992,-83.3333333333333,3,2,1,65,0,0
30111,-76.8049155145929,3,2,1,75,0,0
30349,-76.8049155145929,3,2,3,75,0,0
30825,-76.8049155145929,3,2,7,75,0,0
31063,-76.8049155145929,3,2,3,75,0,0
32254,-76.8049155145929,3,2,7,75,0,0
32492,-76.8049155145929,3,2,3,75,0,0
34397,-108.695652173913,3,2,4,70,0,0
34635,-108.695652173913,3,2,1,70,0,0
34873,-108.695652173913,3,2,2,65,0,0
35111,-108.695652173913,3,2,3,75,0,0
35825,-108.695652173913,3,2,3,50,0,0
36540,-108.695652173913,3,2,3,40,0,0
41420,-108.695652173913,3,2,8,30,0,0
41479,-108.695652173913,3,2,8,5,0,0
41539,-108.695652173913,3,2,8,40,0,0
41778,-161.290322580645,3,2,8,40,0,0
42254,-121.951219512195,3,2,8,40,0,0
42968,-161.290322580645,3,2,8,40,0,0
43384,-161.290322580645,3,2,8,5,0,0
43444,-161.290322580645,3,2,8,40,0,0
44159,-161.290322580645,3,2,8,20,0,0
44397,-98.0392156862744,3,2,8,40,0,0
45468,-161.290322580645,3,2,8,40,0,0
45825,-121.951219512195,3,2,5,50,0,0
46540,-81.967213114754,3,2,5,60,0,0
46659,-81.967213114754,3,2,5,40,0,0
47016,-81.967213114754,3,2,5,50,0,0
47254,-121.951219512195,3,2,4,60,0,0
47432,-121.951219512195,3,2,4,5,0,0
47492,-121.951219512195,3,2,4,60,0,0
47968,-98.0392156862744,3,2,4,60,0,0
48444,-98.0392156862744,3,2,3,60,0,0
48622,-98.0392156862744,3,2,3,5,0,0
48682,-121.951219512195,3,2,3,60,0,0
48920,-98.0392156862745,3,2,4,60,0,0
49873,-98.0392156862745,3,2,3,60,0,0
50349,-98.0392156862745,3,2,4,60,0,0
50587,-121.951219512195,3,2,4,60,0,0
50825,-98.0392156862745,3,2,4,60,0,0
51301,-121.951219512195,3,2,3,60,0,0
51540,-98.0392156862744,3,2,3,60,0,0
51778,-98.0392156862744,3,2,4,60,0,0
52016,-121.951219512195,3,2,4,60,0,0
52730,-121.951219512195,3,2,1,55,0,0
52968,-98.0392156862745,3,2,1,60,0,0
53146,-98.0392156862745,3,2,1,5,0,0
53206,-98.0392156862745,3,2,4,60,0,0
54159,-81.9672131147541,3,2,3,60,0,0
54337,-81.9672131147541,3,2,3,5,0,0
54397,-98.0392156862745,3,2,3,60,0,0
54635,-98.0392156862745,3,2,4,60,0,0
55587,-98.0392156862745,3,2,3,60,0,0
55825,-81.9672131147541,3,2,3,60,0,0
56003,-81.9672131147541,3,2,3,5,0,0
56063,-121.951219512195,3,2,4,60,0,0
56540,-98.0392156862744,3,2,4,60,0,0
57016,-98.0392156862744,3,2,3,60,0,0
57254,-98.0392156862744,3,2,4,70,0,0
57611,-98.0392156862744,3,2,7,70,0,0
57730,-121.951219512195,3,2,7,70,0,0
58206,-121.951219512195,3,2,1,65,0,0
58682,238.095238095238,5,2,1,60,1,0
58920,-121.951219512195,5,2,1,60,0,0
59039,-121.951219512195,5,2,9,60,0,0
59396,-98.0392156862744,5,2,9,60,0,0
60348,-121.951219512195,5,2,9,60,0,0
60586,-98.0392156862745,5,2,9,60,0,0
62848,-98.0392156862745,5,2,9,40,0,0
62967,-98.0392156862745,5,2,9,60,0,0
63682,-121.951219512195,5,2,9,60,0,0
64158,-98.0392156862745,5,2,9,60,0,0
65229,-98.0392156862745,5,2,9,40,0,0
65348,-98.0392156862745,5,2,9,60,0,0
66420,-98.0392156862745,5,2,9,40,0,0
66539,-98.0392156862745,5,2,9,60,0,0
67015,238.095238095238,3,2,4,70,1,0
67015,-121.951219512195,3,2,4,70,0,0
67312,-121.951219512195,3,2,4,5,0,0
67372,-98.0392156862745,3,2,7,70,0,0
67729,-98.0392156862745,3,2,4,70,0,0
67788,-98.0392156862745,3,2,4,60,0,0
67967,-98.0392156862745,3,2,1,65,0,0
68205,-98.0392156862745,3,2,2,60,0,0
68443,238.095238095238,5,2,1,60,1,0
68681,-121.951219512195,5,2,1,60,0,0
69038,-121.951219512195,5,2,1,40,0,0
69157,-98.0392156862744,5,2,1,60,0,0
69395,-98.0392156862744,5,2,9,60,0,0
70109,-121.951219512195,5,2,9,60,0,0
70228,-121.951219512195,5,2,9,40,0,0
70347,-98.0392156862745,5,2,9,60,0,0
71419,-98.0392156862745,5,2,9,40,0,0
71538,-98.0392156862745,5,2,9,60,0,0
72847,-98.0392156862745,5,2,1,55,0,0
73085,-98.0392156862745,5,2,9,60,0,0
73204,238.095238095238,3,2,10,50,1,0
73204,-161.290322580645,3,2,10,50,0,0
75346,-161.290322580645,3,2,3,60,0,0
75584,-161.290322580645,3,2,4,50,0,0
75822,-161.290322580645,3,2,1,50,0,0
76061,-161.290322580645,3,2,4,70,0,0
76418,-121.951219512195,3,2,7,70,0,0
76775,-121.951219512195,3,2,4,70,0,0
77013,-121.951219512195,3,2,7,70,0,0
77251,-121.951219512195,3,2,4,70,0,0
77489,-161.290322580645,3,2,4,40,0,0
77846,-161.290322580645,3,2,4,50,0,0
78204,-161.290322580645,3,2,15,60,0,0
78918,-98.0392156862745,3,2,6,75,0,1
79156,-98.0392156862745,3,2,3,75,0,1
89275,-98.0392156862745,3,2,7,75,0,1
89632,-98.0392156862745,3,2,7,70,0,1
89870,-98.0392156862745,3,2,1,65,0,1
90108,-98.0392156862745,3,2,4,70,0,1
90346,-121.951219512195,3,2,6,75,0,1
90584,-121.951219512195,3,2,3,75,0,1
96061,-121.951219512195,3,2,5,70,0,0
98204,-121.951219512195,3,2,4,80,0,0
98918,-121.951219512195,3,2,4,75,0,1
99156,-121.951219512195,3,2,3,75,0,1
100405,-121.951219512195,3,2,4,75,0,1
100584,-121.951219512195,3,2,1,70,0,1
100823,-121.951219512195,3,2,2,65,0,1
101061,-121.951219512195,3,2,3,70,0,0
101775,-121.951219512195,3,2,3,60,0,0
107489,-121.951219512195,3,2,6,75,0,0
107727,-121.951219512195,3,2,3,75,0,0
107846,-98.0392156862745,3,2,3,75,0,0
108918,-121.951219512195,3,2,3,75,0,0
109275,-98.0392156862745,3,2,3,75,0,0
109632,-89.2857142857143,3,2,3,75,0,0
110346,-121.951219512195,3,2,3,75,0,0
110704,-98.0392156862744,3,2,3,75,0,0
111775,-121.951219512195,3,2,3,75,0,0
112489,-70.4225352112676,3,2,3,75,0,0
112667,-70.4225352112676,3,2,3,5,0,0
112727,-70.4225352112676,3,2,3,70,0,0
112846,-70.4225352112676,3,2,4,65,0,0
112965,-70.4225352112676,3,2,1,70,0,0
113084,-70.4225352112676,3,2,1,65,0,0
113204,-76.9230769230769,3,2,1,75,0,0
113442,-76.9230769230769,3,2,3,75,0,0
113918,-76.9230769230769,3,2,7,75,0,0
114156,-76.9230769230769,3,2,3,75,0,0
115346,-76.9230769230769,3,2,7,75,0,0
115584,-76.9230769230769,3,2,3,75,0,0
117489,-108.695652173913,3,2,4,70,0,0
117727,-108.695652173913,3,2,1,70,0,0
117965,-108.695652173913,3,2,2,65,0,0
118204,-108.695652173913,3,2,3,75,0,0
118918,-121.951219512195,3,2,6,75,0,0
119156,-121.951219512195,3,2,3,75,0,0
119275,-98.0392156862744,3,2,3,75,0,0
120346,-121.951219512195,3,2,3,75,0,0
120704,-98.0392156862745,3,2,3,75,0,0
121061,-89.2857142857143,3,2,3,75,0,0
121775,-121.951219512195,3,2,3,75,0,0
122132,-98.0392156862744,3,2,3,75,0,0
123204,-121.951219512195,3,2,3,75,0,0
123918,-70.4225352112676,3,2,3,75,0,0
124096,-70.4225352112676,3,2,3,5,0,0
124156,-70.4225352112676,3,2,3,70,0,0
124275,-70.4225352112676,3,2,4,65,0,0
124394,-70.4225352112676,3,2,1,70,0,0
124513,-70.4225352112676,3,2,1,65,0,0
124632,-76.9230769230769,3,2,1,75,0,0
124870,-76.9230769230769,3,2,3,75,0,0
125346,-76.9230769230769,3,2,7,75,0,0
125584,-76.9230769230769,3,2,3,75,0,0
126775,-76.9230769230769,3,2,7,75,0,0
127013,-76.9230769230769,3,2,3,75,0,0
128918,-108.695652173913,3,2,4,70,0,0
129156,-108.695652173913,3,2,1,70,0,0
129394,-108.695652173913,3,2,2,65,0,0
129632,-108.695652173913,3,2,3,75,0,0
130346,-108.695652173913,3,2,3,60,0,0
130584,-98.0392156862745,3,2,4,60,0,0
131537,-98.0392156862745,3,2,3,60,0,0
132013,-98.0392156862745,3,2,4,60,0,0
132965,-98.0392156862745,3,2,3,60,0,0
133442,-98.0392156862745,3,2,4,60,0,0
134394,-98.0392156862745,3,2,3,60,0,0
134870,-98.0392156862745,3,2,4,60,0,0
135346,-98.0392156862744,3,2,4,60,0,0
135584,-98.0392156862744,3,2,4,65,0,0
135823,-98.0392156862744,3,2,1,60,0,0
136299,-98.0392156862744,3,2,4,60,0,0
137251,-98.0392156862744,3,2,3,60,0,0
137429,-98.0392156862744,3,2,3,5,0,0
137489,-98.0392156862744,3,2,3,60,0,0
137727,-98.0392156862744,3,2,4,60,0,0
138680,-98.0392156862744,3,2,3,60,0,0
139156,-98.0392156862744,3,2,4,60,0,0
140108,-98.0392156862744,3,2,3,60,0,0
140346,-98.0392156862744,3,2,4,70,0,0
140704,-98.0392156862744,3,2,7,70,0,0
141299,-98.0392156862744,3,2,1,65,0,0
141775,238.095238095238,5,2,1,60,1,0
142013,-138.888888888889,5,2,1,60,0,0
142489,-138.888888888889,5,2,5,60,0,0
143619,-138.888888888889,5,2,5,5,0,0
143679,-138.888888888889,5,2,5,60,0,0
148381,-138.888888888889,5,2,5,5,0,0
148441,-138.888888888889,5,2,5,60,0,0
150108,238.095238095238,3,2,5,50,1,0
150108,-121.951219512195,3,2,5,50,0,0
150405,-121.951219512195,3,2,5,5,0,0
150465,-98.0392156862746,3,2,5,50,0,0
150822,-98.0392156862746,3,2,4,70,0,0
151060,-98.0392156862745,3,2,1,65,0,0
151298,-98.0392156862745,3,2,2,60,0,0
151536,238.095238095238,5,2,1,60,1,0
151774,-98.0392156862745,5,2,1,60,0,0
152131,-98.0392156862745,5,2,1,40,0,0
152250,-98.0392156862745,5,2,1,60,0,0
152488,-98.0392156862745,5,2,9,60,0,0
153321,-98.0392156862745,5,2,9,40,0,0
153440,-98.0392156862745,5,2,9,60,0,0
154512,-98.0392156862745,5,2,9,40,0,0
154631,-98.0392156862745,5,2,9,60,0,0
155940,-98.0392156862745,5,2,1,55,0,0
156178,-98.0392156862745,5,2,9,60,0,0
156297,238.095238095238,3,2,10,50,1,0
156297,-161.290322580645,3,2,10,50,0,0
158439,-98.0392156862745,3,2,3,60,0,0
158677,-98.0392156862744,3,2,4,50,0,0
158916,-98.0392156862744,3,2,1,50,0,0
159154,-98.0392156862744,3,2,4,70,0,0
159511,-89.2857142857143,3,2,7,70,0,0
159868,-89.2857142857143,3,2,4,70,0,0
160106,-89.2857142857143,3,2,7,70,0,0
160344,-89.2857142857143,3,2,4,70,0,0
160582,-161.290322580645,3,2,4,40,0,0
161297,-161.290322580645,3,2,12,60,0,0
162011,-98.0392156862745,3,2,6,75,0,1
162249,-98.0392156862745,3,2,3,75,0,1
172368,-98.0392156862745,3,2,7,75,0,1
172725,-98.0392156862745,3,2,7,70,0,1
172963,-98.0392156862745,3,2,1,65,0,1
173201,-98.0392156862745,3,2,4,70,0,1
173439,-98.0392156862745,3,2,6,75,0,1
173677,-98.0392156862745,3,2,3,75,0,1
177725,-121.951219512195,3,2,3,75,0,1
179154,-121.951219512195,3,2,5,70,0,0
181297,-98.0392156862745,3,2,4,80,0,0
182011,-121.951219512195,3,2,4,75,0,1
182249,-121.951219512195,3,2,3,75,0,1
182725,-108.695652173913,3,2,3,75,0,1
182963,-98.0392156862745,3,2,3,75,0,1
183201,-89.2857142857143,3,2,3,75,0,1
183499,-89.2857142857143,3,2,4,80,0,1
183677,-98.0392156862745,3,2,1,70,0,1
183916,-98.0392156862745,3,2,2,65,0,1
184154,-98.0392156862745,3,2,3,75,0,1
184868,-98.0392156862745,3,2,3,60,0,0
190582,-138.888888888889,3,2,3,50,0,0
190760,-138.888888888889,3,2,3,5,0,0
190820,-138.888888888889,3,2,3,50,0,0
190939,-138.888888888889,3,2,5,50,0,0
193201,-138.888888888889,3,2,10,50,0,0
193439,-138.888888888889,3,2,5,50,0,0
196058,-138.888888888889,3,2,10,50,0,0
196297,-138.888888888889,3,2,1,60,0,0
196654,-138.888888888889,3,2,5,60,0,0
198916,-138.888888888889,3,2,10,60,0,0
199154,-138.888888888889,3,2,5,60,0,0
199392,-133.333333333333,3,2,5,60,0,0
200046,-133.333333333333,3,2,5,5,0,0
200106,-133.333333333333,3,2,5,60,0,0
200344,-133.333333333333,3,2,10,60,0,0
200582,-133.333333333333,3,2,5,60,0,0
201297,-133.333333333333,3,2,4,60,0,0
201535,-133.333333333333,3,2,1,55,0,0
201773,-133.333333333333,3,2,1,50,0,0
202011,-114.942528735632,3,2,1,65,0,0
202427,-114.942528735632,3,2,1,5,0,0
202487,-114.942528735632,3,2,1,65,0,0
202725,-114.942528735632,3,2,4,65,0,0
203141,-114.942528735632,3,2,4,5,0,0
203201,-114.942528735632,3,2,4,65,0,0
203855,-114.942528735632,3,2,4,5,0,0
203916,-114.942528735632,3,2,4,65,0,0
204570,-114.942528735632,3,2,4,5,0,0
204630,-114.942528735632,3,2,4,65,0,0
205284,-114.942528735632,3,2,4,5,0,0
205344,-114.942528735632,3,2,4,65,0,0
205998,-114.942528735632,3,2,4,5,0,0
206058,-114.942528735632,3,2,4,65,0,0
206713,-114.942528735632,3,2,4,5,0,0
206773,-114.942528735632,3,2,4,65,0,0
207189,-114.942528735632,3,2,4,5,0,0
207249,-114.942528735632,3,2,4,65,0,0
207487,-114.942528735632,3,2,1,60,0,0
207725,-114.942528735632,3,2,1,65,0,0
208141,-114.942528735632,3,2,1,5,0,0
208201,-114.942528735632,3,2,1,65,0,0
208439,-114.942528735632,3,2,4,65,0,0
208855,-114.942528735632,3,2,4,5,0,0
208916,-114.942528735632,3,2,4,65,0,0
209570,-114.942528735632,3,2,4,5,0,0
209630,-114.942528735632,3,2,4,65,0,0
210284,-114.942528735632,3,2,4,5,0,0
210344,-114.942528735632,3,2,4,65,0,0
210582,-114.942528735632,3,2,4,70,0,0
210939,-114.942528735632,3,2,4,65,0,0
210998,-114.942528735632,3,2,4,5,0,0
211058,-114.942528735632,3,2,4,65,0,0
211297,-114.942528735632,3,2,7,70,0,0
211653,-114.942528735632,3,2,7,65,0,0
211713,-114.942528735632,3,2,7,5,0,0
211773,-114.942528735632,3,2,7,65,0,0
212011,-114.942528735632,3,2,7,70,0,0
212368,-114.942528735632,3,2,7,65,0,0
212427,-114.942528735632,3,2,7,5,0,0
212487,-114.942528735632,3,2,7,65,0,0
212963,-114.942528735632,3,2,1,60,0,0
213201,-114.942528735632,3,2,2,55,0,0
213439,-114.942528735632,3,2,4,65,0,0
213855,-114.942528735632,3,2,4,5,0,0
213916,-114.942528735632,3,2,4,65,0,0
214570,-114.942528735632,3,2,4,5,0,0
214630,-114.942528735632,3,2,4,65,0,0
215284,-114.942528735632,3,2,4,5,0,0
215344,-114.942528735632,3,2,4,65,0,0
215998,-114.942528735632,3,2,4,5,0,0
216058,-114.942528735632,3,2,4,65,0,0
216713,-114.942528735632,3,2,4,5,0,0
216773,-114.942528735632,3,2,4,65,0,0
217427,-114.942528735632,3,2,4,5,0,0
217487,-114.942528735632,3,2,4,65,0,0
218141,-114.942528735632,3,2,4,5,0,0
218201,-114.942528735632,3,2,4,65,0,0
218617,-114.942528735632,3,2,4,5,0,0
218677,-114.942528735632,3,2,4,65,0,0
218916,-114.942528735632,3,2,1,60,0,0
219154,-114.942528735632,3,2,1,65,0,0
219570,-114.942528735632,3,2,1,5,0,0
219630,-114.942528735632,3,2,1,65,0,0
219868,-114.942528735632,3,2,4,65,0,0
220284,-114.942528735632,3,2,4,5,0,0
220344,-114.942528735632,3,2,4,65,0,0
220998,-114.942528735632,3,2,4,5,0,0
221058,-114.942528735632,3,2,4,65,0,0
221713,-114.942528735632,3,2,4,5,0,0
221773,-114.942528735632,3,2,4,65,0,0
222011,-114.942528735632,3,2,3,80,0,0
223439,-114.942528735632,3,2,4,80,0,0
223797,-114.942528735632,3,2,7,80,0,0
224154,-114.942528735632,3,2,4,80,0,0
224868,-149.253731343284,3,2,4,40,0,0
225582,-149.253731343284,3,2,15,60,0,0
226297,-149.253731343284,3,2,13,60,0,0
237725,-98.0392156862745,3,2,6,75,0,1
237963,-98.0392156862745,3,2,3,75,0,1
240939,-100,3,2,3,75,0,1
242785,-100,3,2,4,75,0,1
242963,-100,3,2,1,70,0,1
243201,-100,3,2,2,65,0,1
243439,-100,3,2,5,70,0,0
245582,-89.2857142857143,3,2,4,80,0,1
246297,-89.2857142857143,3,2,4,75,0,1
246535,-89.2857142857143,3,2,3,75,0,1
247725,-100,3,2,3,75,0,1
247784,-100,3,2,4,80,0,1
247963,-100,3,2,1,70,0,1
248201,-100,3,2,2,65,0,1
248439,-100,3,2,3,75,0,1
249868,-100,3,2,3,60,0,1
250523,-100,3,2,3,5,0,1
250582,-121.951219512195,3,2,6,75,0,0
250820,-121.951219512195,3,2,3,75,0,0
250939,-98.0392156862745,3,2,3,75,0,0
252011,-121.951219512195,3,2,3,75,0,0
252368,-98.0392156862745,3,2,3,75,0,0
252725,-89.2857142857143,3,2,3,75,0,0
253439,-121.951219512195,3,2,3,75,0,0
253797,-98.0392156862745,3,2,3,75,0,0
254868,-121.951219512195,3,2,3,75,0,0
255582,-70.4225352112676,3,2,3,75,0,0
255760,-70.4225352112676,3,2,3,5,0,0
255820,-70.4225352112676,3,2,3,70,0,0
255939,-70.4225352112676,3,2,4,65,0,0
256058,-70.4225352112676,3,2,1,70,0,0
256177,-70.4225352112676,3,2,1,65,0,0
256297,-76.9230769230769,3,2,1,75,0,0
256535,-76.9230769230769,3,2,3,75,0,0
257011,-76.9230769230769,3,2,7,75,0,0
257249,-76.9230769230769,3,2,3,75,0,0
257963,-100,3,2,3,75,0,0
258439,-100,3,2,7,75,0,0
258677,-100,3,2,3,75,0,0
259154,-76.9230769230769,3,2,3,75,0,0
260582,-108.695652173913,3,2,4,70,0,0
260820,-108.695652173913,3,2,1,70,0,0
261058,-108.695652173913,3,2,2,65,0,0
261297,-108.695652173913,3,2,3,75,0,0
262011,-108.695652173913,3,2,14,60,0,0
262368,-108.695652173913,3,2,1,50,0,0
262487,-161.290322580645,3,2,1,50,0,0
262606,-161.290322580645,3,2,2,55,0,0
262725,-138.888888888889,3,2,2,55,0,0
262963,-121.951219512195,3,2,1,50,0,0
263201,-121.951219512195,3,2,2,55,0,0
263439,-81.9672131147541,3,2,1,55,0,0
263797,-98.0392156862745,3,2,1,50,0,0
264035,-98.0392156862745,3,2,2,55,0,0
264154,-121.951219512195,3,2,2,55,0,0
264392,-121.951219512195,3,2,1,50,0,0
264630,-121.951219512195,3,2,10,50,0,0
264868,-121.951219512195,3,2,14,60,0,0
265225,-121.951219512195,3,2,1,50,0,0
265344,-161.290322580645,3,2,1,50,0,0
265463,-161.290322580645,3,2,2,55,0,0
265582,-138.888888888889,3,2,2,55,0,0
265820,-121.951219512195,3,2,1,50,0,0
266058,-121.951219512195,3,2,2,55,0,0
266297,-81.9672131147542,3,2,1,55,0,0
266654,-98.0392156862745,3,2,1,50,0,0
266892,-98.0392156862745,3,2,2,55,0,0
267011,-121.951219512195,3,2,2,55,0,0
267249,-121.951219512195,3,2,1,50,0,0
267487,-121.951219512195,3,2,10,50,0,0
267725,-98.0392156862745,3,2,14,60,0,0
268082,-121.951219512195,3,2,1,50,0,0
268320,-121.951219512195,3,2,2,55,0,0
268439,-98.0392156862745,3,2,2,55,0,0
268677,-98.0392156862745,3,2,1,50,0,0
268797,-121.951219512195,3,2,1,50,0,0
268916,-121.951219512195,3,2,2,55,0,0
269154,-161.290322580645,3,2,1,55,0,0
269392,-121.951219512195,3,2,1,55,0,0
269511,-121.951219512195,3,2,1,50,0,0
269749,-121.951219512195,3,2,2,55,0,0
269868,-98.0392156862744,3,2,2,55,0,0
270106,-98.0392156862744,3,2,1,50,0,0
270344,-121.951219512195,3,2,10,50,0,0
270582,-98.0392156862745,3,2,14,60,0,0
270939,-121.951219512195,3,2,1,50,0,0
271177,-121.951219512195,3,2,2,55,0,0
271297,-98.0392156862745,3,2,2,55,0,0
271535,-98.0392156862745,3,2,1,50,0,0
271654,-121.951219512195,3,2,1,50,0,0
271773,-121.951219512195,3,2,2,55,0,0
272011,-98.0392156862745,3,2,1,55,0,0
272368,-121.951219512195,3,2,1,50,0,0
272606,-121.951219512195,3,2,2,55,0,0
272963,-121.951219512195,3,2,1,55,0,0
273201,-121.951219512195,3,2,4,60,0,0
273439,-121.951219512195,3,2,14,60,0,0
273797,-121.951219512195,3,2,1,50,0,0
273916,-192.307692307692,3,2,1,50,0,0
274035,-192.307692307692,3,2,2,55,0,0
274154,-161.290322580645,3,2,2,55,0,0
274392,-138.888888888889,3,2,1,50,0,0
274630,-138.888888888889,3,2,2,55,0,0
274868,-121.951219512195,3,2,1,55,0,0
275225,-161.290322580645,3,2,1,50,0,0
275463,-161.290322580645,3,2,2,55,0,0
275582,-238.095238095238,3,2,2,55,0,0
275820,-238.095238095238,3,2,1,50,0,0
275939,-312.5,3,2,1,50,0,0
276058,-312.5,3,2,10,50,0,0
276297,-312.5,3,2,14,60,0,0
276654,-312.5,3,2,1,50,0,0
276773,-192.307692307692,3,2,1,50,0,0
276892,-192.307692307692,3,2,2,55,0,0
277011,-161.290322580645,3,2,2,55,0,0
277249,-138.888888888889,3,2,1,50,0,0
277487,-138.888888888889,3,2,2,55,0,0
277725,-121.951219512195,3,2,1,55,0,0
278082,-161.290322580645,3,2,1,50,0,0
278320,-161.290322580645,3,2,2,55,0,0
278439,-238.095238095238,3,2,2,55,0,0
278677,-238.095238095238,3,2,1,50,0,0
278797,-312.499999999999,3,2,1,50,0,0
278916,-312.499999999999,3,2,10,50,0,0
279154,-121.951219512195,3,2,14,60,0,0
279511,-161.290322580645,3,2,1,50,0,0
279749,-161.290322580645,3,2,2,55,0,0
279868,-121.951219512195,3,2,2,55,0,0
280106,-121.951219512195,3,2,1,50,0,0
280225,-161.290322580645,3,2,1,50,0,0
280344,-161.290322580645,3,2,2,55,0,0
280582,-138.888888888889,3,2,1,55,0,0
280820,-121.951219512195,3,2,1,55,0,0
280939,-121.951219512195,3,2,1,50,0,0
281058,-108.695652173913,3,2,1,50,0,0
281177,-108.695652173913,3,2,2,55,0,0
281297,-121.951219512195,3,2,2,55,0,0
281535,-121.951219512195,3,2,1,50,0,0
281773,-161.290322580645,3,2,10,50,0,0
282011,-108.695652173913,3,2,14,60,0,0
282368,-161.290322580645,3,2,1,50,0,0
282606,-161.290322580645,3,2,2,55,0,0
282725,-108.695652173913,3,2,2,55,0,0
282963,-108.695652173913,3,2,1,50,0,0
283082,-161.290322580645,3,2,1,50,0,0
283201,-161.290322580645,3,2,2,55,0,0
283439,-108.695652173913,3,2,1,55,0,0
283797,-161.290322580645,3,2,1,50,0,0
284035,-161.290322580645,3,2,2,55,0,0
284154,-138.888888888889,3,2,2,55,0,0
284392,-138.888888888889,3,2,1,55,0,0
284630,-138.888888888889,3,2,4,60,0,0
284749,-138.888888888889,3,2,4,65,0,0
285701,-138.888888888889,3,2,4,50,0,0
285939,-138.888888888889,3,2,4,70,0,0
292725,-138.888888888889,3,2,4,60,0,0
293439,-138.888888888889,3,2,4,50,0,0
294154,-138.888888888889,3,2,4,40,0,0
294749,-138.888888888889,3,2,18,60,0,0

[Colours]
Combo1 : 129,131,131
Combo2 : 221,0,0
Combo3 : 250,194,67
Combo4 : 214,22,104
Combo5 : 0,119,176

[HitObjects]
358,152,1540,6,0,P|345:101|336:71,1,81,10|0,1:2|2:0,2:0:0:0:
398,21,1778,1,0,2:0:0:0:
468,239,1897,2,0,B|415:229|415:229|385:248|385:248|316:237,1,149.04,10|2,2:0|3:2,2:0:0:0:
209,208,2254,2,0,P|216:251|221:280,2,58.32,10|0|0,2:0|2:0|1:2,2:0:0:0:
138,250,2611,1,0,2:0:0:0:
38,155,2730,2,0,P|42:126|47:97,1,58.32,10|0,2:0|2:0,2:0:0:0:
167,25,2968,6,0,P|177:65|184:89,1,58.32,10|0,1:2|2:0,2:0:0:0:
128,137,3206,1,0,2:0:0:0:
260,23,3325,2,0,B|276:12|291:-6|291:-6|263:110,1,149.04,10|2,2:0|3:2,2:0:0:0:
361,161,3682,2,0,P|356:132|351:103,2,58.32,10|0|0,2:0|2:0|1:2,2:0:0:0:
431,124,4040,1,0,2:0:0:0:
505,229,4159,2,0,P|500:257|496:286,1,58.32,10|0,2:0|2:0,2:0:0:0:
359,356,4397,6,0,P|354:327|350:298,1,58.32,10|0,1:2|2:0,2:0:0:0:
408,245,4635,1,0,2:0:0:0:
267,339,4754,2,0,B|229:358|194:332|213:308|184:282|138:299,1,149.04,10|2,2:0|3:2,2:0:0:0:
72,243,5111,2,0,P|76:214|81:185,2,58.32,10|0|0,1:2|2:0|1:2,2:0:0:0:
2,201,5468,1,0,2:0:0:0:
165,122,5587,2,0,P|168:150|173:179,1,58.32,10|0,2:0|2:0,2:0:0:0:
237,64,5825,6,0,B|289:43|322:90|322:90|327:128|360:140,1,149.04,10|0,1:2|2:0,2:0:0:0:
424,202,6182,2,0,P|412:248|408:275,2,58.32,10|0|2,2:0|2:0|3:2,2:0:0:0:
322,304,6540,2,0,P|314:274|309:261,3,38.88,10|0|0|0,1:2|2:0|2:0|1:2,2:0:0:0:
220,185,6897,1,0,2:0:0:0:
165,237,7016,2,0,P|124:226|102:222,1,58.32,10|0,2:0|1:2,2:0:0:0:
203,104,7254,6,0,B|251:81|297:116|272:141|312:180|367:157,1,181.44,6|0,1:2|2:0,2:0:0:0:
440,98,7611,2,0,B|456:89|479:60|479:60|448:206,1,197.64,2|2,1:2|3:2,2:0:0:0:
388,268,7968,2,0,P|398:307|407:348,2,74.52,10|0|0,1:2|2:0|1:2,2:0:0:0:
320,321,8325,1,0,2:0:0:0:
207,241,8444,2,0,P|215:204|224:168,1,58.32,2|0,1:2|2:0,2:0:0:0:
188,90,8682,6,0,B|129:66|92:119|92:119|96:161|54:177,1,181.44,2|0,1:2|2:0,2:0:0:0:
2,274,9040,2,0,B|53:249|103:286|76:313|119:355|178:330,1,197.64,2|2,1:2|3:2,2:0:0:0:
213,253,9397,2,0,P|221:216|230:180,2,74.52,10|0|0,1:2|2:0|1:2,2:0:0:0:
129,227,9754,1,0,2:0:0:0:
310,301,9873,2,0,P|303:272|296:244,1,58.32,2|0,1:2|2:0,2:0:0:0:
403,163,10111,6,0,B|439:167|465:152|465:152|414:172|390:240,1,181.44,2|0,1:2|2:0,2:0:0:0:
326,160,10468,2,0,B|263:116|292:47|341:19|390:65|357:105,1,197.64,2|2,1:2|3:2,2:0:0:0:
208,73,10825,2,0,P|216:36|225:0,2,74.52,10|0|0,1:2|2:0|1:2,2:0:0:0:
138,17,11182,1,0,1:2:0:0:
41,111,11301,2,0,P|50:147|57:183,1,58.32,2|0,1:2|1:2,2:0:0:0:
3,237,11540,5,6,1:2:0:0:
317,350,12135,5,2,1:2:0:0:
317,350,12194,1,0,1:2:0:0:
317,350,12254,2,0,B|363:373|409:338|385:314|424:275|478:298,2,181.44,14|10|10,2:0|2:0|2:0,2:0:0:0:
247,307,12849,1,2,1:2:0:0:
124,369,12968,6,0,P|137:294|160:229,1,132.84,6|10,1:2|2:0,2:0:0:0:
8,121,13325,2,0,P|23:206|50:280,1,165.24,2|0,1:2|1:2,2:0:0:0:
105,167,13682,6,0,P|150:145|200:162,1,82.62,10|0,2:0|2:0,2:0:0:0:
288,284,13920,2,0,P|246:255|236:203,1,82.62,2|0,1:2|1:2,2:0:0:0:
290,57,14159,2,0,P|290:107|253:145,1,82.62,10|0,2:0|2:0,2:0:0:0:
155,240,14397,6,0,P|177:313|191:380,1,132.84,2|8,1:2|2:0,2:0:0:0:
354,335,14754,2,0,P|380:247|397:166,1,165.24,2|0,1:2|1:2,2:0:0:0:
276,87,15111,6,0,B|230:64|184:99|208:123|169:162|115:139,2,181.44,10|0|8,2:0|1:2|2:0,2:0:0:0:
312,161,15706,1,0,2:0:0:0:
373,62,15825,6,0,P|360:137|337:202,1,132.84,6|8,1:2|2:0,2:0:0:0:
489,310,16182,2,0,P|474:225|447:151,1,165.24,2|0,1:2|1:2,2:0:0:0:
392,264,16540,6,0,P|347:286|297:269,1,82.62,10|0,2:0|2:0,2:0:0:0:
209,147,16778,2,0,P|251:176|261:228,1,82.62,2|0,1:2|1:2,2:0:0:0:
207,374,17016,2,0,P|207:324|244:286,1,82.62,10|0,2:0|2:0,2:0:0:0:
341,190,17254,6,0,P|320:126|309:61,1,132.84,2|8,1:2|2:0,2:0:0:0:
161,2,17611,2,0,P|140:65|129:130,1,132.84,2|0,1:2|1:2,2:0:0:0:
25,230,17968,6,0,B|68:208|112:241|89:264|126:301|177:279,1,172.53,10|0,2:0|2:0,2:0:0:0:
188,269,18206,1,8,2:0:0:0:
290,243,18325,1,8,2:0:0:0:
371,305,18444,2,0,P|357:351|295:361,1,97.2000000000001,8|4,2:3|2:3,2:0:0:0:
475,356,18682,6,0,P|450:234|431:149,1,210.924,6|10,1:2|2:0,2:0:0:0:
366,101,19040,1,0,1:2:0:0:
294,70,19159,1,10,2:0:0:0:
250,109,19278,1,2,1:2:0:0:
246,122,19397,6,0,B|193:95|137:136|166:165|120:212|60:186,1,210.924,6|10,1:2|2:0,2:0:0:0:
147,266,19754,1,0,1:2:0:0:
214,304,19873,1,10,2:0:0:0:
230,348,19992,1,2,1:2:0:0:
229,366,20111,6,0,B|282:393|338:352|309:323|355:276|415:302,1,210.924,6|10,1:2|2:0,2:0:0:0:
464,250,20468,1,0,1:2:0:0:
478,194,20587,1,10,2:0:0:0:
469,182,20706,1,2,1:2:0:0:
456,167,20825,6,0,P|386:140|233:127,1,210.924,6|8,1:2|2:0,2:0:0:0:
179,180,21182,1,0,1:2:0:0:
149,170,21301,1,10,2:0:0:0:
109,105,21420,1,2,1:2:0:0:
15,43,21540,6,0,P|40:165|59:250,1,210.924,6|8,1:2|2:0,2:0:0:0:
0,312,21897,1,0,1:2:0:0:
27,320,22016,1,10,2:0:0:0:
81,375,22135,1,2,1:2:0:0:
149,308,22254,6,0,B|228:297|228:297|276:317|276:317|371:305,1,210.924,2|8,1:2|2:0,2:0:0:0:
426,342,22611,1,0,1:2:0:0:
441,309,22730,1,10,2:0:0:0:
512,262,22849,1,0,1:2:0:0:
448,197,22968,6,0,P|440:158|431:113,1,74.52,10|8,2:0|2:0,2:0:0:0:
375,42,23206,1,8,2:3:0:0:
299,92,23325,1,4,2:3:0:0:
292,92,23385,1,4,2:3:0:0:
287,85,23444,1,8,2:3:0:0:
227,28,23563,1,4,2:3:0:0:
144,80,23682,6,0,P|155:128|163:166,1,74.52,14|0,2:0|1:2,2:0:0:0:
56,257,23920,2,0,P|67:305|75:343,1,74.52,8|0,2:0|1:2,2:0:0:0:
239,173,24159,2,0,P|250:221|258:259,1,74.52,8|0,2:0|1:2,2:0:0:0:
341,373,24397,6,0,P|277:352|212:341,1,132.84,6|10,1:2|2:0,2:0:0:0:
1,295,24754,2,0,P|82:280|159:253,1,165.24,2|0,1:2|1:2,2:0:0:0:
206,38,25111,6,0,P|168:71|165:124,1,82.62,10|0,2:0|2:0,2:0:0:0:
245,251,25349,2,0,P|233:201|189:172,1,82.62,2|0,1:2|1:2,2:0:0:0:
34,167,25587,2,0,P|80:185|129:165,1,82.62,10|0,2:0|2:0,2:0:0:0:
302,91,25825,6,0,P|374:88|402:150,1,132.84,2|8,1:2|2:0,2:0:0:0:
245,251,26182,2,0,P|234:169|210:90,1,165.24,2|0,1:2|1:2,2:0:0:0:
352,234,26540,6,0,B|395:206|444:236|423:262|466:297|517:268,2,181.44,10|0|8,2:0|1:2|2:0,2:0:0:0:
287,326,27135,1,0,2:0:0:0:
151,247,27254,6,0,P|130:310|119:375,1,132.84,6|8,1:2|2:0,2:0:0:0:
41,216,27611,2,0,P|26:134|0:57,1,165.24,2|0,1:2|1:2,2:0:0:0:
121,119,27968,6,0,P|158:151|211:148,1,82.62,10|0,2:0|2:0,2:0:0:0:
328,53,28206,2,0,P|279:70|256:117,1,82.62,2|0,1:2|1:2,2:0:0:0:
271,273,28444,2,0,P|283:224|258:178,1,82.62,10|0,2:0|2:0,2:0:0:0:
157,26,28682,6,0,P|177:87|188:154,1,132.84,2|8,1:2|2:0,2:0:0:0:
54,253,29040,2,0,P|65:187|86:124,1,132.84,2|0,1:2|1:2,2:0:0:0:
293,211,29397,6,0,B|336:189|380:222|357:245|394:282|445:260,1,172.53,10|0,2:0|2:0,2:0:0:0:
456,250,29635,1,8,2:0:0:0:
501,137,29754,1,8,2:0:0:0:
403,67,29873,2,0,P|414:115|424:165,1,97.2000000000001,8|4,2:3|2:3,2:0:0:0:
265,294,30111,6,0,B|240:295|217:324|217:324|273:242|275:170,1,210.924,6|10,1:2|2:0,2:0:0:0:
218,79,30468,1,0,1:2:0:0:
149,37,30587,1,10,2:0:0:0:
97,37,30706,1,2,1:2:0:0:
78,48,30825,6,0,P|103:170|122:255,1,210.924,6|10,1:2|2:0,2:0:0:0:
301,373,31182,1,0,1:2:0:0:
347,312,31301,1,10,2:0:0:0:
351,277,31420,1,2,1:2:0:0:
346,260,31540,6,0,B|284:250|215:289|215:289|180:252|223:187,1,210.924,6|10,1:2|2:0,2:0:0:0:
228,126,31897,1,0,1:2:0:0:
278,103,32016,1,10,2:0:0:0:
310,113,32135,1,2,1:2:0:0:
324,123,32254,6,0,B|371:158|433:128|410:94|463:56|518:92,1,210.924,6|8,1:2|2:0,2:0:0:0:
512,197,32611,1,0,1:2:0:0:
482,187,32730,1,10,2:0:0:0:
450,114,32849,1,2,1:2:0:0:
361,52,32968,6,0,P|386:174|405:259,1,210.924,6|8,1:2|2:0,2:0:0:0:
489,307,33325,1,0,1:2:0:0:
466,324,33444,1,10,2:0:0:0:
418,384,33563,1,2,1:2:0:0:
345,326,33682,6,0,B|310:269|231:290|231:290|228:342|166:358,1,210.924,2|8,1:2|2:0,2:0:0:0:
64,379,34040,1,0,1:2:0:0:
49,346,34159,1,10,2:0:0:0:
0,269,34278,1,0,1:2:0:0:
69,183,34397,6,0,P|77:144|86:99,1,74.52,10|8,2:0|2:0,2:0:0:0:
142,38,34635,1,8,2:3:0:0:
218,88,34754,1,4,2:3:0:0:
225,88,34813,1,4,2:3:0:0:
230,81,34873,1,8,2:3:0:0:
290,24,34992,1,4,2:3:0:0:
372,90,35111,6,0,P|373:132|352:172,1,74.52,14|0,2:0|1:2,2:0:0:0:
300,354,35349,2,0,P|264:334|239:296,1,74.52,8|0,2:0|1:2,2:0:0:0:
412,242,35587,2,0,P|377:264|331:266,1,74.52,8|0,2:0|1:2,2:0:0:0:
256,190,35825,5,0,1:2:0:0:
198,136,36540,1,2,2:0:0:0:
127,173,37254,1,2,2:0:0:0:
142,252,37968,1,2,2:0:0:0:
220,262,38682,1,2,2:0:0:0:
124,227,39159,5,0,2:0:0:0:
119,201,39397,1,2,2:0:0:0:
227,11,39873,5,0,2:0:0:0:
198,136,40111,1,2,2:0:0:0:
322,365,40587,5,0,2:0:0:0:
306,225,40825,1,2,2:0:0:0:
446,208,41063,1,0,2:0:0:0:
464,348,41301,1,0,2:0:0:0:
390,299,41420,2,0,L|384:262,2,37.26,2|0|2,2:0|2:0|2:0,2:0:0:0:
257,366,41778,6,0,P|232:360|207:356,1,50.2200000000001,0|0,2:0|2:0,2:0:0:0:
152,296,42016,1,0,2:0:0:0:
95,178,42254,6,0,B|169:166|169:166|214:185|214:185|305:174,1,199.26,2|0,2:0|2:0,2:0:0:0:
348,114,42730,1,0,2:0:0:0:
417,236,42968,6,0,B|446:227|463:206|463:206|429:238|396:304,1,175.77,2|0,2:0|2:0,2:0:0:0:
328,371,43444,2,0,P|313:325|305:305,1,50.2200000000001,0|0,2:0|2:0,2:0:0:0:
239,251,43682,2,0,B|202:232|165:260|184:279|153:311|109:292,1,150.66,2|0,2:0|2:0,2:0:0:0:
47,246,44159,1,2,2:0:0:0:
194,28,44397,6,0,B|249:34|249:34|288:65|288:65|356:75,2,165.24,2|0|0,2:0|2:0|2:0,2:0:0:0:
369,179,45111,2,0,B|408:158|459:157|459:157|494:104|436:80,1,165.24,2|0,2:0|2:0,2:0:0:0:
348,198,45468,2,0,P|340:224|347:250,1,50.2200000000001,0|2,2:0|2:0,2:0:0:0:
281,374,45825,6,0,P|187:343|85:351,1,199.26,2|0,2:0|2:0,2:0:0:0:
46,277,46301,2,0,P|34:243|57:202,1,66.4200000000001,0|0,2:0|1:2,2:0:0:0:
109,159,46480,1,0,1:2:0:0:
117,154,46540,2,0,B|166:128|216:166|191:191|233:234|292:209,2,197.64,6|2|2,1:2|2:0|2:0,2:0:0:0:
272,41,47254,6,0,P|319:38|334:96,1,99.6300000000001,4|0,1:2|2:0,2:0:0:0:
408,143,47492,2,0,P|401:182|395:226,1,66.4200000000001,8|0,2:0|1:2,2:0:0:0:
476,222,47730,2,0,P|481:189|487:157,1,66.4200000000001,0|0,1:2|1:2,2:0:0:0:
422,294,47968,6,0,B|367:284|367:284|321:303|321:303|253:294,1,165.24,8|0,2:0|1:2,2:0:0:0:
200,348,48325,1,0,1:2:0:0:
59,312,48444,2,0,P|31:265|74:201,1,123.93,8|0,2:0|2:0,2:0:0:0:
163,136,48682,6,0,P|156:177|150:222,1,66.4200000000001,0|0,1:2|2:0,2:0:0:0:
247,276,48920,2,0,B|279:298|279:298|321:280,1,82.62,8|0,2:0|1:2,2:0:0:0:
326,172,49159,2,0,B|294:149|294:149|251:167,1,82.62,0|0,1:2|1:2,2:0:0:0:
416,247,49397,6,0,P|444:155|451:83,1,165.24,8|0,2:0|1:2,2:0:0:0:
401,18,49754,1,0,1:2:0:0:
262,79,49873,1,8,2:0:0:0:
235,4,49992,1,0,2:0:0:0:
179,62,50111,6,0,B|138:40|97:71|118:92|83:127|35:107,1,165.24,0|8,1:2|2:0,2:0:0:0:
31,209,50468,1,0,1:2:0:0:
107,248,50587,2,0,P|152:235|193:226,1,66.4200000000001,0|0,1:2|1:2,2:0:0:0:
340,322,50825,6,0,B|251:279|251:279|231:310|197:321,1,165.24,8|0,2:0|1:2,2:0:0:0:
349,228,51182,1,0,1:2:0:0:
422,279,51301,2,0,P|435:324|444:365,1,66.4200000000001,8|0,2:0|2:0,2:0:0:0:
263,196,51540,6,0,B|229:116|304:120|263:28,1,165.24,0|8,1:2|2:0,2:0:0:0:
147,5,51897,1,0,1:2:0:0:
148,90,52016,2,0,P|165:133|178:173,1,66.4200000000001,0|0,2:0|1:2,2:0:0:0:
0,244,52254,2,0,P|8:197|12:156,1,66.4200000000001,8|0,2:0|1:2,2:0:0:0:
180,280,52492,2,0,P|150:302|122:329,1,66.4200000000001,8|8,2:0|2:0,2:0:0:0:
104,216,52730,1,8,1:3:0:0:
104,216,52849,1,4,1:3:0:0:
254,334,52968,6,0,P|315:315|398:304,1,123.93,4|0,1:2|2:0,2:0:0:0:
429,241,53206,2,0,P|447:208|416:161,1,82.62,8|0,2:0|1:2,2:0:0:0:
296,104,53444,2,0,P|276:138|302:184,1,82.62,0|0,1:2|1:2,2:0:0:0:
459,18,53682,6,0,B|375:63|375:63|356:24|320:20,1,165.24,8|0,2:0|1:2,2:0:0:0:
194,113,54040,1,0,1:2:0:0:
154,187,54159,2,0,B|209:212|209:212|222:238|222:238|286:263,1,148.23,8|0,2:0|2:0,2:0:0:0:
397,155,54397,6,0,B|368:176|343:197|343:197|363:247|376:299,1,165.24,0|8,1:2|2:0,2:0:0:0:
465,319,54754,1,0,1:2:0:0:
396,379,54873,2,0,P|353:369|297:352,1,82.62,0|0,1:2|1:2,2:0:0:0:
184,276,55111,6,0,B|142:278|101:295|101:295|47:273|87:223,1,165.24,8|0,2:0|1:2,2:0:0:0:
211,297,55468,2,0,P|231:326|206:372,2,82.62,0|8|0,1:2|2:0|2:0,2:0:0:0:
279,220,55825,6,0,B|314:200|351:228|333:247|364:279|408:260,1,148.23,0|0,1:2|2:0,2:0:0:0:
468,201,56063,2,0,P|483:160|499:139,1,66.4200000000001,8|0,2:0|1:2,2:0:0:0:
339,62,56301,2,0,P|357:89|367:121,1,66.4200000000001,0|0,1:2|1:2,2:0:0:0:
417,10,56540,6,0,P|337:40|248:25,1,165.24,8|0,2:0|1:2,2:0:0:0:
169,120,56897,1,0,1:2:0:0:
100,78,57016,2,0,P|82:110|109:161,1,82.6200000000001,8|0,2:0|2:0,2:0:0:0:
218,200,57254,6,0,B|159:226|159:226|145:254|145:254|77:281,1,165.24,12|0,2:0|1:2,2:0:0:0:
226,298,57611,1,12,2:0:0:0:
282,358,57730,2,0,P|317:367|366:381,1,66.4200000000001,0|0,2:0|1:2,2:0:0:0:
454,267,57968,6,0,P|419:276|370:290,1,66.4200000000001,8|8,2:0|2:0,2:0:0:0:
448,101,58206,2,0,P|473:126|509:162,1,66.4200000000001,8|8,2:3|2:3,2:0:0:0:
307,194,58444,2,0,P|316:159|329:109,1,66.4200000000001,4|4,2:3|2:3,2:0:0:0:
403,190,58682,1,4,1:2:0:0:
101,115,58920,6,0,P|82:81|107:40,1,66.4200000000001,0|8,2:0|2:0,2:0:0:0:
163,42,59158,2,0,P|181:75|156:116,1,66.4200000000001,0|8,2:0|2:0,2:0:0:0:
35,199,59396,2,0,B|75:175|117:208|97:230|132:266|183:245,1,165.24,8|2,2:0|1:2,2:0:0:0:
218,182,59753,1,0,1:2:0:0:
218,182,59872,1,2,1:2:0:0:
478,314,60229,5,8,2:0:0:0:
416,363,60348,2,0,P|380:349|335:333,1,66.4200000000001,0|8,2:0|2:0,2:0:0:0:
269,243,60586,2,0,B|311:218|369:221|369:221|391:186|355:158,1,165.24,8|2,2:0|1:2,2:0:0:0:
311,91,60943,1,0,1:2:0:0:
374,13,61062,6,0,B|369:31|369:31|304:59|207:62,1,165.24,2|0,1:2|2:0,2:0:0:0:
69,194,61420,2,0,B|87:141|148:159|148:159|159:197|208:199,1,165.24,8|8,2:0|2:0,2:0:0:0:
311,91,61777,2,0,P|299:137|289:180,1,82.62,8|0,2:0|2:0,2:0:0:0:
477,248,62015,2,0,P|465:202|455:159,1,82.62,2|0,1:2|1:2,2:0:0:0:
334,288,62253,6,0,B|294:264|252:297|272:319|237:355|186:334,1,165.24,2|0,1:2|2:0,2:0:0:0:
152,271,62610,1,8,2:0:0:0:
34,355,62848,2,0,B|23:308|3:269,2,82.62,8|8|0,2:0|2:0|2:0,2:0:0:0:
174,250,63205,2,0,P|185:203|205:164,1,82.62,2|0,1:2|1:2,2:0:0:0:
72,220,63443,1,2,1:2:0:0:
60,55,63682,6,0,P|122:35|141:29,1,66.4200000000001,0|8,2:0|2:0,2:0:0:0:
220,100,63920,2,0,P|282:80|301:74,1,66.4200000000001,0|8,2:0|2:0,2:0:0:0:
460,189,64158,2,0,B|420:165|378:198|398:220|363:256|312:235,1,165.24,8|2,2:0|1:2,2:0:0:0:
238,278,64515,1,0,1:2:0:0:
255,369,64634,6,0,P|296:355|338:346,1,82.62,2|0,1:2|2:0,2:0:0:0:
147,241,64872,2,0,P|141:271|137:289,2,41.31,0|0|8,1:2|1:2|2:0,2:0:0:0:
55,280,65110,2,0,P|63:239|67:151,1,123.93,0|8,2:0|2:0,2:0:0:0:
4,99,65348,2,0,P|52:118|128:18,1,165.24,8|2,2:0|1:2,2:0:0:0:
72,5,65705,1,0,1:2:0:0:
194,154,65824,6,0,B|223:112|280:122|280:122|290:162|350:170,1,165.24,2|0,1:2|2:0,2:0:0:0:
437,67,66182,2,0,P|412:155|392:246,1,165.24,8|8,2:0|2:0,2:0:0:0:
483,213,66479,1,8,2:0:0:0:
485,202,66539,2,0,P|494:161|505:122,1,82.62,8|0,2:0|2:0,2:0:0:0:
307,245,66777,2,0,P|316:204|327:165,1,82.62,0|0,1:2|2:0,2:0:0:0:
463,289,67015,6,0,B|402:312|402:312|388:338|388:338|319:361,1,166.05,12|0,1:2|2:0,2:0:0:0:
257,319,67372,2,0,P|215:332|176:343,1,82.62,12|0,2:0|2:0,2:0:0:0:
54,245,67610,5,0,1:2:0:0:
49,222,67669,1,0,1:2:0:0:
59,202,67729,1,12,2:0:0:0:
77,187,67788,1,8,2:0:0:0:
89,168,67848,1,8,2:0:0:0:
87,145,67907,1,8,2:0:0:0:
73,128,67967,2,0,P|53:121|32:119,3,41.31,8|8|4|4,2:3|2:3|2:3|2:3,2:0:0:0:
148,69,68205,2,0,P|168:62|189:60,3,41.31,8|8|4|4,2:3|2:3|2:3|2:3,2:0:0:0:
72,18,68443,1,4,1:2:0:0:
257,224,68681,6,0,P|275:191|250:150,1,66.4200000000001,0|0,2:0|1:2,2:0:0:0:
195,151,68919,2,0,P|176:185|201:226,1,66.4200000000001,0|0,2:0|1:2,2:0:0:0:
282,333,69157,2,0,B|300:280|361:298|361:298|372:336|422:342,1,165.24,0|10,1:2|2:0,2:0:0:0:
437,268,69514,1,8,2:0:0:0:
437,268,69633,1,10,2:0:0:0:
221,18,69990,5,0,1:2:0:0:
273,80,70109,2,0,P|262:127|255:164,1,66.4200000000001,0|0,2:0|1:2,2:0:0:0:
244,142,70288,1,0,1:2:0:0:
232,138,70347,2,0,B|192:114|150:147|170:169|135:205|84:184,1,165.24,0|10,1:2|2:0,2:0:0:0:
40,125,70704,1,8,2:0:0:0:
131,300,70823,6,0,B|173:275|231:278|231:278|253:243|217:215,1,165.24,10|0,2:0|2:0,2:0:0:0:
360,161,71181,2,0,P|340:241|318:345,1,165.24,0|0,1:2|1:2,2:0:0:0:
489,246,71538,2,0,B|458:219|458:219|419:233,1,82.62,0|0,1:2|2:0,2:0:0:0:
251,280,71776,2,0,B|212:294|212:294|181:267,1,82.62,10|8,2:0|2:0,2:0:0:0:
83,151,72014,6,0,P|163:160|190:78,1,165.24,10|0,2:0|2:0,2:0:0:0:
128,50,72371,2,0,P|145:91|183:95,1,82.62,0|0,1:2|1:2,2:0:0:0:
250,36,72609,1,8,2:0:0:0:
250,36,72728,1,8,2:0:0:0:
340,126,72847,2,0,P|352:81|372:42,2,82.62,8|4|8,2:3|2:3|2:0,2:0:0:0:
448,224,73204,6,0,B|400:195|350:234|373:261|332:304|271:278,1,200.88,2|0,1:2|2:0,2:0:0:0:
194,188,73799,1,0,2:0:0:0:
143,245,73918,6,0,B|126:274|73:297|14:251|21:208|51:189|87:197|91:222,1,200.88,2|0,1:2|2:0,2:0:0:0:
18,139,74513,1,0,2:0:0:0:
61,76,74632,6,0,B|81:15|150:36|150:36|161:88|223:87,1,200.88,2|0,1:2|2:0,2:0:0:0:
314,12,75227,1,0,1:2:0:0:
362,75,75346,2,0,P|350:140|345:170,1,75.3300000000001,12|0,2:0|2:0,2:0:0:0:
426,181,75584,2,0,P|434:132|444:83,1,100.44,8|8,2:0|2:3,2:0:0:0:
359,228,76061,5,12,2:0:0:0:
505,154,76180,1,0,1:2:0:0:
390,33,76299,1,0,1:2:0:0:
451,259,76418,2,0,P|492:241|531:232,2,66.4200000000001,12|0|0,2:0|1:2|1:2,2:0:0:0:
353,336,76775,6,0,P|384:345|414:359,1,66.4200000000001,12|0,2:0|1:2,2:0:0:0:
180,288,77013,2,0,P|195:259|207:228,1,66.4200000000001,12|0,2:0|1:2,2:0:0:0:
358,227,77251,2,0,P|343:198|331:166,1,66.4200000000001,12|0,2:0|1:2,2:0:0:0:
175,73,77489,6,0,P|166:96|156:119,1,50.2200000000001,2|2,2:0|2:0,2:0:0:0:
339,8,77727,2,0,P|347:31|358:54,1,50.2200000000001,2|2,2:0|2:0,2:0:0:0:
207,227,77965,5,2,2:0:0:0:
331,166,78084,1,2,2:0:0:0:
284,289,78204,1,2,2:0:0:0:
177,121,78680,5,0,2:0:0:0:
0,28,78918,6,0,P|14:69|65:87,1,82.62,6|0,1:2|2:0,2:0:0:0:
151,40,79156,1,10,2:0:0:0:
26,181,79275,2,0,P|69:190|110:155,1,82.62,2|0,1:2|2:0,2:0:0:0:
158,31,79513,1,2,1:2:0:0:
220,219,79632,6,0,B|238:166|299:184|299:184|309:228|358:233,1,165.24,10|0,2:0|1:2,2:0:0:0:
452,137,79989,1,0,1:2:0:0:
482,210,80108,2,0,P|473:256|445:273,1,82.62,10|0,2:0|2:0,2:0:0:0:
339,364,80346,6,0,B|270:343|270:343|244:356|244:356|181:340,1,165.24,2|8,1:2|2:0,2:0:0:0:
19,235,80704,2,0,B|61:210|119:213|119:213|141:178|105:150,1,165.24,2|0,1:2|1:2,2:0:0:0:
208,26,81061,2,0,P|198:69|189:111,1,82.62,8|0,2:0|2:0,2:0:0:0:
283,138,81299,2,0,P|273:181|264:223,1,82.62,0|0,1:2|1:2,2:0:0:0:
261,376,81537,1,10,2:0:0:0:
252,373,81656,1,2,2:0:0:0:
94,301,81775,6,0,P|108:260|159:242,1,82.62,6|0,1:2|2:0,2:0:0:0:
241,288,82013,1,10,2:0:0:0:
114,158,82132,2,0,P|157:149|198:184,1,82.62,2|0,1:2|2:0,2:0:0:0:
248,294,82370,1,2,1:2:0:0:
363,172,82489,6,0,B|401:148|442:180|423:202|457:236|507:217,1,165.24,10|0,2:0|1:2,2:0:0:0:
471,354,82846,1,0,1:2:0:0:
396,334,82965,2,0,P|385:294|374:254,1,82.6200005042725,10|0,2:0|2:0,2:0:0:0:
110,295,83204,6,0,B|156:267|199:252|199:252|216:289|253:294,1,165.24,2|8,1:2|2:0,2:0:0:0:
363,172,83561,2,0,P|341:88|320:12,1,165.24,2|0,1:2|1:2,2:0:0:0:
116,158,83918,2,0,B|147:184|147:184|185:169,1,82.62,8|0,2:0|2:0,2:0:0:0:
243,58,84156,2,0,B|201:51|201:51|178:84,1,82.62,0|0,1:2|1:2,2:0:0:0:
264,218,84394,1,10,2:0:0:0:
268,210,84513,1,2,2:0:0:0:
441,153,84632,6,0,P|427:112|376:94,1,82.62,6|0,1:2|2:0,2:0:0:0:
309,126,84870,1,10,2:0:0:0:
394,2,84989,2,0,P|354:-7|319:11,1,82.6200005042725,2|0,1:2|2:0,2:0:0:0:
305,133,85227,1,2,1:2:0:0:
430,271,85346,6,0,B|412:218|354:236|354:236|339:284|293:289,1,165.24,10|0,2:0|1:2,2:0:0:0:
257,363,85704,1,0,1:2:0:0:
170,341,85823,2,0,P|146:311|146:260,1,82.6200005042725,10|0,2:0|2:0,2:0:0:0:
111,74,86061,6,0,B|179:97|179:97|192:123|192:123|252:147,1,165.24,6|8,1:2|2:0,2:0:0:0:
375,59,86418,2,0,B|369:111|369:111|380:143|380:143|362:171|362:171|354:230,1,165.24,0|0,1:2|1:2,2:0:0:0:
170,341,86775,6,0,P|130:329|90:319,1,82.62,10|0,2:0|2:0,2:0:0:0:
252,147,87013,2,0,P|262:187|272:227,1,82.62,0|0,1:2|1:2,2:0:0:0:
37,170,87251,2,0,P|64:142|95:111,1,82.62,8|0,2:0|2:0,2:0:0:0:
322,25,87489,6,0,P|336:66|387:84,1,82.62,6|0,1:2|1:2,2:0:0:0:
473,60,87727,1,10,2:0:0:0:
348,178,87846,2,0,P|391:187|432:152,1,82.62,2|0,1:2|1:2,2:0:0:0:
477,52,88084,1,0,1:2:0:0:
272,227,88204,6,0,P|258:186|207:168,1,82.62,14|0,2:0|2:0,2:0:0:0:
126,189,88442,1,0,1:2:0:0:
246,74,88561,2,0,P|203:65|162:100,1,82.62,0|10,1:2|2:0,2:0:0:0:
121,196,88799,1,0,2:0:0:0:
262,357,88918,6,0,P|298:311|397:351,1,165.24,12|0,2:0|1:2,2:0:0:0:
348,178,89275,2,0,P|357:93|369:9,1,165.24,14|0,2:0|1:2,2:0:0:0:
512,142,89632,2,0,P|448:156|417:161,1,82.62,10|8,2:0|2:0,2:0:0:0:
272,227,89870,2,0,P|208:241|177:246,1,82.62,8|4,2:3|2:3,2:0:0:0:
416,252,90108,1,8,2:0:0:0:
418,241,90227,1,8,2:0:0:0:
251,356,90346,6,0,P|262:321|305:306,1,66.4200000000001,6|0,1:2|2:0,2:0:0:0:
395,327,90584,1,10,2:0:0:0:
272,227,90704,2,0,P|308:219|342:248,1,66.4200000000001,2|0,1:2|2:0,2:0:0:0:
397,332,90942,1,2,1:2:0:0:
191,243,91061,6,0,B|159:223|126:249|141:267|114:295|73:279,1,132.84,10|0,2:0|1:2,2:0:0:0:
88,157,91418,1,0,1:2:0:0:
0,178,91537,2,0,P|10:142|23:93,1,66.4200000000001,10|0,2:0|2:0,2:0:0:0:
100,38,91775,6,0,P|159:55|201:-5,1,132.84,2|8,1:2|2:0,2:0:0:0:
321,124,92132,2,0,P|382:113|432:162,1,132.840002026978,2|0,1:2|1:2,2:0:0:0:
282,0,92489,2,0,P|273:44|269:69,1,66.4200000000001,8|0,2:0|2:0,2:0:0:0:
364,194,92727,2,0,P|373:238|377:263,1,66.4200000000001,0|0,1:2|1:2,2:0:0:0:
233,349,92965,1,10,2:0:0:0:
222,352,93084,1,2,2:0:0:0:
298,260,93204,6,0,P|277:229|230:225,1,66.4200000000001,6|0,1:2|2:0,2:0:0:0:
151,259,93442,1,10,2:0:0:0:
241,139,93561,2,0,P|203:140|177:178,1,66.4200000000001,2|0,1:2|2:0,2:0:0:0:
149,266,93799,1,2,1:2:0:0:
93,123,93918,6,0,B|84:95|102:59|122:70|139:36|129:0,2,132.84,10|2|10,2:0|1:2|2:0,2:0:0:0:
441,86,94632,6,0,B|424:115|371:138|312:92|319:49|349:30|385:38|389:63,1,199.26,6|0,1:2|1:2,2:0:0:0:
460,180,95108,1,0,1:2:0:0:
455,188,95227,1,0,1:2:0:0:
288,220,95346,6,0,P|325:209|362:200,1,66.4200000000001,14|0,2:0|1:2,2:0:0:0:
211,376,95584,2,0,P|248:365|285:356,1,66.4200000000001,0|0,1:2|1:2,2:0:0:0:
88,230,95823,2,0,P|125:219|162:210,1,66.4200000000001,8|0,2:0|1:2,2:0:0:0:
104,317,96061,5,4,1:2:0:0:
4,196,96299,1,0,2:0:0:0:
136,108,96537,1,0,2:0:0:0:
246,291,96775,5,4,1:2:0:0:
377,136,97013,1,0,2:0:0:0:
204,21,97251,1,0,2:0:0:0:
338,221,97489,6,0,P|305:220|275:206,1,66.4200000000001,4|0,1:2|2:0,2:0:0:0:
200,154,97727,1,0,2:0:0:0:
331,31,97965,1,0,2:0:0:0:
489,220,98204,6,0,P|491:254|492:290,1,66.4200000000001,14|0,2:0|1:2,2:0:0:0:
320,241,98442,2,0,P|313:275|304:310,1,66.4200000000001,14|0,2:0|1:2,2:0:0:0:
181,159,98680,2,0,P|164:189|146:220,1,66.4200000000001,14|0,2:0|1:2,2:0:0:0:
32,294,98918,6,0,B|78:265|127:303|104:329|144:371|203:346,1,199.26,6|0,1:2|1:2,2:0:0:0:
320,241,99394,6,0,P|313:275|304:310,1,66.4200000000001,8|0,2:0|1:2,2:0:0:0:
459,192,99632,6,0,P|466:226|475:261,1,66.4200000000001,10|0,2:0|1:2,2:0:0:0:
253,97,99870,6,0,P|246:131|236:165,1,66.4200000000001,8|0,2:0|1:2,2:0:0:0:
464,24,100108,6,0,P|471:58|481:93,1,66.4200000000001,8|0,2:0|1:2,2:0:0:0:
378,136,100346,6,0,L|371:176,3,33.21,14|8|8|8,2:0|2:0|2:0|2:0,2:0:0:0:
327,59,100584,2,0,L|320:19,3,33.21,8|8|4|4,2:3|2:3|2:3|2:3,2:0:0:0:
238,98,100823,6,0,P|219:92|199:88,1,33.21,8|8,2:3|2:3,2:0:0:0:
143,134,100942,2,0,P|124:128|104:124,1,33.21,4|4,2:3|2:3,2:0:0:0:
49,55,101061,5,8,2:0:0:0:
109,276,101775,5,2,1:2:0:0:
376,157,107489,6,0,B|338:154|313:177|313:177|299:145|265:134,1,132.84,6|10,1:2|2:0,2:0:0:0:
210,53,107846,2,0,P|231:132|239:214,1,165.24,2|0,1:2|1:2,2:0:0:0:
127,78,108204,6,0,P|125:33|157:-18,1,82.62,10|0,2:0|2:0,2:0:0:0:
77,165,108442,2,0,P|39:189|-21:187,1,82.62,2|0,1:2|1:2,2:0:0:0:
178,165,108680,2,0,P|217:185|246:238,1,82.62,10|0,2:0|2:0,2:0:0:0:
111,384,108918,6,0,P|118:309|131:239,1,132.84,2|8,1:2|2:0,2:0:0:0:
337,250,109275,2,0,P|258:250|224:321,1,165.24,2|0,1:2|1:2,2:0:0:0:
408,298,109632,6,0,B|439:263|427:202|400:226|389:169|421:125,2,181.44,10|0|8,2:0|1:2|2:0,2:0:0:0:
328,342,110227,1,0,2:0:0:0:
207,221,110346,6,0,P|275:232|341:251,1,132.84,6|8,1:2|2:0,2:0:0:0:
482,118,110704,2,0,P|402:139|320:152,1,165.24,2|0,1:2|1:2,2:0:0:0:
202,88,111061,6,0,P|184:49|193:10,1,82.6200000000001,10|0,2:0|2:0,2:0:0:0:
207,221,111299,2,0,P|182:254|144:266,1,82.6200000000001,2|0,1:2|1:2,2:0:0:0:
320,151,111537,2,0,P|361:155|390:182,1,82.6200000000001,10|0,2:0|2:0,2:0:0:0:
279,382,111775,6,0,P|290:316|310:253,1,132.84,2|8,1:2|2:0,2:0:0:0:
112,137,112132,2,0,P|132:200|143:265,1,132.84,2|0,1:2|1:2,2:0:0:0:
285,172,112489,6,0,B|324:153|376:179|347:197|396:222|443:204,1,172.53,10|0,2:0|2:0,2:0:0:0:
455,187,112727,1,8,2:0:0:0:
429,91,112846,1,8,2:0:0:0:
341,73,112965,1,8,2:3:0:0:
309,87,113084,1,4,2:3:0:0:
202,46,113204,6,0,P|229:134|245:263,1,210.6,6|10,1:2|2:0,2:0:0:0:
96,326,113561,1,0,1:2:0:0:
169,294,113680,1,10,2:0:0:0:
212,332,113799,1,2,1:2:0:0:
223,346,113918,6,0,P|300:343|335:217,1,210.6,6|10,1:2|2:0,2:0:0:0:
322,141,114275,1,0,1:2:0:0:
253,188,114394,1,10,2:0:0:0:
243,233,114513,1,2,1:2:0:0:
244,251,114632,6,0,B|188:271|140:226|164:208|128:160|61:177,1,210.6,6|10,1:2|2:0,2:0:0:0:
0,252,114989,1,0,1:2:0:0:
38,285,115108,1,10,2:0:0:0:
70,280,115227,1,2,1:2:0:0:
82,266,115346,6,0,P|199:224|320:199,1,210.6,6|8,1:2|2:0,2:0:0:0:
330,116,115704,1,0,1:2:0:0:
360,126,115823,1,10,2:0:0:0:
400,191,115942,1,2,1:2:0:0:
492,223,116061,6,0,P|378:253|363:344,1,210.6,6|8,1:2|2:0,2:0:0:0:
265,370,116418,1,0,1:2:0:0:
235,381,116537,1,10,2:0:0:0:
173,317,116656,1,2,1:2:0:0:
84,369,116775,6,0,P|68:256|38:150,1,210.6,2|8,1:2|2:0,2:0:0:0:
57,67,117132,1,0,1:2:0:0:
95,79,117251,1,10,2:0:0:0:
142,148,117370,1,0,1:2:0:0:
207,84,117489,6,0,P|246:76|291:67,1,74.52,10|8,2:0|2:0,2:0:0:0:
378,41,117727,1,8,2:3:0:0:
442,117,117846,1,4,2:3:0:0:
440,123,117906,1,4,2:3:0:0:
439,130,117965,1,8,2:3:0:0:
378,207,118084,1,4,2:3:0:0:
293,173,118204,6,0,P|245:184|207:192,1,74.52,14|0,2:0|1:2,2:0:0:0:
190,305,118442,2,0,P|142:316|104:324,1,74.52,8|0,2:0|1:2,2:0:0:0:
72,171,118680,2,0,P|24:182|-14:190,1,74.52,8|0,2:0|1:2,2:0:0:0:
158,130,118918,6,0,P|149:64|133:0,1,132.84,6|10,1:2|2:0,2:0:0:0:
302,53,119275,2,0,P|281:132|273:214,1,165.24,2|0,1:2|1:2,2:0:0:0:
451,215,119632,6,0,P|487:188|506:131,1,82.6200000000001,10|0,2:0|2:0,2:0:0:0:
414,308,119870,2,0,P|419:352|458:398,1,82.6200000000001,2|0,1:2|1:2,2:0:0:0:
351,230,120108,2,0,P|310:212|251:223,1,82.6200000000001,10|0,2:0|2:0,2:0:0:0:
169,353,120346,6,0,P|230:330|298:314,1,132.84,2|8,1:2|2:0,2:0:0:0:
171,235,120704,2,0,P|90:215|13:186,1,165.24,2|0,1:2|1:2,2:0:0:0:
324,120,121061,6,0,B|366:101|421:131|390:149|440:177|492:161,2,181.44,10|0|8,2:0|1:2|2:0,2:0:0:0:
272,214,121656,1,0,2:0:0:0:
142,105,121775,6,0,P|159:168|170:234,1,132.84,6|8,1:2|2:0,2:0:0:0:
237,375,122132,2,0,P|250:291|273:209,1,165.24,2|0,1:2|1:2,2:0:0:0:
348,105,122489,6,0,P|388:91|426:105,1,82.6200000000001,10|0,2:0|2:0,2:0:0:0:
216,93,122727,2,0,P|186:64|179:24,1,82.6200000000001,2|0,1:2|1:2,2:0:0:0:
272,214,122965,2,0,P|263:254|232:279,1,82.6200000000001,10|0,2:0|2:0,2:0:0:0:
54,155,123204,6,0,P|120:166|183:186,1,132.84,2|8,1:2|2:0,2:0:0:0:
344,61,123561,2,0,P|281:81|216:92,1,132.84,2|0,1:2|1:2,2:0:0:0:
391,239,123918,6,0,B|442:236|491:259|491:259|526:235|506:192,1,172.53,10|0,2:0|2:0,2:0:0:0:
499,171,124156,1,8,2:0:0:0:
418,112,124275,1,8,2:0:0:0:
338,154,124394,1,8,2:3:0:0:
322,185,124513,1,4,2:3:0:0:
248,281,124632,6,0,B|195:309|141:272|162:251|119:209|55:236,1,210.6,6|10,1:2|2:0,2:0:0:0:
82,333,124989,1,0,1:2:0:0:
133,274,125108,1,10,2:0:0:0:
110,220,125227,1,2,1:2:0:0:
100,205,125346,6,0,P|81:99|56:0,1,210.6,6|10,1:2|2:0,2:0:0:0:
161,27,125704,1,0,1:2:0:0:
230,74,125823,1,10,2:0:0:0:
240,119,125942,1,2,1:2:0:0:
239,137,126061,6,0,P|296:204|406:149,1,210.6,6|10,1:2|2:0,2:0:0:0:
474,100,126418,1,0,1:2:0:0:
507,138,126537,1,10,2:0:0:0:
502,170,126656,1,2,1:2:0:0:
488,182,126775,6,0,P|446:299|421:420,1,210.6,6|8,1:2|2:0,2:0:0:0:
343,301,127132,1,0,1:2:0:0:
311,301,127251,1,10,2:0:0:0:
253,350,127370,1,2,1:2:0:0:
189,290,127489,6,0,B|138:258|82:292|101:315|56:354|-5:324,1,210.6,6|8,1:2|2:0,2:0:0:0:
12,222,127846,1,0,1:2:0:0:
40,207,127965,1,10,2:0:0:0:
109,265,128084,1,2,1:2:0:0:
192,200,128204,6,0,B|232:134|313:151|313:151|325:198|394:219,1,210.6,2|8,1:2|2:0,2:0:0:0:
441,151,128561,1,0,1:2:0:0:
429,113,128680,1,10,2:0:0:0:
420,18,128799,1,0,1:2:0:0:
333,67,128918,6,0,P|294:59|249:50,1,74.52,10|8,2:0|2:0,2:0:0:0:
162,24,129156,1,8,2:3:0:0:
98,100,129275,1,4,2:3:0:0:
100,106,129334,1,4,2:3:0:0:
101,113,129394,1,8,2:3:0:0:
172,179,129513,1,4,2:3:0:0:
278,182,129632,6,0,P|326:193|364:201,1,74.52,14|0,2:0|1:2,2:0:0:0:
157,276,129870,2,0,P|205:287|243:295,1,74.52,8|0,2:0|1:2,2:0:0:0:
349,294,130108,2,0,P|397:305|435:313,1,74.52,8|0,2:0|1:2,2:0:0:0:
476,223,130346,5,4,1:2:0:0:
367,65,130584,2,0,P|326:62|289:80,1,82.62,8|8,2:0|2:0,2:0:0:0:
230,20,130823,2,0,P|207:54|204:94,1,82.62,0|0,1:2|1:2,2:0:0:0:
113,196,131061,6,0,P|174:145|252:164,1,165.24,8|0,2:0|1:2,2:0:0:0:
282,247,131418,1,0,2:0:0:0:
282,247,131537,2,0,L|289:335,1,82.62,8|0,2:0|2:0,2:0:0:0:
116,361,131775,6,0,L|109:278,1,82.62,0|0,1:2|2:0,2:0:0:0:
194,231,132013,2,0,L|200:313,1,82.62,8|8,2:0|2:0,2:0:0:0:
379,363,132251,2,0,L|372:280,1,82.62,0|0,1:2|1:2,2:0:0:0:
506,241,132489,6,0,B|461:252|429:220|429:220|397:188|353:200,1,165.24,8|0,2:0|1:2,2:0:0:0:
291,262,132846,1,0,2:0:0:0:
218,224,132965,1,8,2:0:0:0:
139,135,133084,1,0,2:0:0:0:
66,173,133204,6,0,P|42:245|33:336,1,165.24,0|8,1:2|2:0,2:0:0:0:
172,384,133561,1,8,2:0:0:0:
193,306,133680,2,0,P|141:309|106:336,1,82.62,0|0,1:2|1:2,2:0:0:0:
267,339,133918,6,0,B|286:299|261:261|261:261|235:224|255:182,1,165.24,8|0,2:0|1:2,2:0:0:0:
422,117,134275,1,0,2:0:0:0:
405,196,134394,2,0,P|369:215|329:215,1,82.62,8|0,2:0|2:0,2:0:0:0:
193,97,134632,6,0,P|269:92|344:140,1,165.24,0|8,1:2|2:0,2:0:0:0:
115,35,134989,1,8,2:0:0:0:
103,122,135108,2,0,P|82:160|54:199,1,82.62,0|0,1:2|1:2,2:0:0:0:
48,330,135346,2,0,P|89:328|130:333,1,82.6200000000001,8|0,2:0|1:2,2:0:0:0:
256,273,135584,2,0,P|234:239|217:201,1,82.6200000000001,8|0,2:0|1:2,2:0:0:0:
135,241,135823,1,8,1:3:0:0:
135,241,135942,1,4,1:3:0:0:
226,360,136061,1,4,1:2:0:0:
363,184,136299,6,0,B|406:175|406:175|449:205,1,82.6200000000001,8|8,2:0|2:0,2:0:0:0:
421,285,136537,2,0,B|378:294|378:294|335:264,1,82.6200000000001,0|0,1:2|1:2,2:0:0:0:
257,167,136775,2,0,P|231:78|225:-13,1,165.24,8|0,2:0|1:2,2:0:0:0:
166,154,137132,1,0,2:0:0:0:
79,81,137251,2,0,P|4:129|14:179,1,123.93,8|0,2:0|2:0,2:0:0:0:
12,175,137489,6,0,B|49:198|99:181|79:157|128:137|166:154,1,165.24,0|8,1:2|2:0,2:0:0:0:
222,261,137846,1,8,2:0:0:0:
154,311,137965,2,0,P|138:273|141:233,1,82.6200000000001,0|0,1:2|1:2,2:0:0:0:
249,114,138204,6,0,B|314:128|314:128|331:156|331:156|422:175,2,165.24,8|0|8,2:0|1:2|2:0,2:0:0:0:
172,67,138799,1,0,2:0:0:0:
286,17,138918,1,0,1:2:0:0:
482,189,139156,6,0,P|481:230|463:267,1,82.6200000000001,8|8,2:0|2:0,2:0:0:0:
375,245,139394,2,0,P|375:205|393:168,1,82.6200000000001,0|0,1:2|1:2,2:0:0:0:
403,324,139632,2,0,B|366:346|316:329|336:305|287:285|249:303,1,165.24,8|0,2:0|1:2,2:0:0:0:
117,258,139989,1,0,2:0:0:0:
178,149,140108,2,0,P|193:191|196:235,1,82.6200000000001,8|0,2:0|2:0,2:0:0:0:
314,107,140346,6,0,P|290:186|283:268,1,165.24,12|0,2:0|1:2,2:0:0:0:
394,168,140704,1,12,2:0:0:0:
431,77,140823,2,0,L|517:61,1,82.6200000000001,0|0,2:0|1:2,2:0:0:0:
292,19,141061,6,0,P|255:34|228:82,1,82.6200000000001,8|8,2:0|2:0,2:0:0:0:
283,268,141299,2,0,P|288:228|260:181,1,82.6200000000001,8|8,2:3|2:3,2:0:0:0:
71,135,141537,2,0,P|102:159|157:158,1,82.6200000000001,4|4,2:3|2:3,2:0:0:0:
314,107,141775,1,4,1:2:0:0:
186,253,142013,6,0,P|165:299|159:380,2,116.64,0|0|8,2:0|2:0|2:0,2:0:0:0:
283,268,142608,1,0,2:0:0:0:
283,268,142727,2,0,L|349:260,1,58.32,2|0,1:2|1:2,2:0:0:0:
265,354,142965,6,0,L|397:338,1,116.64,2|0,1:2|2:0,2:0:0:0:
463,294,143322,1,0,1:2:0:0:
463,294,143441,2,0,P|432:243|442:192,1,87.4799999999999,0|0,1:2|2:0,2:0:0:0:
441,203,143679,2,0,P|471:207|504:213,1,58.32,8|0,2:0|2:0,2:0:0:0:
369,148,143917,2,0,P|340:153|311:156,1,58.32,2|0,1:2|1:2,2:0:0:0:
293,249,144155,6,0,B|248:239|248:239|234:219|234:219|188:208,1,116.64,2|0,1:2|2:0,2:0:0:0:
122,143,144513,2,0,B|90:166|90:166|102:254,1,116.64,0|0,1:2|2:0,2:0:0:0:
168,352,144870,2,0,L|174:288,1,58.32,8|0,2:0|2:0,2:0:0:0:
249,384,145108,2,0,L|255:320,1,58.32,2|0,1:2|1:2,2:0:0:0:
336,235,145346,6,0,B|380:214|429:238|407:258|445:289|497:278,1,174.96,2|0,1:2|1:2,2:0:0:0:
265,186,146060,2,0,P|251:218|252:258,1,58.32,8|0,2:0|2:0,2:0:0:0:
228,109,146298,2,0,P|199:129|180:164,1,58.32,2|0,1:2|1:2,2:0:0:0:
317,117,146536,1,2,1:2:0:0:
156,63,146775,6,0,P|212:68|259:35,2,116.64,0|0|8,2:0|2:0|2:0,2:0:0:0:
86,115,147370,1,0,2:0:0:0:
86,115,147489,2,0,P|72:83|73:43,1,58.32,2|0,1:2|1:2,2:0:0:0:
42,185,147727,6,0,P|92:161|158:169,1,116.64,2|0,1:2|2:0,2:0:0:0:
222,233,148084,1,0,1:2:0:0:
222,233,148203,2,0,P|229:274|214:325,1,87.4799999999999,0|0,2:0|2:0,2:0:0:0:
202,331,148441,2,0,L|132:318,1,58.32,8|0,2:0|2:0,2:0:0:0:
274,384,148679,2,0,L|344:371,1,58.32,2|0,1:2|1:2,2:0:0:0:
411,291,148917,6,0,B|337:267|337:267|295:300,1,116.64,2|0,1:2|2:0,2:0:0:0:
202,331,149275,2,0,P|221:273|230:200,1,116.64,0|0,1:2|2:0,2:0:0:0:
300,126,149632,2,0,P|304:158|314:198,1,58.32,8|0,2:0|2:0,2:0:0:0:
146,217,149870,2,0,P|152:188|155:159,1,58.32,2|0,1:2|1:2,2:0:0:0:
18,116,150108,6,0,B|58:134|102:111|80:85|129:61|184:81,1,166.05,2|0,2:0|2:0,2:0:0:0:
189,82,150465,2,0,P|229:100|272:101,1,82.6199999999999,2|0,2:0|2:0,2:0:0:0:
463,11,150822,5,8,2:0:0:0:
455,40,150881,1,8,2:0:0:0:
449,69,150941,1,8,2:0:0:0:
442,98,151000,1,8,2:0:0:0:
435,128,151060,6,0,L|374:139,3,41.31,8|8|4|4,2:3|2:3|2:3|2:3,2:0:0:0:
396,224,151298,2,0,L|335:213,3,41.31,8|8|4|4,2:3|2:3|2:3|2:3,2:0:0:0:
299,144,151536,1,4,1:2:0:0:
122,252,151774,6,0,B|96:284|96:284|105:342,1,82.62,0|0,2:0|1:2,2:0:0:0:
192,344,152012,2,0,B|218:312|218:312|209:254,1,82.62,0|0,2:0|1:2,2:0:0:0:
38,197,152250,2,0,P|114:216|173:162,1,165.24,0|10,1:2|2:0,2:0:0:0:
166,66,152607,1,8,2:0:0:0:
166,66,152726,1,10,2:0:0:0:
495,314,153083,5,0,1:2:0:0:
420,279,153202,2,0,P|397:236|403:184,1,82.62,0|0,2:0|1:2,2:0:0:0:
512,69,153440,2,0,P|486:110|438:131,1,82.62,0|0,1:2|2:0,2:0:0:0:
285,95,153678,2,0,P|333:96|375:127,1,82.62,10|8,2:0|2:0,2:0:0:0:
290,215,153916,6,0,B|245:224|211:184|233:177|198:137|152:143,1,165.24,10|0,2:0|2:0,2:0:0:0:
94,72,154274,2,0,P|127:147|150:226,1,165.24,0|0,1:2|1:2,2:0:0:0:
78,272,154571,1,0,1:2:0:0:
70,262,154631,2,0,P|39:236|0:242,1,82.62,0|0,1:2|2:0,2:0:0:0:
185,315,154869,2,0,P|229:319|256:293,1,82.62,10|8,2:0|2:0,2:0:0:0:
369,364,155107,6,0,L|378:184,1,165.24,10|0,2:0|2:0,2:0:0:0:
274,127,155464,2,0,B|265:168|265:168|287:217,1,82.62,0|0,1:2|1:2,2:0:0:0:
366,107,155702,1,8,2:0:0:0:
366,107,155821,1,8,2:0:0:0:
287,37,155940,2,0,P|249:19|209:9,2,82.62,8|4|8,2:3|2:3|2:0,2:0:0:0:
274,127,156297,6,0,B|221:116|151:142|151:142|110:106|142:68,1,200.88,2|0,1:2|2:0,2:0:0:0:
56,21,156892,1,0,2:0:0:0:
56,21,157011,6,0,P|88:115|107:229,1,200.88,2|0,1:2|2:0,2:0:0:0:
61,303,157606,1,0,2:0:0:0:
127,355,157725,6,0,B|182:373|231:337|198:314|244:268|302:281,1,200.88,2|0,1:2|2:0,2:0:0:0:
306,290,158261,1,0,2:0:0:0:
310,303,158320,2,0,L|300:326,1,25.11,0|0,1:2|1:2,2:0:0:0:
390,285,158439,6,0,P|382:220|362:154,1,123.93,12|0,2:0|2:0,2:0:0:0:
353,150,158677,2,0,L|270:137,1,82.6200000000001,8|8,2:0|2:0,2:0:0:0:
418,70,158916,2,0,L|501:57,1,82.6200000000001,8|4,2:3|2:3,2:0:0:0:
446,170,159154,5,12,2:0:0:0:
325,54,159273,1,0,1:2:0:0:
301,231,159392,1,0,1:2:0:0:
219,65,159511,2,0,P|166:52|111:50,2,90.72,12|0|0,2:0|1:2|1:2,2:0:0:0:
297,147,159868,6,0,P|251:151|208:162,1,90.72,12|0,2:0|1:2,2:0:0:0:
84,233,160106,2,0,P|103:191|115:148,1,90.72,12|0,2:0|1:2,2:0:0:0:
116,5,160344,2,0,P|142:42|173:74,1,90.72,12|0,2:0|1:2,2:0:0:0:
227,312,160582,6,0,P|223:279|218:256,1,50.2200000000001,2|2,2:0|2:0,2:0:0:0:
430,353,160820,2,0,P|434:320|439:297,1,50.2200000000001,2|2,2:0|2:0,2:0:0:0:
417,68,161058,5,2,2:0:0:0:
458,193,161177,1,2,2:0:0:0:
336,156,161297,1,2,2:0:0:0:
329,141,161773,5,0,2:0:0:0:
231,177,161892,1,0,2:0:0:0:
79,108,162011,6,0,L|-16:92,1,82.62,6|0,1:2|2:0,2:0:0:0:
113,212,162249,1,10,2:0:0:0:
136,29,162368,2,0,L|41:13,1,82.62,2|0,1:2|2:0,2:0:0:0:
132,192,162606,1,2,1:2:0:0:
228,82,162725,6,0,B|287:66|287:66|306:32|306:32|368:15,1,165.24,10|0,2:0|1:2,2:0:0:0:
458,128,163082,1,0,1:2:0:0:
386,178,163201,2,0,B|362:143|362:143|376:88,1,82.62,10|0,2:0|2:0,2:0:0:0:
449,266,163439,6,0,B|409:274|365:246|395:225|354:194|306:204,1,165.24,2|8,1:2|2:0,2:0:0:0:
142,280,163797,2,0,B|231:237|231:237|245:272|283:285,1,165.24,2|0,1:2|1:2,2:0:0:0:
236,151,164154,2,0,P|226:108|219:57,1,82.62,8|0,2:0|2:0,2:0:0:0:
103,25,164392,2,0,P|113:68|120:119,1,82.62,0|0,1:2|1:2,2:0:0:0:
42,201,164630,1,10,2:0:0:0:
35,206,164749,1,2,2:0:0:0:
142,280,164868,6,0,B|165:246|165:246|154:177,1,82.62,6|0,1:2|2:0,2:0:0:0:
90,122,165106,1,10,2:0:0:0:
239,164,165225,2,0,B|221:127|221:127|155:102,1,82.62,2|0,1:2|2:0,2:0:0:0:
80,122,165463,1,2,1:2:0:0:
248,246,165582,6,0,B|288:249|329:217|297:199|334:164|383:169,1,165.24,10|0,2:0|1:2,2:0:0:0:
512,287,165939,1,0,1:2:0:0:
419,309,166058,2,0,P|430:268|449:210,1,82.62,10|0,2:0|2:0,2:0:0:0:
433,84,166297,6,0,B|406:43|347:57|347:57|333:97|289:102,1,165.24,2|8,1:2|2:0,2:0:0:0:
105,66,166654,2,0,B|147:91|205:88|205:88|227:123|191:151,1,165.24,2|0,1:2|1:2,2:0:0:0:
299,269,167011,2,0,P|289:226|280:184,1,82.62,8|0,2:0|2:0,2:0:0:0:
190,360,167249,2,0,P|180:317|171:275,1,82.62,0|0,1:2|1:2,2:0:0:0:
87,193,167487,1,10,2:0:0:0:
79,188,167606,1,2,2:0:0:0:
175,63,167725,6,0,P|216:77|234:128,1,82.62,6|0,1:2|2:0,2:0:0:0:
192,195,167963,1,10,2:0:0:0:
328,89,168082,2,0,P|337:132|302:173,1,82.62,2|0,1:2|2:0,2:0:0:0:
183,195,168320,1,2,1:2:0:0:
277,15,168439,6,0,P|346:57|427:49,1,165.24,10|0,2:0|1:2,2:0:0:0:
512,116,168797,1,0,1:2:0:0:
426,154,168916,2,0,P|400:197|405:254,1,82.62,10|0,2:0|2:0,2:0:0:0:
300,381,169154,6,0,P|287:299|263:216,1,165.24,6|8,1:2|2:0,2:0:0:0:
122,68,169511,2,0,P|109:150|85:233,1,165.24,0|0,1:2|1:2,2:0:0:0:
203,157,169868,6,0,P|242:135|294:141,1,82.62,10|0,2:0|2:0,2:0:0:0:
207,351,170106,2,0,P|168:328|147:280,1,82.62,0|0,1:2|1:2,2:0:0:0:
373,251,170344,2,0,P|372:295|341:337,1,82.62,8|0,2:0|2:0,2:0:0:0:
345,106,170582,6,0,B|379:83|379:83|448:94,1,82.62,6|0,1:2|2:0,2:0:0:0:
503,158,170820,1,10,2:0:0:0:
461,9,170939,2,0,B|498:27|498:27|523:93,1,82.62,2|0,1:2|1:2,2:0:0:0:
503,174,171177,1,0,1:2:0:0:
368,217,171297,6,0,B|334:194|334:194|265:205,1,82.62,14|0,2:0|2:0,2:0:0:0:
210,269,171535,1,0,1:2:0:0:
252,120,171654,2,0,B|215:138|215:138|190:204,1,82.62,0|10,1:2|2:0,2:0:0:0:
210,285,171892,1,0,1:2:0:0:
73,115,172011,6,0,B|95:138|114:158|114:158|100:206|86:260,1,165.24,12|0,2:0|1:2,2:0:0:0:
267,317,172368,2,0,B|250:255|250:255|216:236|216:236|200:177,1,165.24,14|0,2:0|1:2,2:0:0:0:
339,80,172725,2,0,P|333:125|328:178,1,82.62,10|8,2:0|2:0,2:0:0:0:
456,197,172963,2,0,P|462:242|467:295,1,82.62,8|4,2:3|2:3,2:0:0:0:
431,363,173201,1,8,2:0:0:0:
428,376,173320,1,8,2:0:0:0:
351,249,173439,6,0,P|310:263|292:314,1,82.62,6|0,1:2|2:0,2:0:0:0:
334,381,173677,1,10,2:0:0:0:
198,275,173797,2,0,P|189:318|224:359,1,82.62,2|0,1:2|2:0,2:0:0:0:
343,381,174035,1,2,1:2:0:0:
244,193,174154,6,0,B|218:150|163:162|163:162|146:208|102:215,1,165.24,10|0,2:0|1:2,2:0:0:0:
6,103,174511,1,0,1:2:0:0:
83,136,174630,2,0,P|125:132|185:101,1,82.62,10|0,2:0|2:0,2:0:0:0:
350,108,174868,6,0,B|308:83|250:86|250:86|228:51|264:23,1,165.24,2|8,1:2|2:0,2:0:0:0:
430,81,175225,2,0,B|449:116|436:167|407:145|390:193|415:236,1,165.24,2|0,1:2|1:2,2:0:0:0:
495,324,175582,2,0,P|501:283|510:242,1,82.62,8|0,2:0|2:0,2:0:0:0:
343,293,175820,2,0,P|352:333|358:374,1,82.62,0|0,1:2|1:2,2:0:0:0:
414,235,176058,1,10,2:0:0:0:
420,226,176177,1,2,2:0:0:0:
264,183,176297,6,0,L|169:167,1,82.62,6|0,1:2|2:0,2:0:0:0:
298,287,176535,1,10,2:0:0:0:
321,104,176654,2,0,L|226:88,1,82.62,2|0,1:2|2:0,2:0:0:0:
317,267,176892,1,2,1:2:0:0:
430,139,177011,6,0,B|452:46|452:46|416:33|402:-3,2,165.24,10|2|10,2:0|1:2|2:0,2:0:0:0:
298,287,177725,6,0,B|255:311|194:295|220:260|162:239|111:269,1,199.26,6|0,1:2|1:2,2:0:0:0:
51,342,178201,1,0,1:2:0:0:
54,352,178320,1,0,1:2:0:0:
15,255,178439,6,0,P|5:217|-1:180,1,66.4200000000001,14|0,2:0|2:0,2:0:0:0:
102,29,178677,2,0,P|108:61|116:93,1,66.4200000000001,0|0,1:2|1:2,2:0:0:0:
262,213,178916,2,0,P|252:175|245:138,1,66.4200000000001,8|0,2:0|1:2,2:0:0:0:
195,287,179154,6,0,P|177:323|150:344,1,66.4200000000001,4|0,1:2|2:0,2:0:0:0:
366,187,179392,1,0,2:0:0:0:
194,89,179630,1,0,2:0:0:0:
310,324,179868,5,4,1:2:0:0:
418,368,180106,1,0,2:0:0:0:
508,293,180344,1,0,2:0:0:0:
385,65,180582,6,0,L|397:-4,1,66.4200000000001,4|0,1:2|2:0,2:0:0:0:
366,187,180820,1,0,2:0:0:0:
345,312,181058,1,0,2:0:0:0:
457,116,181297,6,0,B|478:80|478:80|465:28,1,82.62,14|0,2:0|1:2,2:0:0:0:
289,136,181535,2,0,B|267:171|267:171|280:223,1,82.62,14|0,2:0|1:2,2:0:0:0:
428,288,181773,2,0,B|438:328|438:328|417:364,1,82.62,14|0,2:0|1:2,2:0:0:0:
164,375,182011,6,0,B|243:357|243:357|262:329|262:329|344:312,1,199.26,6|0,1:2|1:2,2:0:0:0:
193,219,182487,6,0,P|186:265|176:305,1,66.4200000000001,8|0,2:0|1:2,2:0:0:0:
304,145,182725,6,0,P|311:191|321:231,1,74.52,10|0,2:0|1:2,2:0:0:0:
142,65,182963,6,0,P|135:111|125:151,1,82.62,8|0,2:0|1:2,2:0:0:0:
394,0,183201,6,0,P|401:47|411:89,1,90.72,8|0,2:0|1:2,2:0:0:0:
392,182,183439,5,14,2:0:0:0:
376,160,183499,1,8,2:0:0:0:
353,145,183558,1,8,2:0:0:0:
327,139,183618,1,8,2:0:0:0:
304,145,183677,2,0,L|263:153,3,41.31,8|8|4|4,2:3|2:3|2:3|2:3,2:0:0:0:
189,203,183916,6,0,P|185:182|179:162,1,41.31,8|8,2:3|2:3,2:0:0:0:
104,121,184035,2,0,P|100:100|94:80,1,41.31,4|4,2:3|2:3,2:0:0:0:
136,3,184154,6,0,B|188:-5|200:38|200:38|185:66|201:105,1,123.93,10|0,2:0|2:0,2:0:0:0:
275,68,184392,2,0,P|317:58|358:51,1,82.62,10|0,2:0|1:2,2:0:0:0:
484,183,184630,2,0,P|442:173|401:166,1,82.62,10|0,2:0|1:2,2:0:0:0:
314,276,184868,5,6,1:2:0:0:
402,323,190582,6,0,P|359:326|322:305,1,87.4799999999999,4|0,1:2|2:0,2:0:0:0:
319,287,190820,1,2,2:0:0:0:
241,340,190939,1,10,2:0:0:0:
62,167,191177,5,10,2:0:0:0:
49,163,191297,2,0,P|35:188|35:217,1,58.32,10|0,2:0|2:0,2:0:0:0:
128,241,191535,2,0,P|142:215|142:186,1,58.32,2|0,1:2|2:0,2:0:0:0:
59,81,191773,1,10,2:0:0:0:
95,320,192011,1,2,1:2:0:0:
219,48,192368,6,0,B|252:23|252:23|324:45,1,116.64,10|10,2:0|2:0,2:0:0:0:
331,140,192725,2,0,L|275:121,1,58.32,10|0,2:0|2:0,2:0:0:0:
412,91,192963,2,0,L|421:177,1,87.4799999999999,2|0,1:2|2:0,2:0:0:0:
421,191,193201,2,0,L|476:172,1,58.32,10|0,2:0|2:0,2:0:0:0:
275,235,193439,5,2,1:2:0:0:
341,318,193797,2,0,P|341:262|294:234,1,116.64,10|10,2:0|2:0,2:0:0:0:
220,358,194154,2,0,P|243:326|263:321,1,58.32,10|0,2:0|2:0,2:0:0:0:
398,342,194392,2,0,L|341:328,1,58.32,2|0,1:2|2:0,2:0:0:0:
262,310,194630,2,0,L|205:296,1,58.32,10|0,2:0|2:0,2:0:0:0:
17,353,194868,5,2,1:2:0:0:
107,283,195106,1,0,2:0:0:0:
107,283,195225,2,0,B|98:303|98:303|125:343,2,58.32,10|0|10,2:0|2:0|2:0,2:0:0:0:
154,180,195582,2,0,P|171:139|173:96,1,87.4799999999999,10|0,2:0|2:0,2:0:0:0:
190,82,195820,2,0,P|184:38|161:15,1,58.32,2|0,1:2|2:0,2:0:0:0:
16,103,196058,2,0,B|52:133|52:133|97:121,1,87.4799999999999,10|0,2:0|2:0,2:0:0:0:
62,93,196297,1,6,1:2:0:0:
241,200,196535,6,0,P|291:180|356:181,1,116.64,2|0,2:0|2:0,2:0:0:0:
230,208,196892,1,10,2:0:0:0:
365,182,197011,2,0,P|373:210|357:239,1,58.32,10|0,2:0|2:0,2:0:0:0:
356,328,197249,2,0,P|333:312|305:303,1,58.32,2|0,1:2|2:0,2:0:0:0:
450,231,197487,2,0,P|450:260|427:284,1,58.32,10|0,2:0|2:0,2:0:0:0:
291,308,197725,6,0,P|315:356|368:345,1,116.64,2|0,1:2|2:0,2:0:0:0:
206,279,198082,1,10,2:0:0:0:
140,337,198201,2,0,P|111:334|86:320,1,58.32,0|10,2:0|2:0,2:0:0:0:
86,176,198439,5,10,2:0:0:0:
78,309,198558,2,0,L|85:179,1,116.64,0|0,2:0|2:0,2:0:0:0:
149,111,198916,2,0,P|174:96|202:94,1,58.32,10|0,2:0|2:0,2:0:0:0:
39,103,199154,1,2,1:2:0:0:
304,28,199392,6,0,P|303:73|315:116,1,91.1250000000002,2|0,2:0|2:0,2:0:0:0:
321,130,199630,2,0,L|400:118,1,60.7500000000002,2|8,2:0|2:0,2:0:0:0:
479,241,199868,2,0,L|389:226,1,91.1250000000002,10|0,2:0|2:0,2:0:0:0:
374,232,200106,2,0,P|366:262|375:290,1,60.7500000000002,2|0,1:2|2:0,2:0:0:0:
287,367,200344,2,0,P|265:346|258:318,1,60.7500000000002,10|0,2:0|2:0,2:0:0:0:
114,200,200582,2,0,B|189:174|180:251|281:223,1,151.875,2|0,1:2|2:0,2:0:0:0:
278,216,200939,1,0,1:2:0:0:
200,15,201177,6,0,L|207:44,1,30.3750000000001,0|0,1:2|1:2,2:0:0:0:
195,0,201297,1,8,2:0:0:0:
72,30,201416,1,8,2:0:0:0:
49,123,201535,1,8,2:3:0:0:
91,186,201654,1,4,2:3:0:0:
114,200,201773,2,0,P|142:162|145:131,1,60.7500000000002,8|4,2:3|2:3,2:0:0:0:
257,227,202011,6,0,P|134:233|26:289,1,246.645,6|0,1:2|2:0,2:0:0:0:
16,301,202487,2,0,L|28:370,1,70.4700000000001,0|0,1:2|1:2,2:0:0:0:
330,249,202725,6,0,P|210:223|90:249,1,246.645,10|0,2:0|2:0,2:0:0:0:
78,258,203201,2,0,L|72:328,1,70.4700000000001,8|0,2:0|2:0,2:0:0:0:
390,288,203439,6,0,P|281:232|154:229,1,246.645,2|0,1:2|2:0,2:0:0:0:
145,232,203916,2,0,L|121:298,1,70.4700000000001,0|0,2:0|1:2,2:0:0:0:
439,341,204154,6,0,P|348:259|231:224,1,246.645,10|0,2:0|2:0,2:0:0:0:
217,224,204630,2,0,L|176:281,1,70.4700000000001,8|0,2:0|2:0,2:0:0:0:
19,78,204868,6,0,P|126:68|114:175,1,246.645,6|0,1:2|2:0,2:0:0:0:
108,185,205344,2,0,L|24:170,1,70.4700000000001,0|0,1:2|1:2,2:0:0:0:
201,7,205582,6,0,P|298:52|235:139,1,246.645,10|0,2:0|2:0,2:0:0:0:
224,144,206058,2,0,L|158:89,1,70.4700000000001,8|0,2:0|2:0,2:0:0:0:
394,36,206297,6,0,P|456:124|357:167,1,246.645,2|0,1:2|2:0,2:0:0:0:
345,166,206773,2,0,L|315:85,1,70.4700000000001,0|0,2:0|1:2,2:0:0:0:
277,329,207011,6,0,P|322:303|375:298,1,105.705,14|0,2:0|2:0,2:0:0:0:
389,304,207249,2,0,L|365:370,1,70.4700000000001,8|8,2:0|2:0,2:0:0:0:
247,208,207487,2,0,L|223:274,1,70.4700000000001,8|4,2:3|2:3,2:0:0:0:
472,275,207725,6,0,L|431:31,1,246.645,6|0,1:2|2:0,2:0:0:0:
428,13,208201,2,0,L|346:26,1,70.4700000000001,0|0,1:2|1:2,2:0:0:0:
366,371,208439,6,0,L|389:125,1,246.645,10|0,2:0|2:0,2:0:0:0:
391,106,208916,2,0,L|308:98,1,70.4700000000001,8|0,2:0|2:0,2:0:0:0:
295,276,209154,6,0,L|254:32,1,246.645,2|0,1:2|2:0,2:0:0:0:
251,14,209630,2,0,L|169:27,1,70.4700000000001,0|0,2:0|1:2,2:0:0:0:
189,372,209868,6,0,L|212:126,1,246.645,10|0,2:0|2:0,2:0:0:0:
214,107,210344,2,0,L|131:99,1,70.4700000000001,8|0,2:0|1:2,2:0:0:0:
0,354,210582,6,0,P|104:239|184:253,1,246.645,14|0,2:0|2:0,2:0:0:0:
199,259,211058,2,0,P|231:270|266:264,1,70.4700000000001,0|0,1:2|1:2,2:0:0:0:
30,6,211297,6,0,P|181:38|209:114,1,246.645,14|0,2:0|2:0,2:0:0:0:
211,129,211773,2,0,P|217:163|239:190,1,70.4700000000001,0|0,1:2|1:2,2:0:0:0:
413,68,212011,6,0,B|423:42|465:35|465:35|372:31|304:107,1,246.645,14|0,2:0|2:0,2:0:0:0:
296,121,212487,2,0,L|372:133,1,70.4700000000001,0|0,1:2|1:2,2:0:0:0:
373,283,212725,5,10,2:0:0:0:
293,344,212844,1,8,2:0:0:0:
207,360,212963,1,8,2:3:0:0:
170,353,213082,1,4,2:3:0:0:
157,345,213201,2,0,P|130:324|122:291,1,70.4700000000001,8|4,2:3|2:3,2:0:0:0:
255,227,213439,6,0,P|378:233|486:289,1,246.645,6|0,1:2|2:0,2:0:0:0:
496,301,213916,2,0,L|484:370,1,70.4700000000001,0|0,1:2|1:2,2:0:0:0:
182,249,214154,6,0,P|302:223|422:249,1,246.645,10|0,2:0|2:0,2:0:0:0:
434,258,214630,2,0,L|440:328,1,70.4700000000001,8|0,2:0|2:0,2:0:0:0:
122,288,214868,6,0,P|231:232|358:229,1,246.645,2|0,1:2|2:0,2:0:0:0:
367,232,215344,2,0,L|391:298,1,70.4700000000001,0|0,2:0|1:2,2:0:0:0:
73,341,215582,6,0,P|164:259|281:224,1,246.645,10|0,2:0|2:0,2:0:0:0:
295,224,216058,2,0,L|336:281,1,70.4700000000001,8|0,2:0|2:0,2:0:0:0:
493,78,216297,6,0,P|385:68|397:175,1,246.645,6|0,1:2|2:0,2:0:0:0:
404,185,216773,2,0,L|488:170,1,70.4700000000001,0|0,1:2|1:2,2:0:0:0:
311,7,217011,6,0,P|213:52|276:139,1,246.645,10|0,2:0|2:0,2:0:0:0:
288,144,217487,2,0,L|353:89,1,70.4700000000001,8|0,2:0|2:0,2:0:0:0:
118,36,217725,6,0,P|55:124|154:167,1,246.645,2|0,1:2|2:0,2:0:0:0:
167,166,218201,2,0,L|196:85,1,70.4700000000001,0|0,2:0|1:2,2:0:0:0:
235,329,218439,6,0,P|189:303|136:298,1,105.705,14|0,2:0|2:0,2:0:0:0:
123,304,218677,2,0,L|146:370,1,70.4700000000001,8|8,2:0|2:0,2:0:0:0:
265,208,218916,2,0,L|288:274,1,70.4700000000001,8|4,2:3|2:3,2:0:0:0:
40,275,219154,6,0,L|80:31,1,246.645,6|0,1:2|2:0,2:0:0:0:
84,13,219630,2,0,L|165:26,1,70.4700000000001,0|0,1:2|1:2,2:0:0:0:
146,371,219868,6,0,L|122:125,1,246.645,10|0,2:0|2:0,2:0:0:0:
121,106,220344,2,0,L|203:98,1,70.4700000000001,8|0,2:0|2:0,2:0:0:0:
217,276,220582,6,0,L|257:32,1,246.645,2|0,1:2|2:0,2:0:0:0:
261,14,221058,2,0,L|342:27,1,70.4700000000001,0|0,2:0|1:2,2:0:0:0:
323,372,221297,6,0,L|299:126,1,246.645,10|0,2:0|2:0,2:0:0:0:
298,107,221773,2,0,L|380:99,1,70.4700000000001,8|0,2:0|1:2,2:0:0:0:
472,317,222011,6,0,P|440:301|406:293,1,70.4700000000001,14|0,2:0|1:2,2:0:0:0:
195,204,222249,2,0,P|203:170|219:139,1,70.4700000000001,8|0,2:0|1:2,2:0:0:0:
420,202,222487,2,0,P|384:204|351:214,1,70.4700000000001,8|0,2:0|1:2,2:0:0:0:
179,295,222725,6,0,L|188:364,1,70.4700000000001,10|0,2:0|1:2,2:0:0:0:
21,192,222963,2,0,L|6:260,1,70.4700000000001,8|0,2:0|1:2,2:0:0:0:
185,76,223201,2,0,L|218:138,1,70.4700000000001,8|0,2:0|1:2,2:0:0:0:
93,281,223439,6,0,L|108:213,1,70.4700000000001,14|0,2:0|1:2,2:0:0:0:
128,132,223677,1,0,1:2:0:0:
85,62,223797,2,0,L|51:0,2,70.4700000000001,12|0|0,2:0|1:2|1:2,2:0:0:0:
218,138,224154,5,12,2:0:0:0:
198,216,224273,1,8,2:0:0:0:
179,295,224392,1,8,2:0:0:0:
129,360,224511,2,0,P|99:378|64:378,2,70.4700000000001,8|8|8,2:0|2:0|2:0,2:0:0:0:
277,244,224868,6,0,L|266:302,1,54.2699999999999,2|2,2:0|2:0,2:0:0:0:
372,232,225106,6,0,L|346:285,1,54.2699999999999,2|2,2:0|2:0,2:0:0:0:
468,245,225344,6,0,L|429:289,1,54.2699999999999,2|2,2:0|2:0,2:0:0:0:
511,324,225582,5,2,2:0:0:0:
406,92,226297,5,6,1:2:0:0:
201,218,237487,5,0,2:0:0:0:
288,272,237606,1,0,2:0:0:0:
422,163,237725,6,0,P|339:152|303:188,1,123.93,6|0,1:2|2:0,2:0:0:0:
303,187,237963,1,10,2:0:0:0:
464,78,238082,2,0,P|433:176|441:278,1,206.55,2|0,1:2|2:0,2:0:0:0:
445,295,238439,1,10,2:0:0:0:
457,308,238499,1,0,1:2:0:0:
468,316,238558,2,0,P|486:357|484:372,4,41.31,0|0|0|0|0,1:2|1:2|1:2|1:2|1:2,2:0:0:0:
363,290,238916,5,10,2:0:0:0:
267,366,239035,1,0,2:0:0:0:
238,244,239154,2,0,L|157:227,1,82.62,2|0,1:2|2:0,2:0:0:0:
0,334,239392,2,0,L|80:350,1,82.62,8|2,2:0|1:2,2:0:0:0:
148,139,239630,2,0,L|75:178,1,82.62,0|0,2:0|1:2,2:0:0:0:
98,351,239868,6,0,L|62:172,1,165.24,8|0,2:0|1:2,2:0:0:0:
45,87,240225,1,0,1:2:0:0:
120,19,240344,2,0,P|159:29|186:59,1,82.62,10|2,2:0|2:0,2:0:0:0:
306,186,240582,6,0,P|271:135|273:75,1,123.93,6|0,1:2|2:0,2:0:0:0:
282,59,240820,1,10,2:0:0:0:
415,72,240939,2,0,P|377:81|351:112,1,81,2|0,1:2|2:0,2:0:0:0:
420,241,241177,1,2,1:2:0:0:
490,192,241297,2,0,P|462:163|422:155,1,81,10|0,2:0|2:0,2:0:0:0:
306,186,241535,1,2,1:2:0:0:
291,192,241654,1,0,1:2:0:0:
407,321,241773,2,0,L|419:240,1,81,10|0,2:0|2:0,2:0:0:0:
292,288,242011,6,0,L|304:368,1,81,6|0,1:2|2:0,2:0:0:0:
177,297,242249,2,0,L|189:216,1,81,8|0,2:0|1:2,2:0:0:0:
81,304,242487,2,0,L|93:384,1,81,8|0,2:0|1:2,2:0:0:0:
185,117,242725,6,0,P|93:75|104:175,1,243,14|4,2:0|2:3,2:0:0:0:
62,20,243201,2,0,B|57:61|57:61|28:89,1,81,8|4,2:3|2:3,2:0:0:0:
196,126,243439,5,4,1:2:0:0:
295,104,243677,1,0,2:0:0:0:
377,171,243916,1,0,2:0:0:0:
316,24,244154,5,4,1:2:0:0:
276,192,244392,1,0,2:0:0:0:
320,10,244630,1,0,2:0:0:0:
355,268,244868,5,4,1:2:0:0:
330,264,244987,1,0,2:0:0:0:
309,278,245106,2,0,P|315:320|424:330,1,162,0|0,2:0|2:0,2:0:0:0:
146,336,245582,6,0,P|184:321|248:314,1,90.72,14|0,2:0|1:2,2:0:0:0:
73,188,245820,6,0,P|97:220|137:255,1,90.72,14|0,2:0|1:2,2:0:0:0:
51,384,246058,6,0,P|49:343|59:290,1,90.72,14|0,2:0|1:2,2:0:0:0:
81,92,246297,5,6,1:2:0:0:
154,38,246416,1,0,1:0:0:0:
242,17,246535,1,8,2:0:0:0:
330,32,246654,1,0,1:2:0:0:
407,80,246773,1,8,2:0:0:0:
458,154,246892,1,0,1:2:0:0:
477,243,247011,5,10,2:0:0:0:
412,196,247130,1,0,1:2:0:0:
335,169,247249,1,8,2:0:0:0:
255,167,247368,1,0,1:2:0:0:
177,188,247487,1,8,2:0:0:0:
109,232,247606,1,0,1:2:0:0:
57,293,247725,6,0,L|68:331,5,40.5,14|8|8|8|8|8,2:0|2:0|2:0|2:0|2:3|2:3,2:0:0:0:
42,321,248082,2,0,L|71:349,3,40.5,4|4|8|8,2:3|2:3|2:3|2:3,2:0:0:0:
45,344,248320,5,4,2:3:0:0:
233,313,248439,1,10,2:0:0:0:
256,192,249193,12,0,250523,2:0:0:0:
291,254,250582,6,0,B|253:251|228:274|228:274|214:242|180:231,1,132.84,6|10,1:2|2:0,2:0:0:0:
219,12,250939,2,0,P|240:91|248:173,1,165.24,2|0,1:2|1:2,2:0:0:0:
105,259,251297,6,0,P|102:218|118:181,1,82.62,10|0,2:0|2:0,2:0:0:0:
284,69,251535,2,0,P|249:92|209:97,1,82.62,2|0,1:2|1:2,2:0:0:0:
30,9,251773,2,0,P|69:29|98:82,1,82.62,10|0,2:0|2:0,2:0:0:0:
181,231,252011,6,0,P|247:228|315:240,1,132.840002026978,2|8,1:2|2:0,2:0:0:0:
466,85,252368,2,0,P|387:86|352:156,1,165.240001008545,2|0,1:2|1:2,2:0:0:0:
443,326,252725,6,0,B|412:291|424:230|451:254|462:197|430:153,2,181.44,10|0|8,2:0|1:2|2:0,2:0:0:0:
365,377,253320,1,0,2:0:0:0:
472,237,253439,6,0,P|407:248|342:264,1,132.840002026978,6|8,1:2|2:0,2:0:0:0:
203,343,253797,2,0,P|283:364|365:377,1,165.24,2|0,1:2|1:2,2:0:0:0:
212,177,254154,6,0,P|191:141|196:101,1,82.62,10|0,2:0|2:0,2:0:0:0:
261,293,254392,2,0,P|240:327|202:342,1,82.62,2|0,1:2|1:2,2:0:0:0:
328,187,254630,2,0,P|368:188|401:213,1,82.62,10|0,2:0|2:0,2:0:0:0:
396,26,254868,6,0,P|331:37|268:58,1,132.840002026978,2|8,1:2|2:0,2:0:0:0:
105,95,255225,2,0,P|122:42|197:11,1,132.840002026978,2|0,1:2|1:2,2:0:0:0:
181,262,255582,6,0,B|157:214|177:163|200:188|219:136|195:100,1,172.529991312424,10|0,2:0|2:0,2:0:0:0:
186,91,255820,1,8,2:0:0:0:
110,17,255939,1,8,2:0:0:0:
15,46,256058,1,8,2:3:0:0:
4,62,256177,1,4,2:3:0:0:
73,175,256297,6,0,P|178:179|279:206,1,210.599990359498,6|10,1:2|2:0,2:0:0:0:
494,99,256654,1,0,1:2:0:0:
421,115,256773,1,10,2:0:0:0:
400,140,256892,1,2,1:2:0:0:
395,159,257011,6,0,P|311:116|357:-12,1,210.599990359498,6|10,1:2|2:0,2:0:0:0:
478,177,257368,1,0,1:2:0:0:
507,255,257487,1,10,2:0:0:0:
493,281,257606,1,2,1:2:0:0:
512,367,257725,6,0,P|469:305|395:318,1,157.95,6|0,1:2|2:0,2:0:0:0:
387,336,257963,2,0,P|328:377|258:374,1,121.5,10|0,2:0|2:0,2:0:0:0:
267,375,258201,2,0,L|248:284,1,81,10|2,2:0|1:2,2:0:0:0:
43,184,258439,6,0,P|161:194|261:129,1,243,6|0,1:2|1:2,2:0:0:0:
330,29,258916,1,10,2:0:0:0:
320,12,259035,1,2,1:2:0:0:
340,139,259154,6,0,P|296:51|200:72,1,210.599990359498,6|8,1:2|2:0,2:0:0:0:
126,143,259511,1,0,1:2:0:0:
149,160,259630,1,10,2:0:0:0:
200,225,259749,1,2,1:2:0:0:
120,286,259868,6,0,B|193:254|193:254|245:261|245:261|333:225,1,210.6,2|8,1:2|2:0,2:0:0:0:
395,282,260225,1,0,1:2:0:0:
410,249,260344,1,10,2:0:0:0:
481,202,260463,1,0,1:2:0:0:
472,361,260582,6,0,P|480:322|489:277,1,74.52,10|8,2:0|2:0,2:0:0:0:
416,149,260820,1,8,2:3:0:0:
317,232,260939,1,4,2:3:0:0:
310,232,260999,1,4,2:3:0:0:
305,225,261058,1,8,2:3:0:0:
251,150,261177,1,4,2:3:0:0:
145,218,261297,6,0,P|124:248|119:285,1,74.52,14|0,2:0|1:2,2:0:0:0:
273,334,261535,2,0,P|237:314|212:276,1,74.52,8|0,2:0|1:2,2:0:0:0:
156,118,261773,2,0,P|119:123|88:144,1,74.52,8|0,2:0|1:2,2:0:0:0:
48,346,262011,5,6,1:2:0:0:
416,351,262368,5,8,2:0:0:0:
416,351,262487,2,0,P|446:337|474:329,1,50.2200000000001,2|8,2:0|2:0,2:0:0:0:
350,197,262725,2,0,P|386:219|421:226,1,58.32,10|0,2:0|2:0,2:0:0:0:
255,361,262963,2,0,P|237:336|245:296,1,66.4200000000001,10|8,2:0|2:0,2:0:0:0:
315,287,263201,2,0,P|333:312|325:352,1,66.4200000000001,10|0,2:0|2:0,2:0:0:0:
147,363,263439,6,0,B|240:306|340:392|340:392,1,197.64,2|0,1:2|2:0,2:0:0:0:
176,242,263797,2,0,B|137:233|101:258|101:258|45:233|78:191,1,165.24,10|8,2:0|2:0,2:0:0:0:
223,93,264154,2,0,B|258:81|290:107|267:130|298:153|341:143,1,132.84,10|8,2:0|2:0,2:0:0:0:
448,31,264511,2,0,P|441:74|437:97,2,66.4200000000001,8|2|0,2:0|2:0|2:0,2:0:0:0:
488,160,264868,5,2,1:2:0:0:
333,349,265225,5,8,2:0:0:0:
333,349,265344,2,0,P|353:338|385:330,1,50.2200000000001,2|8,2:0|2:0,2:0:0:0:
268,166,265582,2,0,P|291:179|330:188,1,58.32,10|0,2:0|2:0,2:0:0:0:
202,312,265820,2,0,P|189:278|171:247,1,66.4200000000001,10|8,2:0|2:0,2:0:0:0:
65,94,266058,2,0,P|52:128|34:159,1,66.4200000000001,10|0,2:0|2:0,2:0:0:0:
237,64,266297,6,0,B|144:121|44:35|44:35,1,197.64,2|0,1:2|2:0,2:0:0:0:
235,185,266654,2,0,B|274:194|310:169|310:169|366:194|333:236,1,165.24,8|8,2:0|2:0,2:0:0:0:
157,337,267011,2,0,P|119:290|156:232,1,132.84,10|8,2:0|2:0,2:0:0:0:
245,320,267368,1,8,2:0:0:0:
304,366,267487,2,0,P|347:348|378:339,1,66.4200000000001,2|0,2:0|2:0,2:0:0:0:
442,267,267725,6,0,B|424:214|363:232|363:232|349:275|303:272,1,165.24,2|0,1:2|2:0,2:0:0:0:
246,182,268082,2,0,P|230:210|244:238,2,66.4200000000001,8|2|8,2:0|2:0|2:0,2:0:0:0:
102,117,268439,6,0,B|170:96|170:96|196:110|196:110|259:95,1,165.24,10|10,2:0|2:0,2:0:0:0:
346,1,268797,2,0,P|360:29|345:58,2,66.4200000000001,8|10|0,2:0|2:0|2:0,2:0:0:0:
460,96,269154,6,0,P|437:106|413:115,1,50.2200000000001,2|0,1:2|2:0,2:0:0:0:
396,205,269392,2,0,P|363:219|329:231,1,66.4200000000001,0|8,2:0|2:0,2:0:0:0:
228,143,269630,2,0,P|193:158|156:171,1,66.4200000000001,2|8,2:0|2:0,2:0:0:0:
71,258,269868,6,0,B|113:243|153:275|124:303|163:331|215:315,1,165.24,10|8,2:0|2:0,2:0:0:0:
373,226,270225,1,8,2:0:0:0:
317,280,270344,2,0,P|324:321|332:357,1,66.4200000000001,2|0,2:0|2:0,2:0:0:0:
473,207,270582,6,0,P|398:186|390:108,1,165.24,2|0,1:2|2:0,2:0:0:0:
495,37,270939,2,0,P|489:71|480:111,2,66.4200000000001,8|2|8,2:0|2:0|2:0,2:0:0:0:
375,0,271297,6,0,B|315:76|223:36|223:36,1,165.24,10|10,2:0|2:0,2:0:0:0:
153,136,271654,2,0,P|139:106|155:79,2,66.4200000000001,8|10|0,2:0|2:0|2:0,2:0:0:0:
269,219,272011,6,0,B|227:204|190:235|217:262|180:289|130:277,1,165.24,2|0,1:2|2:0,2:0:0:0:
30,224,272368,2,0,P|37:269|43:297,2,66.4200000000001,8|2|8,2:0|2:0|2:0,2:0:0:0:
183,110,272725,2,0,P|191:149|163:178,1,66.4200000000001,10|0,2:0|2:0,2:0:0:0:
102,160,272963,2,0,P|94:121|122:92,1,66.4200000000001,0|0,1:2|1:2,2:0:0:0:
154,30,273201,5,8,2:0:0:0:
298,119,273320,1,8,2:0:0:0:
268,48,273439,5,6,1:2:0:0:
477,191,273797,5,8,2:0:0:0:
477,191,273916,2,0,P|469:224|466:239,1,42.1200000000001,2|8,2:0|2:0,2:0:0:0:
405,166,274154,2,0,P|397:199|394:214,1,50.2200000000001,10|0,2:0|2:0,2:0:0:0:
301,330,274392,2,0,P|330:346|358:368,1,58.32,10|8,2:0|2:0,2:0:0:0:
234,219,274630,2,0,P|263:203|291:181,1,58.32,10|0,2:0|2:0,2:0:0:0:
179,361,274868,6,0,P|162:271|153:222,1,132.84,2|0,1:2|2:0,2:0:0:0:
0,296,275225,2,0,B|36:342|93:318|93:318,1,100.44,10|8,2:0|2:0,2:0:0:0:
110,164,275582,2,0,B|85:132|46:149|46:149,1,68.04,10|8,2:0|2:0,2:0:0:0:
59,248,275939,2,0,L|65:221,2,25.92,8|2|0,2:0|2:0|2:0,2:0:0:0:
154,230,276297,5,2,1:2:0:0:
305,320,276654,5,8,2:0:0:0:
305,320,276773,2,0,P|297:353|294:368,1,42.1200000000001,2|8,2:0|2:0,2:0:0:0:
233,295,277011,2,0,P|225:328|222:343,1,50.2200000000001,10|0,2:0|2:0,2:0:0:0:
305,237,277249,2,0,P|337:222|386:213,1,58.32,10|8,2:0|2:0,2:0:0:0:
449,88,277487,2,0,P|416:79|386:65,1,58.32,10|0,2:0|2:0,2:0:0:0:
512,244,277725,6,0,P|472:244|454:326,1,132.84,2|0,1:2|2:0,2:0:0:0:
498,381,278082,2,0,B|458:330|397:357|397:357,1,100.44,8|8,2:0|2:0,2:0:0:0:
343,310,278439,2,0,B|315:345|272:326|272:326,1,68.04,10|8,2:0|2:0,2:0:0:0:
233,271,278797,2,0,L|238:243,2,25.9200000000001,8|2|0,2:0|2:0|2:0,2:0:0:0:
146,299,279154,6,0,P|163:209|172:160,1,132.84,2|0,1:2|2:0,2:0:0:0:
122,104,279511,2,0,B|113:95|98:96|98:96|109:95|117:115,2,50.2200000000001,8|2|8,2:0|2:0|2:0,2:0:0:0:
189,32,279868,6,0,B|237:93|309:60|309:60,1,132.84,10|10,2:0|2:0,2:0:0:0:
372,12,280225,2,0,B|384:13|393:25|393:25|387:16|366:22,2,50.2200000000001,8|10|0,2:0|2:0|2:0,2:0:0:0:
439,109,280582,6,0,P|455:138|444:173,1,58.32,2|0,1:2|2:0,2:0:0:0:
335,244,280820,2,0,P|352:215|387:207,1,66.4200000000001,0|8,2:0|2:0,2:0:0:0:
509,275,281058,2,0,P|473:273|448:246,1,74.52,2|8,2:0|2:0,2:0:0:0:
322,131,281297,6,0,B|286:118|255:144|278:167|247:189|204:179,1,132.84,10|8,2:0|2:0,2:0:0:0:
90,66,281654,1,8,2:0:0:0:
139,127,281773,2,0,P|128:174|122:194,1,50.2200000000001,2|0,2:0|2:0,2:0:0:0:
14,233,282011,6,0,P|95:274|77:322,1,149.04,2|0,1:2|2:0,2:0:0:0:
0,363,282368,2,0,P|5:338|9:313,2,50.2200000000001,8|2|8,2:0|2:0|2:0,2:0:0:0:
130,384,282725,6,0,B|183:316|264:352|264:352,1,149.04,10|10,2:0|2:0,2:0:0:0:
326,264,283082,2,0,P|336:285|325:307,2,50.2200000000001,8|10|0,2:0|2:0|2:0,2:0:0:0:
423,186,283439,6,0,B|384:199|351:171|375:146|342:122|296:133,1,149.04,2|0,1:2|2:0,2:0:0:0:
237,189,283797,2,0,P|244:234|250:262,2,50.2200000000001,8|2|8,2:0|2:0|2:0,2:0:0:0:
155,130,284154,6,0,P|124:154|121:188,1,58.32,10|0,2:0|2:0,2:0:0:0:
51,213,284392,2,0,P|56:251|84:271,1,58.32,0|0,1:2|1:2,2:0:0:0:
177,342,284630,5,8,2:0:0:0:
159,239,284749,1,8,2:0:0:0:
360,229,285701,6,0,L|357:258,2,29.16,0|0|0,1:2|1:2|1:2,2:0:0:0:
428,185,285939,1,4,1:2:0:0:
256,192,285999,12,0,294749,2:0:0:0:
