osu file format v14

[General]
AudioFilename: audio.mp3
AudioLeadIn: 0
PreviewTime: 173994
Countdown: 0
SampleSet: Soft
StackLeniency: 0.4
Mode: 0
LetterboxInBreaks: 0
WidescreenStoryboard: 1

[Editor]
Bookmarks: 3509,20652,42594,53566,64537,86480,97452,108423,130366,152309,163280,174252,196194,207166,229109,237337,243509,245394
DistanceSpacing: 1
BeatDivisor: 4
GridSize: 4
TimelineZoom: 1

[Metadata]
Title:Kuusou Ressha
TitleUnicode:空奏列車
Artist:Wolpis Kater
ArtistUnicode:ウォルピスカーター
Creator:Sonnyc
Version:Insane
Source:
Tags:orangestar daydream sky train Karia Left Dailycare Morinaga island
BeatmapID:1131882
BeatmapSetID:532596

[Difficulty]
HPDrainRate:6
CircleSize:4
OverallDifficulty:8
ApproachRate:9
SliderMultiplier:1.8
SliderTickRate:2

[Events]
//Background and Video events
0,0,"bg.jpg",0,0
//Break Periods
2,86680,96166
2,152508,162508
//Storyboard Layer 0 (Background)
//Storyboard Layer 1 (Fail)
//Storyboard Layer 2 (Pass)
//Storyboard Layer 3 (Foreground)
//Storyboard Sound Samples

[TimingPoints]
3510,342.857142857143,6,2,1,40,1,0
7624,-100,6,2,1,50,0,0
18595,333.333333333333,6,2,1,70,1,8
19261,333.333333333333,6,2,1,40,1,0
19432,357.142857142857,6,2,1,40,1,8
19967,342.857142857143,6,2,1,50,1,8
20652,342.857142857143,4,2,1,70,1,0
42594,-100,4,2,1,60,0,0
52880,-100,4,2,1,40,0,0
53566,-100,4,2,1,70,0,0
63852,-100,4,2,1,40,0,0
64366,-100,4,2,1,60,0,0
64537,-83.3333333333333,4,2,1,70,0,1
86480,-100,4,2,1,60,0,0
107052,324.324324324324,4,2,1,60,1,0
107700,361.44578313253,4,2,1,60,1,8
107909,-100,4,2,1,40,0,0
108252,-100,4,2,1,60,0,0
108423,342.857142857143,4,2,1,70,1,1
108423,-83.3333333333333,4,2,1,70,0,1
130365,-83.3333333333333,4,2,1,70,0,0
152308,-83.3333333333333,4,2,1,60,0,0
163280,-100,4,2,1,60,0,0
172708,-169.491525423729,4,2,1,40,0,0
173908,-153.846153846154,4,2,1,60,0,0
174251,-83.3333333333333,4,2,1,70,0,1
196194,-95.2380952380952,4,2,1,70,0,0
197565,-83.3333333333333,4,2,1,70,0,0
229108,342.857142857143,6,2,1,50,1,0
233565,346.820809248555,6,2,1,50,1,0
235472,307.692307692308,6,2,1,50,1,0
235625,342.857142857143,6,2,1,50,1,8
236653,333.333333333333,6,2,1,50,1,8
237319,350.877192982456,6,2,1,50,1,0
238722,337.078651685393,6,2,1,50,1,8
239227,357.142857142857,6,2,1,50,1,8
239405,342.857142857143,6,2,1,50,1,0

[Colours]
Combo1 : 255,128,0
Combo2 : 0,255,128
Combo3 : 128,128,255
Combo4 : 255,128,192

[HitObjects]
240,248,3509,54,0,P|180:256|148:240,2,90,2|0|0,0:0|0:0|0:0,0:0:0:0:
312,208,4024,2,0,P|320:268|304:300,2,90,2|0|0,0:0|0:0|0:0,0:0:0:0:
272,136,4538,2,0,P|332:128|364:144,2,90,2|0|0,0:0|0:0|0:0,0:0:0:0:
200,176,5052,2,0,P|192:116|208:84,2,90,2|0|0,0:0|0:0|0:0,0:0:0:0:
154,244,5567,6,0,P|196:257|239:247,2,90,2|0|0,0:0|0:0|0:0,0:0:0:0:
308,293,6081,2,0,P|321:250|311:207,2,90,2|0|0,0:0|0:0|0:0,0:0:0:0:
357,139,6595,2,0,P|314:125|271:135,2,90,2|0|0,0:0|0:0|0:0,0:0:0:0:
203,90,7110,2,0,P|189:132|199:175,2,90,2|0|0,0:0|0:0|0:0,0:0:0:0:
393,65,7624,6,0,P|437:139|392:212,1,180,4|0,3:2|3:0,0:0:0:0:
316,236,8138,1,0,0:0:0:0:
316,236,8310,2,0,P|398:212|457:275,1,180,0|0,3:0|3:0,0:0:0:0:
377,292,8824,1,2,0:3:0:0:
298,311,8995,2,0,L|209:323,1,90,0|2,3:0|0:3,0:0:0:0:
231,224,9338,2,0,L|147:189,1,90,0|2,3:0|0:3,0:0:0:0:
225,117,9681,22,0,L|170:45,2,90,2|0|0,3:0|0:3|3:0,0:0:0:0:
303,144,10195,1,2,0:0:0:0:
303,144,10367,2,0,L|392:132,2,90,2|0|0,3:2|0:0|3:0,0:0:0:0:
240,196,10881,1,2,0:3:0:0:
392,131,11052,1,0,3:3:0:0:
260,32,11224,1,2,0:3:0:0:
240,196,11395,2,0,L|252:285,1,90,0|2,3:0|0:3,0:0:0:0:
397,320,11738,38,0,P|407:199|374:136,1,180,4|8,3:2|3:2,0:0:0:0:
371,131,12167,1,2,0:0:0:0:
354,115,12252,2,0,L|307:118,1,45,2|2,0:0|0:0,0:0:0:0:
288,107,12424,2,0,L|241:110,3,45,2|2|2|2,3:2|0:0|0:0|0:0,0:0:0:0:
221,102,12767,1,10,3:2:0:0:
172,169,12938,1,2,0:0:0:0:
130,98,13110,1,2,3:2:0:0:
82,167,13281,1,2,0:0:0:0:
131,242,13452,1,8,3:0:0:0:
131,242,13538,1,4,3:0:0:0:
131,242,13624,1,4,3:0:0:0:
69,297,13795,6,0,P|148:325|212:261,1,180,4|8,3:2|3:2,0:0:0:0:
213,242,14224,1,2,0:0:0:0:
211,219,14310,2,0,L|214:172,1,45,2|2,0:0|0:0,0:0:0:0:
202,154,14481,2,0,L|205:107,3,45,2|2|2|2,3:2|0:0|0:0|0:0,0:0:0:0:
193,90,14824,1,10,3:2:0:0:
123,131,14995,1,2,0:0:0:0:
120,49,15167,1,2,3:2:0:0:
192,7,15338,1,2,0:0:0:0:
264,43,15510,5,10,3:2:0:0:
284,33,15595,1,10,3:2:0:0:
306,29,15681,1,2,3:2:0:0:
329,31,15767,1,10,3:2:0:0:
350,39,15852,1,4,3:2:0:0:
311,109,16024,1,2,0:0:0:0:
376,156,16195,6,0,L|371:215,3,45,0|8|8|8,3:0|0:2|0:2|0:2,0:0:0:0:
384,239,16538,2,0,L|326:252,3,45,0|8|8|8,3:0|0:2|0:2|0:2,0:0:0:0:
307,272,16881,2,0,L|276:221,3,45,0|8|8|8,3:0|0:2|0:2|0:2,0:0:0:0:
251,209,17224,6,0,L|289:164,3,45,0|8|8|8,3:0|0:2|0:2|0:2,0:0:0:0:
294,137,17567,2,0,L|348:159,3,45,0|8|8|8,3:0|0:2|0:2|0:2,0:0:0:0:
376,156,17910,2,0,L|371:215,3,45,0|8|8|8,3:0|0:2|0:2|0:2,0:0:0:0:
384,239,18252,2,0,L|326:252,3,45,0|8|8|8,3:0|0:2|0:2|0:2,0:0:0:0:
366,175,18595,5,0,3:2:0:0:
337,153,18678,1,8,0:1:0:0:
305,137,18761,1,8,0:1:0:0:
270,128,18845,1,8,0:1:0:0:
234,126,18928,1,8,0:2:0:0:
198,131,19011,1,8,0:1:0:0:
165,144,19095,1,8,0:1:0:0:
134,162,19178,1,8,0:1:0:0:
108,187,19261,37,0,0:2:0:0:
60,252,19432,1,2,0:0:0:0:
125,300,19610,1,2,0:0:0:0:
173,235,19789,1,0,0:0:0:0:
60,252,19967,21,2,0:0:0:0:
186,154,20138,1,2,0:0:0:0:
208,312,20310,1,2,0:0:0:0:
60,252,20481,1,2,0:0:0:0:
256,244,20652,6,0,P|288:288|284:344,1,90,4|2,3:2|0:0,0:0:0:0:
118,319,20994,2,0,L|208:312,1,90,8|2,3:2|0:0,0:0:0:0:
224,172,21337,1,0,3:0:0:0:
256,244,21509,1,2,0:0:0:0:
280,108,21680,2,0,P|224:88|172:104,1,90,8|2,3:2|0:0,0:0:0:0:
256,244,22023,5,0,3:2:0:0:
308,184,22194,2,0,P|364:164|416:180,2,90,2|8|2,0:0|3:2|0:0,0:0:0:0:
236,324,22709,1,2,3:2:0:0:
256,244,22880,1,2,0:0:0:0:
316,344,23052,1,8,3:2:0:0:
336,264,23223,1,2,0:0:0:0:
236,324,23394,6,0,L|146:317,1,90,4|2,3:2|0:0,0:0:0:0:
316,344,23737,1,8,3:2:0:0:
292,264,23909,1,2,0:0:0:0:
323,186,24080,2,0,P|278:182|238:201,2,90,0|2|8,3:2|0:0|3:2,0:0:0:0:
184,138,24594,6,0,P|265:101|354:108,1,180,2|2,0:0|0:0,0:0:0:0:
424,152,25109,2,0,P|442:192|439:236,1,90,8|2,3:2|0:0,0:0:0:0:
369,381,25452,2,0,P|365:336|384:296,2,90,2|2|8,3:2|0:0|3:2,0:0:0:0:
446,350,25966,1,2,0:0:0:0:
296,288,26137,6,0,L|206:295,1,90,4|2,3:2|0:0,0:0:0:0:
50,266,26480,2,0,P|95:270|136:252,1,90,8|2,3:2|0:0,0:0:0:0:
177,94,26823,2,0,L|184:184,2,90,0|2|8,3:0|0:2|3:2,0:0:0:0:
104,56,27337,6,0,P|152:16|256:72,1,180,2|2,0:0|0:0,0:0:0:0:
276,136,27852,2,0,L|269:226,1,90,8|2,3:2|0:0,0:0:0:0:
332,76,28194,1,2,3:2:0:0:
356,156,28366,1,2,0:0:0:0:
412,52,28537,1,8,3:2:0:0:
436,132,28709,1,2,0:2:0:0:
332,76,28880,5,4,3:2:0:0:
416,212,29052,1,2,0:2:0:0:
496,68,29223,1,8,3:2:0:0:
332,76,29394,1,2,0:0:0:0:
416,212,29566,37,0,3:2:0:0:
436,132,29737,1,2,0:0:0:0:
356,156,29909,1,8,3:2:0:0:
480,266,30080,22,0,P|399:293|336:236,1,180,2|2,0:0|0:0,0:0:0:0:
256,264,30594,2,0,P|215:245|170:249,1,90,8|2,3:2|0:0,0:0:0:0:
93,278,30937,1,2,3:2:0:0:
201,326,31109,1,0,0:0:0:0:
130,365,31280,1,8,3:2:0:0:
130,365,31366,1,8,0:2:0:0:
130,365,31452,1,2,0:0:0:0:
256,264,31623,6,0,L|348:272,1,90,4|2,3:2|0:0,0:0:0:0:
508,252,31966,2,0,P|463:256|422:238,1,90,8|2,3:2|0:0,0:0:0:0:
358,186,32309,1,0,3:0:0:0:
436,156,32480,1,2,0:0:0:0:
422,238,32652,1,8,3:2:0:0:
512,135,32823,6,0,P|453:76|372:104,1,180,2|2,0:0|0:0,0:0:0:0:
337,182,33337,2,0,L|344:271,1,90,8|2,3:2|0:0,0:0:0:0:
264,140,33680,2,0,P|219:136|179:155,2,90,2|2|8,3:2|0:0|3:2,0:0:0:0:
337,182,34194,1,2,0:0:0:0:
179,155,34366,5,4,3:2:0:0:
282,32,34537,1,2,0:0:0:0:
337,182,34709,1,8,3:2:0:0:
179,155,34880,1,2,0:0:0:0:
282,32,35052,37,0,3:0:0:0:
364,40,35223,1,2,0:0:0:0:
446,48,35394,1,8,3:2:0:0:
478,152,35566,22,0,P|398:122|337:182,1,180,2|2,0:0|0:0,0:0:0:0:
263,139,36080,2,0,P|222:158|177:154,1,90,8|2,3:2|0:0,0:0:0:0:
124,92,36423,2,0,P|165:73|210:77,2,90,0|2|8,3:0|0:0|3:2,0:0:0:0:
92,168,36937,1,2,0:0:0:0:
147,231,37109,6,0,P|236:238|317:201,1,180,4|8,3:2|3:2,0:0:0:0:
374,141,37623,1,2,0:0:0:0:
320,80,37794,2,0,L|328:-16,2,90,0|2|8,3:0|0:0|3:2,0:0:0:0:
398,217,38309,6,0,P|446:177|398:65,1,180,2|2,0:0|0:0,0:0:0:0:
342,45,38823,2,0,L|246:53,1,90,8|2,3:2|0:0,0:0:0:0:
176,84,39166,2,0,L|80:76,2,90,0|2|8,3:0|0:0|3:2,0:0:0:0:
244,132,39680,1,2,0:0:0:0:
188,192,39852,6,0,L|195:281,2,90,4|2|8,3:2|0:0|3:2,0:0:0:0:
244,132,40366,1,2,0:0:0:0:
316,172,40537,2,0,P|360:175|400:156,2,90,0|2|8,3:0|0:0|3:2,0:0:0:0:
348,96,41052,6,0,P|424:80|476:172,1,180,2|2,0:0|0:0,0:0:0:0:
440,228,41566,2,0,L|447:317,1,90,8|2,3:2|0:0,0:0:0:0:
384,372,41909,2,0,P|302:335|214:342,1,180,0|8,3:0|3:2,0:0:0:0:
180,353,42337,1,8,0:0:0:0:
146,344,42423,1,8,0:0:0:0:
123,317,42509,1,8,0:0:0:0:
119,282,42594,6,0,P|128:212|72:120,1,180,4|0,3:2|3:0,0:0:0:0:
28,188,43109,2,0,P|-4:144|144:80,2,270,2|2|2,0:0|3:2|0:2,0:0:0:0:
100,224,44309,2,0,L|192:216,1,90,0|0,3:0|0:0,0:0:0:0:
216,140,44652,2,0,P|268:196|228:288,1,180,2|2,3:2|3:2,0:0:0:0:
176,336,45166,5,2,0:0:0:0:
176,336,45337,2,0,L|356:320,1,180,2|0,3:2|3:0,0:0:0:0:
420,368,45852,2,0,B|390:336|380:263|421:244|429:246|471:228|464:156|431:123,2,270,2|2|2,0:0|3:2|0:0,0:0:0:0:
368,180,47223,1,2,0:0:0:0:
368,180,47394,2,0,L|276:172,1,90,2|0,3:2|0:0,0:0:0:0:
208,212,47737,2,0,L|116:204,1,90,2|2,3:2|0:0,0:0:0:0:
92,176,47994,5,0,0:0:0:0:
92,176,48080,2,0,P|80:120|176:84,1,180,4|0,3:2|3:0,0:0:0:0:
244,128,48594,2,0,P|332:148|408:108,1,180,2|0,0:0|0:0,0:0:0:0:
452,40,49109,1,2,3:2:0:0:
500,304,49623,6,0,P|421:263|335:283,1,180,2|0,0:2|0:0,0:0:0:0:
272,332,50137,2,0,L|92:316,1,180,2|2,3:2|3:2,0:0:0:0:
36,372,50652,1,2,0:0:0:0:
36,372,50823,2,0,P|12:320|100:236,1,180,2|2,3:2|3:2,0:0:0:0:
160,236,51337,2,0,L|340:252,1,180,2|0,0:0|0:0,0:0:0:0:
400,304,51852,2,0,P|416:232|320:172,1,180,2|0,3:2|3:0,0:0:0:0:
339,251,52366,2,0,P|268:196|388:104,1,270,2|2,0:2|0:0,0:0:0:0:
420,155,53052,1,0,0:0:0:0:
341,170,53223,1,0,0:0:0:0:
341,170,53566,6,0,L|528:136,2,180,4|8|0,3:2|0:1|3:0,0:0:0:0:
260,184,54423,1,0,3:0:0:0:
312,248,54594,2,0,P|236:264|180:160,1,180,8|0,0:1|3:0,0:0:0:0:
260,184,55109,1,0,3:0:0:0:
260,184,55280,2,0,P|209:114|124:127,1,180,8|0,0:1|3:0,0:0:0:0:
68,188,55794,2,0,L|72:280,1,90,0|8,3:0|0:1,0:0:0:0:
71,277,56309,6,0,L|63:97,2,180,0|8|0,3:0|0:1|3:0,0:0:0:0:
152,288,57166,1,0,3:0:0:0:
100,352,57337,2,0,P|172:368|232:272,1,180,8|0,0:1|3:0,0:0:0:0:
152,288,57852,2,0,P|200:217|285:229,1,180,2|0,0:0|0:0,0:0:0:0:
348,279,58366,1,0,3:0:0:0:
298,343,58537,1,0,3:0:0:0:
233,293,58709,2,0,L|237:201,1,90,8|0,0:1|0:0,0:0:0:0:
280,136,59052,6,0,P|214:170|131:92,1,180,4|8,3:2|0:1,0:0:0:0:
214,84,59566,2,0,L|398:92,1,180,2|0,0:0|3:0,0:0:0:0:
424,14,60080,2,0,P|479:79|446:158,1,180,8|0,0:1|3:0,0:0:0:0:
372,196,60594,2,0,L|280:192,2,90,2|8|0,0:0|0:1|0:0,0:0:0:0:
444,236,61109,1,2,3:2:0:0:
372,280,61280,1,0,3:0:0:0:
444,320,61452,1,8,0:1:0:0:
444,320,61794,6,0,P|384:360|296:312,1,180,0|8,3:2|0:1,0:0:0:0:
256,240,62309,2,0,L|259:150,2,90,2|0|0,0:0|3:0|3:0,0:0:0:0:
176,260,62823,2,0,L|184:76,1,180,8|0,0:1|3:0,0:0:0:0:
103,100,63337,2,0,L|100:190,2,90,0|8|0,3:0|0:1|3:0,0:0:0:0:
27,68,63852,1,4,0:3:0:0:
377,20,64537,6,0,P|424:80|312:172,1,215.999993408203,4|0,3:2|1:0,0:0:0:0:
197,153,65052,2,0,P|224:82|360:133,1,215.999993408203,2|2,0:0|0:0,0:0:0:0:
400,243,65566,2,0,P|325:254|301:111,1,215.999993408203,0|0,1:0|3:0,0:0:0:0:
460,188,66080,2,0,P|480:232|456:304,2,107.999996704102,2|0|2,0:0|1:0|0:0,0:0:0:0:
308,199,66594,6,0,P|347:236|400:243,1,107.999996704102,0|2,3:2|0:0,0:0:0:0:
464,106,66937,2,0,P|413:121|380:163,1,107.999996704102,0|2,1:0|0:0,0:0:0:0:
371,321,67280,6,0,P|466:288|460:188,1,215.999993408203,0|0,3:2|1:0,0:0:0:0:
319,255,67794,2,0,P|291:294|302:369,1,107.999996704102,2|0,0:2|3:0,0:0:0:0:
399,243,68137,2,0,P|378:199|307:171,1,107.999996704102,2|0,0:0|1:0,0:0:0:0:
371,321,68480,6,0,L|478:325,1,107.999996704102,2|0,0:2|3:0,0:0:0:0:
319,255,68823,1,2,0:0:0:0:
224,360,68994,1,0,1:0:0:0:
148,304,69166,2,0,P|154:198|95:109,1,215.999993408203,2|2,0:2|0:0,0:0:0:0:
16,78,69680,2,0,P|13:131|43:176,1,107.999996704102,0|2,1:0|0:0,0:0:0:0:
243,167,70023,6,0,P|216:96|80:147,1,215.999993408203,4|2,3:2|1:2,0:0:0:0:
156,268,70537,2,2,L|160:160,2,107.999996704102,2|0|2,0:0|3:0|0:0,0:0:0:0:
204,336,71052,1,0,1:0:0:0:
76,292,71223,6,2,L|84:76,1,215.999993408203,2|2,0:2|0:2,0:0:0:0:
144,16,71737,1,0,1:0:0:0:
316,51,71909,2,0,P|264:39|216:60,1,107.999996704102,2|0,0:0|3:0,0:0:0:0:
272,124,72252,2,0,P|323:136|372:115,2,107.999996704102,2|0|2,0:0|1:0|0:0,0:0:0:0:
427,178,72766,6,0,P|329:219|226:195,1,215.999993408203,0|0,3:0|1:0,0:0:0:0:
272,124,73280,2,0,P|192:116|156:240,1,215.999993408203,2|2,0:2|0:0,0:0:0:0:
225,194,73794,1,0,1:0:0:0:
128,60,73966,2,0,P|80:112|140:336,1,323.999990112305,2|0,0:0|1:0,0:0:0:0:
212,364,74652,6,0,L|319:360,2,107.999996704102,2|0|2,0:0|3:0|0:0,0:0:0:0:
400,384,75166,1,8,3:0:0:0:
402,343,75252,1,0,3:0:0:0:
386,307,75337,1,0,3:0:0:0:
355,281,75423,1,0,3:0:0:0:
316,272,75509,6,0,L|80:280,1,215.999993408203,4|0,3:2|1:0,0:0:0:0:
204,148,76023,2,0,L|212:384,1,215.999993408203,2|2,0:2|0:0,0:0:0:0:
127,179,76537,2,0,P|168:72|276:188,1,323.999990112305,0|2,1:0|0:0,0:0:0:0:
207,255,77223,2,0,L|204:148,1,107.999996704102,0|2,1:0|0:0,0:0:0:0:
128,280,77566,6,0,P|192:336|288:240,1,215.999993408203,0|0,3:2|1:0,0:0:0:0:
203,147,78080,1,2,0:0:0:0:
207,255,78252,6,0,L|199:39,1,215.999993408203,0|0,3:0|1:0,0:0:0:0:
286,230,78766,2,0,P|222:174|126:270,1,215.999993408203,2|2,0:2|0:0,0:0:0:0:
211,363,79280,1,0,1:0:0:0:
344,288,79452,6,0,P|364:252|340:168,1,107.999996704102,2|0,0:0|3:0,0:0:0:0:
297,129,79794,2,0,P|275:177|286:230,1,107.999996704102,2|0,0:0|1:0,0:0:0:0:
404,346,80137,2,0,P|444:274|396:106,1,215.999993408203,2|2,0:0|0:0,0:0:0:0:
366,87,80652,2,0,P|344:135|355:188,1,107.999996704102,0|0,1:0|0:0,0:0:0:0:
432,36,80994,6,0,L|216:44,2,215.999993408203,4|0|2,3:2|1:0|3:2,0:0:0:0:
353,186,81852,2,0,P|342:135|365:87,1,107.999996704102,0|0,0:0|1:0,0:0:0:0:
431,216,82194,6,0,P|347:270|272:204,1,215.999993408203,2|2,0:2|0:2,0:0:0:0:
255,121,82709,1,0,1:0:0:0:
431,216,82880,2,0,P|450:265|436:316,1,107.999996704102,2|0,0:2|3:0,0:0:0:0:
371,371,83223,2,0,P|351:321|365:270,2,107.999996704102,2|0|2,0:0|1:0|0:0,0:0:0:0:
431,216,83737,6,0,P|347:270|272:204,1,215.999993408203,0|0,3:0|1:0,0:0:0:0:
155,145,84252,2,0,P|247:198|353:186,1,215.999993408203,2|0,0:2|0:0,0:0:0:0:
417,135,84766,1,0,1:0:0:0:
340,104,84937,2,0,P|444:56|428:216,1,323.999990112305,2|0,0:0|1:0,0:0:0:0:
379,356,85623,6,0,P|368:303|390:255,1,107.999996704102,0|0,0:0|3:0,0:0:0:0:
420,232,85880,1,0,1:0:0:0:
450,208,85966,2,0,P|460:156|438:108,2,107.999996704102,0|0|0,1:0|1:0|3:0,0:0:0:0:
376,56,86480,5,4,3:2:0:0:
171,170,96766,37,8,0:0:0:0:
171,170,97452,6,0,L|-16:136,2,180,4|8|0,3:2|0:1|3:0,0:0:0:0:
252,184,98309,1,0,3:0:0:0:
200,248,98480,2,0,P|276:264|332:160,1,180,8|0,0:1|3:0,0:0:0:0:
252,184,98994,1,0,3:0:0:0:
252,184,99166,2,0,P|303:114|388:127,1,180,8|0,0:1|3:0,0:0:0:0:
444,188,99680,2,0,L|440:280,1,90,0|8,3:0|0:1,0:0:0:0:
441,277,100194,6,0,L|449:97,2,180,0|8|0,3:0|0:1|3:0,0:0:0:0:
360,288,101052,1,0,3:0:0:0:
412,352,101223,2,0,P|340:368|280:272,1,180,8|0,0:1|3:0,0:0:0:0:
360,288,101737,2,0,P|312:217|227:229,1,180,2|0,0:0|0:0,0:0:0:0:
164,279,102252,1,0,3:0:0:0:
214,343,102423,1,0,3:0:0:0:
279,293,102594,2,0,L|275:201,1,90,8|0,0:1|0:0,0:0:0:0:
232,136,102937,6,0,P|298:170|381:92,1,180,4|8,3:2|0:1,0:0:0:0:
298,84,103452,2,0,L|114:92,1,180,2|0,0:0|3:0,0:0:0:0:
88,14,103966,2,0,P|33:79|66:158,1,180,8|0,0:1|3:0,0:0:0:0:
140,196,104480,2,0,L|232:192,2,90,2|8|0,0:0|0:1|0:0,0:0:0:0:
68,236,104994,1,2,0:0:0:0:
140,280,105166,1,0,3:0:0:0:
68,320,105337,1,8,0:1:0:0:
140,280,105509,1,2,0:0:0:0:
68,320,105680,6,0,P|128:360|216:312,1,180,0|8,3:2|0:1,0:0:0:0:
256,240,106194,2,0,L|253:150,2,90,2|0|0,0:0|3:0|3:0,0:0:0:0:
336,260,106709,2,0,L|328:76,1,180,8|8,0:1|3:0,0:0:0:0:
409,100,107214,2,0,L|412:190,2,90,0|0|0,3:0|3:0|3:0,0:0:0:0:
485,68,107700,1,8,0:3:0:0:
135,20,108423,6,0,P|88:80|200:172,1,215.999993408203,4|0,3:2|1:0,0:0:0:0:
315,153,108937,2,0,P|288:82|152:133,1,215.999993408203,2|0,0:0|0:0,0:0:0:0:
112,243,109451,2,0,P|187:254|211:111,1,215.999993408203,0|0,1:0|3:0,0:0:0:0:
52,188,109965,2,0,P|32:232|56:304,2,107.999996704102,2|0|0,0:0|1:0|0:0,0:0:0:0:
204,199,110480,6,0,P|165:236|112:243,1,107.999996704102,0|0,3:2|0:0,0:0:0:0:
48,106,110823,2,0,P|99:121|132:163,1,107.999996704102,0|0,1:0|0:0,0:0:0:0:
141,321,111165,6,0,P|46:288|52:188,1,215.999993408203,0|0,3:2|1:0,0:0:0:0:
193,255,111680,2,0,P|221:294|210:369,1,107.999996704102,2|0,0:2|3:0,0:0:0:0:
113,243,112023,2,0,P|134:199|205:171,1,107.999996704102,2|0,0:0|1:0,0:0:0:0:
141,321,112365,2,0,P|46:288|52:188,1,215.999993408203,2|2,0:0|0:0,0:0:0:0:
100,120,112880,2,0,L|208:125,1,107.999996704102,0|0,1:0|0:0,0:0:0:0:
328,134,113223,5,2,3:2:0:0:
263,190,113394,1,0,0:0:0:0:
207,124,113565,1,0,1:0:0:0:
272,69,113737,1,0,0:0:0:0:
344,224,113908,6,0,P|234:272|177:186,1,215.999993408203,4|2,3:2|1:2,0:0:0:0:
258,82,114423,2,0,L|263:190,2,107.999996704102,2|0|2,0:0|3:0|0:0,0:0:0:0:
306,14,114937,1,0,1:0:0:0:
178,58,115108,6,2,L|186:274,1,215.999993408203,2|2,0:0|0:0,0:0:0:0:
236,340,115623,1,0,1:0:0:0:
398,290,115794,2,0,P|346:302|298:281,1,107.999996704102,2|0,0:0|3:0,0:0:0:0:
354,217,116137,2,0,P|405:205|454:226,2,107.999996704102,2|0|2,0:0|1:0|0:0,0:0:0:0:
509,163,116651,6,0,P|411:122|308:146,1,215.999993408203,0|0,3:0|1:0,0:0:0:0:
354,217,117165,2,0,P|456:228|468:336,1,215.999993408203,2|2,0:0|0:0,0:0:0:0:
398,290,117680,1,0,1:0:0:0:
509,163,117851,2,0,P|428:124|232:244,1,323.999990112305,2|0,0:0|1:0,0:0:0:0:
482,269,118537,6,0,P|379:206|311:283,1,215.999993408203,2|2,0:0|0:0,0:0:0:0:
398,290,119051,1,8,3:0:0:0:
373,321,119137,1,0,3:0:0:0:
338,339,119223,1,0,3:0:0:0:
298,340,119308,1,0,3:0:0:0:
261,322,119394,6,2,L|153:326,2,107.999996704102,4|0|0,3:2|0:0|1:0,0:0:0:0:
96,248,119908,2,2,L|312:240,1,215.999993408203,2|2,0:2|0:0,0:0:0:0:
124,169,120423,2,0,P|11:248|127:324,1,323.999990112305,0|2,1:2|0:0,0:0:0:0:
203,244,121108,2,0,L|96:247,1,107.999996704102,0|2,1:0|0:0,0:0:0:0:
228,323,121451,6,0,P|284:259|188:163,1,215.999993408203,0|0,3:2|1:2,0:0:0:0:
95,247,121965,1,2,0:0:0:0:
203,244,122137,6,2,L|419:236,1,215.999993408203,0|0,3:2|1:0,0:0:0:0:
220,163,122651,2,0,P|285:240|228:323,1,215.999993408203,2|2,0:2|0:0,0:0:0:0:
95,247,123165,1,0,1:0:0:0:
160,108,123337,6,0,P|244:84|272:100,1,107.999996704102,2|0,0:0|3:0,0:0:0:0:
318,145,123680,2,0,P|272:171|220:163,1,107.999996704102,2|0,0:0|1:0,0:0:0:0:
98,51,124023,2,0,P|266:3|322:35,1,215.999993408203,2|2,0:2|0:0,0:0:0:0:
355,72,124537,2,0,P|309:98|257:89,1,107.999996704102,0|0,1:0|0:0,0:0:0:0:
408,8,124880,6,2,L|400:224,1,215.999993408203,4|0,3:2|1:0,0:0:0:0:
340,280,125394,1,0,0:0:0:0:
321,199,125565,2,0,P|275:225|257:274,2,107.999996704102,0|2|0,3:0|0:0|1:0,0:0:0:0:
400,223,126080,6,0,P|400:170|366:128,1,107.999996704102,2|0,0:0|3:0,0:0:0:0:
392,48,126423,2,0,P|339:47|297:81,1,107.999996704102,2|0,0:0|1:0,0:0:0:0:
217,56,126765,2,0,P|216:108|250:150,1,107.999996704102,2|0,0:0|3:0,0:0:0:0:
227,231,127108,2,0,P|279:231|321:197,2,107.999996704102,2|0|2,0:0|1:0|0:0,0:0:0:0:
249,149,127623,6,0,P|364:124|404:208,1,215.999993408203,0|0,3:2|1:0,0:0:0:0:
357,355,128137,2,0,P|280:289|320:197,1,215.999993408203,2|2,0:2|0:0,0:0:0:0:
463,255,128651,2,0,P|416:279|363:270,1,107.999996704102,0|2,1:0|0:0,0:0:0:0:
249,149,128994,5,0,3:0:0:0:
404,195,129165,1,2,0:0:0:0:
287,307,129337,1,0,1:0:0:0:
176,188,129508,2,0,P|168:128|196:84,1,107.999996704102,2|0,0:0|3:0,0:0:0:0:
220,64,129765,1,0,1:0:0:0:
252,44,129851,2,0,L|305:45,1,53.9999983520508,0|0,1:0|1:0,0:0:0:0:
340,64,130023,2,0,L|393:62,3,53.9999983520508,0|0|0|0,1:0|1:0|1:0|1:0,0:0:0:0:
424,88,130365,6,0,P|474:179|454:284,1,215.999993408203,4|8,3:2|0:2,0:0:0:0:
298,345,130880,2,0,B|347:313|399:349|399:349|449:384|501:354,1,215.999993408203,2|0,0:0|0:0,0:0:0:0:
453,284,131394,2,0,P|345:248|181:358,1,323.999990112305,8|0,0:0|0:0,0:0:0:0:
250,276,132080,6,0,P|270:172|220:79,1,215.999993408203,10|0,0:0|3:2,0:0:0:0:
148,40,132594,2,0,P|147:128|220:79,1,215.999993408203,2|0,0:0|0:0,0:0:0:0:
49,41,133108,6,0,P|40:84|60:148,1,107.999996704102,2|0,3:2|0:0,0:0:0:0:
176,260,133451,2,0,P|103:210|104:298,1,215.999993408203,8|2,0:0|3:2,0:0:0:0:
125,324,133880,1,0,0:0:0:0:
157,340,133965,1,0,0:0:0:0:
192,340,134051,1,0,0:0:0:0:
224,326,134137,1,8,0:0:0:0:
247,299,134223,1,0,0:0:0:0:
257,265,134308,1,2,0:0:0:0:
251,230,134394,1,0,0:0:0:0:
228,202,134480,1,2,3:2:0:0:
196,186,134565,1,0,0:0:0:0:
161,186,134651,1,0,0:0:0:0:
129,200,134737,1,0,0:0:0:0:
106,227,134823,1,8,0:0:0:0:
96,261,134908,1,0,0:0:0:0:
102,296,134994,1,2,0:0:0:0:
176,260,135165,6,2,L|168:44,1,215.999993408203,0|8,3:0|0:0,0:0:0:0:
424,64,135851,5,4,3:2:0:0:
390,52,135937,1,0,0:0:0:0:
355,59,136023,1,0,0:0:0:0:
328,81,136108,1,0,0:0:0:0:
316,114,136194,1,10,0:0:0:0:
321,149,136280,1,0,0:0:0:0:
343,177,136365,1,2,0:0:0:0:
375,190,136451,1,2,0:0:0:0:
410,187,136537,1,0,3:0:0:0:
445,184,136623,1,0,0:0:0:0:
477,197,136708,1,2,0:0:0:0:
499,225,136794,1,0,0:0:0:0:
504,260,136880,1,8,0:0:0:0:
492,293,136965,1,0,0:0:0:0:
465,315,137051,1,2,0:0:0:0:
430,322,137137,1,2,0:0:0:0:
397,311,137223,6,0,L|343:315,3,53.9999983520508,0|0|2|2,3:2|0:0|0:0|0:0,0:0:0:0:
275,351,137565,2,0,L|226:327,3,53.9999983520508,8|2|2|0,0:0|0:0|0:0|0:0,0:0:0:0:
149,324,137908,2,0,L|118:279,3,53.9999983520508,0|2|2|0,3:2|0:0|0:0|0:0,0:0:0:0:
53,238,138251,2,0,L|48:184,3,53.9999983520508,8|2|2|2,0:0|0:0|0:0|0:0,0:0:0:0:
13,116,138594,1,4,0:0:0:0:
29,81,138679,1,2,0:0:0:0:
45,47,138765,1,2,0:0:0:0:
140,120,138937,5,8,3:2:0:0:
136,156,139023,1,2,0:0:0:0:
161,184,139108,1,2,0:0:0:0:
197,187,139194,1,0,0:0:0:0:
226,163,139280,1,0,3:0:0:0:
229,126,139365,1,2,0:0:0:0:
204,98,139451,1,0,0:0:0:0:
168,95,139537,1,2,0:0:0:0:
140,120,139623,1,8,0:0:0:0:
136,156,139708,1,0,0:0:0:0:
152,188,139794,1,2,0:0:0:0:
178,213,139880,1,2,0:0:0:0:
210,227,139965,5,2,3:2:0:0:
245,230,140051,1,0,0:0:0:0:
279,221,140137,1,2,0:0:0:0:
309,201,140223,1,2,0:0:0:0:
329,173,140308,1,8,0:0:0:0:
339,138,140394,1,2,0:0:0:0:
337,103,140480,1,2,0:0:0:0:
323,70,140565,1,2,0:0:0:0:
299,45,140651,2,0,P|222:8|74:52,1,215.999993408203,2|8,3:2|0:0,0:0:0:0:
60,216,141337,5,4,3:2:0:0:
85,240,141423,1,2,0:0:0:0:
120,245,141508,1,2,0:0:0:0:
151,228,141594,1,0,0:0:0:0:
166,196,141680,1,8,0:0:0:0:
197,179,141765,1,0,0:0:0:0:
231,184,141851,1,2,0:0:0:0:
257,209,141937,1,0,0:0:0:0:
264,243,142023,1,0,3:0:0:0:
252,276,142108,1,2,0:0:0:0:
268,308,142194,1,2,0:0:0:0:
301,320,142280,1,0,0:0:0:0:
332,304,142365,1,8,0:0:0:0:
344,271,142451,1,2,0:0:0:0:
329,240,142537,1,2,0:0:0:0:
296,228,142623,1,2,0:0:0:0:
264,243,142708,5,2,3:2:0:0:
231,246,142794,1,2,0:0:0:0:
197,237,142880,1,0,0:0:0:0:
170,218,142965,1,2,0:0:0:0:
151,191,143051,1,8,0:0:0:0:
124,172,143137,1,2,0:0:0:0:
90,163,143223,1,2,0:0:0:0:
57,166,143308,1,0,0:0:0:0:
26,182,143394,1,2,3:2:0:0:
13,213,143480,1,0,0:0:0:0:
22,247,143565,1,2,0:0:0:0:
50,269,143651,1,0,0:0:0:0:
85,271,143737,1,8,0:0:0:0:
115,253,143823,1,2,0:0:0:0:
128,219,143908,1,2,0:0:0:0:
118,185,143994,1,2,0:0:0:0:
90,163,144080,6,0,L|92:104,7,53.9999983520508,2|2|2|2|10|2|2|2,3:2|0:0|0:0|0:0|0:0|0:0|0:0|0:0,0:0:0:0:
169,98,144765,2,0,L|168:152,7,53.9999983520508,0|2|2|2|8|2|2|2,3:0|0:0|0:0|0:0|0:0|0:0|0:0|0:0,0:0:0:0:
245,140,145451,2,0,L|247:87,5,53.9999983520508,0|2|2|0|8|0,3:0|0:0|0:0|0:0|0:0|0:0,0:0:0:0:
324,74,145965,2,0,L|315:313,1,215.999993408203,2|2,0:0|0:0,0:0:0:0:
399,153,146480,1,8,0:0:0:0:
245,140,146651,1,2,0:0:0:0:
315,289,146823,22,0,P|367:341|479:249,1,215.999993408203,4|8,3:2|0:0,0:0:0:0:
399,153,147337,2,0,L|395:261,1,107.999996704102,2|0,0:0|3:0,0:0:0:0:
452,84,147680,2,0,P|407:66|328:98,1,107.999996704102,2|8,0:0|0:0,0:0:0:0:
273,220,148023,6,0,P|330:136|267:58,1,215.999993408203,2|0,0:2|0:0,0:0:0:0:
137,136,148537,2,0,L|245:140,1,107.999996704102,8|2,0:0|0:0,0:0:0:0:
108,55,148880,5,0,3:0:0:0:
78,72,148965,1,0,0:0:0:0:
57,101,149051,1,2,0:0:0:0:
50,135,149137,1,0,0:0:0:0:
58,169,149223,1,8,0:0:0:0:
78,197,149308,1,0,0:0:0:0:
108,215,149394,2,0,L|215:218,1,107.999996704102,2|0,0:0|3:0,0:0:0:0:
323,222,149737,37,2,0:0:0:0:
353,240,149823,1,0,0:0:0:0:
373,268,149908,1,8,0:0:0:0:
381,302,149994,1,0,0:0:0:0:
374,336,150080,2,0,L|266:339,1,107.999996704102,2|0,0:0|3:0,0:0:0:0:
180,344,150423,5,2,0:0:0:0:
180,344,150508,1,0,0:0:0:0:
180,344,150594,1,8,0:0:0:0:
220,268,150765,2,0,P|136:325|58:262,1,215.999993408203,2|0,0:2|0:0,0:0:0:0:
136,132,151280,2,0,L|140:240,1,107.999996704102,8|2,0:0|0:0,0:0:0:0:
78,43,151623,5,8,0:1:0:0:
140,240,151794,1,8,0:0:0:0:
282,88,151965,1,8,0:1:0:0:
78,43,152137,1,8,0:0:0:0:
166,127,152308,5,4,0:0:0:0:
120,100,163108,53,0,0:0:0:0:
40,77,163280,2,0,P|102:18|183:47,1,180,4|8,0:0|0:1,0:0:0:0:
120,100,163794,2,0,L|128:196,1,90,0|0,0:0|3:0,0:0:0:0:
182,252,164137,2,0,P|142:270|98:267,2,90,2|8|2,0:3|0:1|0:3,0:0:0:0:
260,280,164651,6,0,P|263:235|245:194,1,90,0|2,3:0|0:3,0:0:0:0:
277,118,164994,2,0,P|232:114|191:132,1,90,8|2,0:1|0:3,0:0:0:0:
112,104,165337,2,0,P|108:148|126:189,1,90,0|2,3:0|0:3,0:0:0:0:
95,266,165680,2,0,P|139:269|180:251,1,90,8|2,0:1|0:3,0:0:0:0:
64,343,166023,6,0,P|152:349|234:313,1,180,0|8,3:0|0:1,0:0:0:0:
288,248,166537,2,0,L|280:158,1,90,2|0,0:3|3:3,0:0:0:0:
196,148,166880,2,0,L|203:237,1,90,2|8,0:3|0:1,0:0:0:0:
316,324,167223,6,0,P|360:328|401:310,1,90,2|0,0:3|3:3,0:0:0:0:
480,340,167565,2,0,P|484:296|466:255,1,90,2|8,0:3|0:1,0:0:0:0:
496,176,167908,2,0,P|452:172|411:190,1,90,2|0,0:3|3:3,0:0:0:0:
332,160,168251,1,2,0:3:0:0:
332,160,168423,2,0,P|328:204|346:245,1,90,8|0,0:1|0:3,0:0:0:0:
394,106,168765,6,0,P|313:78|252:137,1,180,4|8,0:0|0:1,0:0:0:0:
332,160,169280,2,0,L|340:256,1,90,2|0,0:3|3:0,0:0:0:0:
394,312,169623,2,0,P|354:330|310:327,2,90,2|8|2,0:3|0:1|0:3,0:0:0:0:
339,249,170137,6,0,P|294:245|253:263,1,90,0|2,3:3|0:3,0:0:0:0:
200,199,170480,2,0,P|174:235|170:280,1,90,8|2,0:1|0:3,0:0:0:0:
87,294,170823,2,0,P|136:356|236:328,1,180,0|8,3:3|0:1,0:0:0:0:
253,262,171337,1,2,0:3:0:0:
200,199,171508,6,0,L|20:215,1,180,2|8,3:2|0:1,0:0:0:0:
60,136,172023,2,0,L|150:128,1,90,2|0,0:3|3:0,0:0:0:0:
160,277,172365,2,0,L|70:285,1,90,2|8,0:3|0:1,0:0:0:0:
149,128,172708,6,2,P|285:178|160:277,1,371.699986955109,6|8,0:0|0:3,0:0:0:0:
200,199,174080,5,2,0:0:0:0:
348,284,174251,2,0,P|399:296|448:275,1,107.999996704102,4|2,3:2|0:0,0:0:0:0:
508,219,174594,1,0,1:0:0:0:
312,212,174765,2,0,P|276:250|269:303,1,107.999996704102,2|0,0:0|3:0,0:0:0:0:
284,384,175108,1,2,0:0:0:0:
392,216,175280,2,0,P|377:165|334:133,1,107.999996704102,0|2,1:2|0:0,0:0:0:0:
257,105,175623,1,0,3:0:0:0:
348,284,175794,2,0,P|399:296|448:275,2,107.999996704102,2|0|2,0:0|1:0|0:0,0:0:0:0:
334,133,176308,6,0,P|377:165|392:216,1,107.999996704102,0|2,3:0|0:0,0:0:0:0:
269,303,176651,2,0,P|275:250|312:212,1,107.999996704102,0|2,1:0|0:0,0:0:0:0:
448,274,176994,6,0,P|399:295|348:284,1,107.999996704102,0|2,3:2|0:0,0:0:0:0:
391,215,177337,1,0,1:0:0:0:
507,334,177508,2,0,P|409:376|306:353,1,215.999993408203,2|2,0:0|0:0,0:0:0:0:
164,272,178023,1,0,1:0:0:0:
223,215,178194,6,0,P|244:263|232:315,1,107.999996704102,2|0,0:0|3:0,0:0:0:0:
144,192,178537,2,0,P|175:149|226:134,1,107.999996704102,2|0,0:0|1:0,0:0:0:0:
164,272,178880,2,0,P|111:266|72:229,1,107.999996704102,2|0,0:0|3:0,0:0:0:0:
226,134,179223,1,2,0:0:0:0:
75,149,179394,1,0,1:0:0:0:
164,272,179565,1,2,0:0:0:0:
292,184,179737,6,0,P|300:96|180:64,1,215.999993408203,4|2,3:2|1:2,0:0:0:0:
75,149,180251,1,2,0:0:0:0:
164,272,180423,1,0,3:2:0:0:
226,134,180594,1,2,0:2:0:0:
75,149,180765,1,0,1:2:0:0:
164,272,180937,6,0,L|380:282,1,215.999993408203,2|2,0:2|0:0,0:0:0:0:
460,256,181451,1,0,1:0:0:0:
404,99,181623,2,0,P|383:148|396:200,1,107.999996704102,2|0,0:0|3:0,0:0:0:0:
468,156,181965,2,0,P|489:107|476:55,2,107.999996704102,2|0|2,0:0|1:0|0:0,0:0:0:0:
320,95,182480,6,0,P|383:16|476:55,1,215.999993408203,0|0,3:0|1:0,0:0:0:0:
420,299,182994,2,0,P|445:196|404:99,1,215.999993408203,2|2,0:0|0:0,0:0:0:0:
280,216,183508,1,0,1:0:0:0:
352,260,183680,2,0,P|360:188|200:244,1,323.999990112305,2|0,0:0|1:0,0:0:0:0:
420,299,184365,6,0,P|445:196|404:99,1,215.999993408203,2|2,0:0|0:0,0:0:0:0:
227,89,184880,1,0,3:0:0:0:
196,114,184965,1,0,3:0:0:0:
178,149,185051,1,0,3:0:0:0:
177,189,185137,1,0,3:0:0:0:
195,226,185223,6,2,L|303:230,2,107.999996704102,4|2|0,3:2|0:0|1:0,0:0:0:0:
378,180,185737,1,2,0:0:0:0:
302,229,185908,1,0,3:0:0:0:
378,180,186080,1,2,0:0:0:0:
475,336,186251,2,0,B|371:352|371:352|271:307|271:307|161:322,1,323.999990112305,0|2,1:0|0:0,0:0:0:0:
101,261,186937,2,0,B|78:311|78:311|86:366,1,107.999996704102,0|2,1:0|0:0,0:0:0:0:
181,240,187280,6,0,P|104:175|22:233,1,215.999993408203,0|0,3:0|1:0,0:0:0:0:
85,363,187794,1,2,0:0:0:0:
181,240,187965,6,0,B|250:250|250:250|316:220|316:220|389:230,1,215.999993408203,0|0,3:2|1:0,0:0:0:0:
160,320,188480,2,0,P|95:243|152:160,1,215.999993408203,2|2,0:2|0:0,0:0:0:0:
389,230,188994,1,0,1:0:0:0:
318,271,189165,6,0,P|307:219|330:171,1,107.999996704102,2|0,0:0|3:0,0:0:0:0:
400,129,189508,2,0,P|410:181|388:229,1,107.999996704102,2|0,0:0|1:0,0:0:0:0:
246,313,189851,2,0,P|225:209|270:113,1,215.999993408203,2|2,0:0|0:0,0:0:0:0:
341,70,190365,2,0,P|351:122|329:170,1,107.999996704102,0|0,1:2|0:0,0:0:0:0:
266,31,190708,6,0,L|482:39,2,215.999993408203,4|2|0,3:2|1:2|3:0,0:0:0:0:
328,170,191565,1,2,0:0:0:0:
176,155,191737,1,0,1:2:0:0:
391,111,191908,6,0,P|413:159|403:211,1,107.999996704102,2|0,0:2|3:0,0:0:0:0:
176,155,192251,1,2,0:0:0:0:
328,170,192423,1,0,1:0:0:0:
155,237,192594,2,0,P|90:160|147:77,1,215.999993408203,2|2,0:0|0:0,0:0:0:0:
327,169,193108,1,0,1:0:0:0:
176,155,193280,1,2,0:0:0:0:
360,246,193451,6,0,P|416:162|351:86,1,215.999993408203,0|0,3:0|1:0,0:0:0:0:
220,165,193965,2,0,L|327:169,1,107.999996704102,2|0,0:0|3:0,0:0:0:0:
158,103,194308,1,2,0:0:0:0:
327,169,194480,1,0,1:0:0:0:
185,282,194651,1,2,0:0:0:0:
220,165,194823,5,0,3:0:0:0:
185,282,194994,1,2,0:0:0:0:
271,240,195165,1,0,1:0:0:0:
143,205,195337,2,0,P|135:145|163:101,1,107.999996704102,2|0,0:0|1:0,0:0:0:0:
187,81,195594,1,0,1:0:0:0:
219,61,195680,2,0,L|272:62,1,53.9999983520508,0|0,1:0|1:0,0:0:0:0:
307,81,195851,2,0,L|360:79,3,53.9999983520508,0|0|0|0,3:0|3:0|3:0|3:0,0:0:0:0:
396,61,196194,6,0,P|421:182|4:164,1,755.999976928712,4|0,3:2|3:0,0:0:0:0:
65,107,197737,1,2,0:0:0:0:
135,159,197908,2,0,L|242:152,1,107.999996704102,8|2,0:0|0:0,0:0:0:0:
366,146,198251,5,0,3:0:0:0:
307,211,198423,1,2,0:0:0:0:
301,87,198594,1,8,0:0:0:0:
242,151,198765,1,2,0:0:0:0:
208,71,198937,6,0,P|153:153|218:235,2,215.999993408203,4|8|0,3:2|0:0|3:0,0:0:0:0:
294,74,199794,2,0,L|404:85,1,107.999996704102,2|8,0:0|0:0,0:0:0:0:
456,172,200137,6,0,L|242:151,1,215.999993408203,2|0,0:0|0:0,0:0:0:0:
154,143,200651,1,8,0:0:0:0:
294,74,200823,1,2,0:0:0:0:
284,230,200994,1,0,3:0:0:0:
154,143,201165,1,2,0:0:0:0:
284,230,201337,6,0,L|394:219,1,107.999996704102,8|2,0:0|0:0,0:0:0:0:
477,209,201680,1,4,0:2:0:0:
256,192,201765,12,0,205794,3:0:0:0:
339,243,206823,37,0,3:0:0:0:
339,243,206908,1,0,3:0:0:0:
339,243,206994,1,0,3:0:0:0:
416,283,207165,6,0,P|424:223|396:179,1,107.999996704102,4|2,3:2|0:0,0:0:0:0:
339,329,207508,2,0,P|400:372|505:297,1,215.999993408203,8|0,0:0|3:0,0:0:0:0:
339,243,208023,2,0,L|231:249,1,107.999996704102,2|8,0:0|0:0,0:0:0:0:
401,183,208365,6,0,L|460:273,1,107.999996704102,2|0,0:2|3:0,0:0:0:0:
319,160,208708,2,0,L|367:63,1,107.999996704102,2|8,0:2|0:0,0:0:0:0:
339,243,209051,2,0,L|230:249,1,107.999996704102,2|0,0:2|3:0,0:0:0:0:
401,183,209394,1,2,0:0:0:0:
339,243,209565,1,8,0:0:0:0:
319,160,209737,1,2,0:0:0:0:
172,190,209908,6,0,P|147:237|157:289,1,107.999996704102,4|2,3:2|0:0,0:0:0:0:
339,243,210251,2,0,L|231:248,1,107.999996704102,8|2,0:0|0:0,0:0:0:0:
159,367,210594,2,0,L|375:357,1,215.999993408203,0|8,3:0|0:0,0:0:0:0:
416,282,211108,6,0,P|425:229|400:183,1,107.999996704102,2|0,0:0|3:0,0:0:0:0:
245,206,211451,2,0,P|285:240|338:242,1,107.999996704102,2|8,0:0|0:0,0:0:0:0:
396,95,211794,2,0,P|345:112|317:157,1,107.999996704102,2|0,0:2|3:0,0:0:0:0:
416,282,212137,2,0,P|425:229|400:183,2,107.999996704102,2|8|2,0:0|0:2|0:0,0:0:0:0:
168,160,212651,6,0,P|160:100|188:56,1,107.999996704102,4|2,3:2|0:0,0:0:0:0:
245,206,212994,2,0,P|184:249|79:174,1,215.999993408203,8|0,0:0|3:0,0:0:0:0:
245,120,213508,2,0,L|353:126,1,107.999996704102,2|8,0:0|0:0,0:0:0:0:
376,306,213851,6,0,L|328:209,1,107.999996704102,2|0,0:0|3:0,0:0:0:0:
472,100,214194,2,0,L|412:190,1,107.999996704102,2|8,0:0|0:0,0:0:0:0:
245,120,214537,2,0,L|353:126,1,107.999996704102,2|0,0:0|3:0,0:0:0:0:
472,100,214880,1,2,0:0:0:0:
352,126,215051,1,8,0:0:0:0:
435,217,215223,1,2,0:0:0:0:
185,177,215394,6,0,P|160:130|170:78,1,107.999996704102,4|2,3:2|0:0,0:0:0:0:
352,124,215737,2,0,L|244:119,1,107.999996704102,8|2,0:0|0:0,0:0:0:0:
181,258,216080,2,0,L|397:248,1,215.999993408203,0|8,3:0|0:0,0:0:0:0:
103,298,216594,6,0,P|94:245|119:199,1,107.999996704102,2|0,0:0|3:0,0:0:0:0:
274,222,216937,2,0,P|234:256|181:258,1,107.999996704102,2|8,0:0|0:0,0:0:0:0:
123,111,217280,2,0,P|174:128|202:173,1,107.999996704102,2|0,0:0|3:0,0:0:0:0:
201,172,217537,1,8,0:1:0:0:
201,172,217623,1,8,0:1:0:0:
103,298,217794,1,8,0:0:0:0:
156,295,217880,1,8,0:0:0:0:
210,293,217965,1,8,0:0:0:0:
264,290,218051,1,8,0:0:0:0:
318,288,218137,6,0,P|378:296|422:268,1,107.999996704102,4|2,3:2|0:0,0:0:0:0:
429,59,218480,2,0,P|368:16|263:91,1,215.999993408203,8|0,0:2|3:0,0:0:0:0:
358,210,218994,2,0,L|352:102,1,107.999996704102,2|8,0:0|0:0,0:0:0:0:
318,288,219337,6,0,L|414:336,1,107.999996704102,2|0,0:0|3:0,0:0:0:0:
271,215,219680,2,0,L|180:274,1,107.999996704102,2|8,0:0|0:0,0:0:0:0:
358,210,220023,2,0,L|352:101,1,107.999996704102,2|0,0:0|3:0,0:0:0:0:
318,288,220365,1,2,0:0:0:0:
271,215,220537,1,8,0:0:0:0:
358,210,220708,1,2,0:0:0:0:
411,43,220880,6,0,P|364:18|312:28,1,107.999996704102,4|2,3:2|0:0,0:0:0:0:
358,210,221223,2,0,L|353:102,1,107.999996704102,8|2,0:0|0:0,0:0:0:0:
235,24,221565,2,0,L|245:240,1,215.999993408203,0|8,3:0|0:0,0:0:0:0:
317,287,222080,6,0,P|370:296|416:271,1,107.999996704102,2|0,0:0|3:0,0:0:0:0:
393,116,222423,2,0,P|359:156|357:209,1,107.999996704102,2|8,0:0|0:0,0:0:0:0:
504,267,222765,2,0,P|487:216|442:188,1,107.999996704102,2|0,0:0|3:0,0:0:0:0:
317,287,223108,2,0,P|370:296|416:271,2,107.999996704102,2|8|2,0:0|0:0|0:0,0:0:0:0:
206,58,223623,6,0,P|266:50|310:78,1,107.999996704102,4|2,3:2|0:0,0:0:0:0:
317,287,223965,2,0,P|256:330|151:255,1,215.999993408203,8|0,0:0|3:2,0:0:0:0:
246,136,224480,2,0,L|240:244,1,107.999996704102,2|8,0:0|0:0,0:0:0:0:
310,76,224823,6,0,L|220:16,1,107.999996704102,2|0,0:0|3:0,0:0:0:0:
329,160,225165,2,0,L|426:112,1,107.999996704102,2|8,0:0|0:0,0:0:0:0:
246,135,225508,2,0,L|240:243,1,107.999996704102,2|0,0:0|3:0,0:0:0:0:
310,76,225851,1,2,0:0:0:0:
132,99,226023,1,8,0:0:0:0:
240,242,226194,1,2,0:0:0:0:
72,41,226365,6,0,P|47:88|57:140,1,107.999996704102,4|2,3:2|0:2,0:0:0:0:
239,94,226708,2,0,L|131:99,1,107.999996704102,8|2,0:2|0:0,0:0:0:0:
61,232,227051,2,0,L|277:242,1,215.999993408203,0|8,3:0|0:0,0:0:0:0:
432,161,227565,6,0,P|380:152|334:177,1,107.999996704102,2|0,0:2|3:0,0:0:0:0:
179,94,227908,2,0,P|231:85|278:110,1,107.999996704102,2|8,0:2|0:0,0:0:0:0:
394,238,228251,2,0,P|289:218|196:268,1,215.999993408203,2|0,0:0|3:0,0:0:0:0:
171,350,228765,1,8,0:0:0:0:
171,350,228851,1,8,0:0:0:0:
171,350,228937,1,8,0:0:0:0:
111,280,229107,5,4,3:2:0:0:
121,199,229279,1,2,0:2:0:0:
131,118,229450,1,8,0:0:0:0:
207,84,229622,2,0,L|298:78,2,90,2|0|2,0:0|3:0|0:0,0:0:0:0:
141,37,230136,1,8,0:0:0:0:
131,118,230308,1,2,0:0:0:0:
121,199,230479,1,0,3:0:0:0:
111,280,230650,1,2,0:0:0:0:
171,350,230822,1,8,0:0:0:0:
171,350,230908,1,8,0:0:0:0:
171,350,230993,1,0,3:0:0:0:
226,297,231165,5,4,3:2:0:0:
307,307,231336,1,2,0:0:0:0:
388,317,231508,1,8,0:2:0:0:
437,252,231679,2,0,L|431:162,2,90,2|0|2,0:0|3:2|0:0,0:0:0:0:
469,327,232193,1,8,0:0:0:0:
388,317,232365,1,2,0:0:0:0:
307,307,232536,1,0,3:0:0:0:
226,297,232708,1,2,0:0:0:0:
160,346,232879,1,8,0:0:0:0:
160,346,232965,1,8,0:0:0:0:
160,346,233050,1,8,0:0:0:0:
160,346,233136,1,8,0:0:0:0:
160,346,233222,5,4,3:2:0:0:
226,297,233393,1,2,0:0:0:0:
152,262,233565,2,0,L|149:217,3,45,8|0|0|0,0:0|0:0|0:0|0:0,0:0:0:0:
132,204,233911,2,0,L|129:159,3,45,0|0|0|0,3:0|0:0|0:0|0:0,0:0:0:0:
119,139,234258,1,8,0:0:0:0:
149,63,234432,1,0,0:0:0:0:
232,70,234605,1,0,3:0:0:0:
315,77,234778,1,2,0:0:0:0:
370,7,234952,1,8,0:0:0:0:
370,7,235038,1,8,0:0:0:0:
370,7,235125,1,0,3:2:0:0:
398,84,235299,5,4,3:2:0:0:
454,19,235472,1,2,0:0:0:0:
482,97,235625,2,0,L|479:142,3,45,8|0|0|0,0:0|0:0|0:0|0:0,0:0:0:0:
462,155,235967,2,0,L|459:200,3,45,0|0|0|0,3:0|0:0|0:0|0:0,0:0:0:0:
449,220,236310,1,8,0:0:0:0:
373,250,236482,1,0,0:0:0:0:
331,178,236653,1,0,3:0:0:0:
262,222,236819,1,8,0:0:0:0:
250,240,236903,1,8,0:0:0:0:
243,261,236986,1,8,0:0:0:0:
242,284,237069,1,8,0:0:0:0:
247,306,237153,1,8,0:0:0:0:
257,325,237236,1,8,0:0:0:0:
273,341,237319,38,0,P|317:351|359:338,2,90,4|2|0,3:2|0:0|3:0,0:0:0:0:
403,270,237845,2,0,P|411:210|395:178,2,90,2|0|2,0:2|3:0|0:0,0:0:0:0:
333,140,238371,2,0,P|273:132|241:148,2,90,0|2|0,3:2|0:3|3:0,0:0:0:0:
203,211,238890,2,0,P|195:271|211:303,2,90,2|0|2,0:2|3:0|0:0,0:0:0:0:
277,336,239405,6,0,P|287:292|273:250,2,90,2|0|0,3:0|0:0|3:0,0:0:0:0:
353,228,239919,2,0,P|329:190|290:169,2,90,2|0|2,0:0|3:0|0:0,0:0:0:0:
330,98,240433,2,0,P|286:87|244:101,2,90,0|2|0,3:0|0:3|3:0,0:0:0:0:
222,22,240947,2,0,P|184:45|163:84,2,90,2|0|2,0:0|3:0|0:0,0:0:0:0:
104,143,241462,6,0,P|59:144|20:122,2,90,2|0|0,3:2|0:0|3:0,0:0:0:0:
203,255,241976,2,0,P|202:210|179:173,2,90,2|0|2,0:0|3:0|0:0,0:0:0:0:
64,296,242490,2,0,P|85:257|124:234,2,90,0|2|0,3:0|0:3|3:0,0:0:0:0:
227,334,243005,2,0,P|182:335|144:314,2,90,2|0|2,0:0|3:0|0:0,0:0:0:0:
306,315,243519,6,0,L|328:136,1,180,2|0,3:0|3:0,0:0:0:0:
180,68,244205,2,0,L|158:247,1,180,0|0,3:0|3:0,0:0:0:0:
145,327,244719,1,2,0:3:0:0:
239,259,244890,21,0,3:0:0:0:
226,340,245062,1,2,0:3:0:0:
158,246,245233,1,0,3:3:0:0:
145,327,245405,1,2,0:0:0:0:
