osu file format v14

[General]
AudioFilename: audio.mp3
AudioLeadIn: 0
PreviewTime: 173994
Countdown: 0
SampleSet: Soft
StackLeniency: 0.4
Mode: 0
LetterboxInBreaks: 0
WidescreenStoryboard: 1

[Editor]
Bookmarks: 3509,20652,42594,53566,64537,86480,97452,108423,130366,152309,163280,174252,196194,207166,229109,237337,243509,245394
DistanceSpacing: 1
BeatDivisor: 4
GridSize: 4
TimelineZoom: 1.2

[Metadata]
Title:Kuusou Ressha
TitleUnicode:空奏列車
Artist:Wolpis Kater
ArtistUnicode:ウォルピスカーター
Creator:Sonnyc
Version:Expert
Source:
Tags:orangestar daydream sky train Karia Left Dailycare Morinaga island
BeatmapID:1128531
BeatmapSetID:532596

[Difficulty]
HPDrainRate:6
CircleSize:4.2
OverallDifficulty:9
ApproachRate:9.5
SliderMultiplier:1.8
SliderTickRate:2

[Events]
//Background and Video events
0,0,"bg.jpg",0,0
//Break Periods
2,86680,96241
2,152509,162584
//Storyboard Layer 0 (Background)
//Storyboard Layer 1 (Fail)
//Storyboard Layer 2 (Pass)
//Storyboard Layer 3 (Foreground)
//Storyboard Sound Samples

[TimingPoints]
3510,342.857142857143,6,2,1,40,1,0
7624,-100,6,2,1,50,0,0
18595,333.333333333333,6,2,1,70,1,8
19261,333.333333333333,6,2,1,40,1,0
19432,357.142857142857,6,2,1,40,1,8
19967,342.857142857143,6,2,1,50,1,8
20652,342.857142857143,4,2,1,70,1,0
42594,-100,4,2,1,60,0,0
52880,-100,4,2,1,40,0,0
53566,-100,4,2,1,70,0,0
63852,-100,4,2,1,40,0,0
64366,-100,4,2,1,60,0,0
64537,-76.9230769230769,4,2,1,70,0,1
86480,-100,4,2,1,60,0,0
107052,324.324324324324,4,2,1,60,1,0
107700,361.44578313253,4,2,1,60,1,8
107909,-100,4,2,1,40,0,0
108252,-100,4,2,1,60,0,0
108423,342.857142857143,4,2,1,70,1,1
108423,-76.9230769230769,4,2,1,70,0,1
112366,-74.0740740740741,4,2,1,70,0,1
112709,-76.9230769230769,4,2,1,70,0,1
130365,-76.9230769230769,4,2,1,70,0,0
152309,-76.9230769230769,4,2,1,60,0,0
163280,-100,4,2,1,60,0,0
172709,-153.846153846154,4,2,1,40,0,0
173909,-153.846153846154,4,2,1,60,0,0
174251,-76.9230769230769,4,2,1,70,0,1
196194,-90.9090909090909,4,2,1,70,0,0
197566,-76.9230769230769,4,2,1,70,0,0
229108,342.857142857143,6,2,1,50,1,0
233565,346.820809248555,6,2,1,50,1,0
235472,307.692307692308,6,2,1,50,1,8
235625,342.857142857143,6,2,1,50,1,0
236653,333.333333333333,6,2,1,50,1,8
237319,350.877192982456,6,2,1,50,1,0
238722,337.078651685393,6,2,1,50,1,8
239227,357.142857142857,6,2,1,50,1,8
239405,342.857142857143,6,2,1,50,1,0

[Colours]
Combo1 : 255,128,0
Combo2 : 0,255,128
Combo3 : 128,128,255
Combo4 : 255,128,192

[HitObjects]
133,224,3509,54,0,L|129:316,2,90,2|0|0,0:0|0:0|0:0,0:0:0:0:
181,148,4024,2,0,P|145:136|85:148,2,90,2|0|0,0:0|0:0|0:0,0:0:0:0:
273,152,4538,2,0,L|269:60,2,90,2|0|0,0:0|0:0|0:0,0:0:0:0:
225,228,5052,2,0,P|267:240|311:232,2,90,2|0|0,0:0|0:0|0:0,0:0:0:0:
365,156,5567,6,0,P|401:144|461:156,2,90,2|0|0,0:0|0:0|0:0,0:0:0:0:
285,116,6081,2,0,P|310:87|368:68,2,90,2|0|0,0:0|0:0|0:0,0:0:0:0:
195,121,6595,2,0,P|202:83|243:37,2,90,2|0|0,0:0|0:0|0:0,0:0:0:0:
120,170,7110,2,0,P|107:134|119:74,2,90,2|0|0,0:0|0:0|0:0,0:0:0:0:
33,46,7624,6,0,P|17:134|45:219,1,180,4|0,3:2|3:0,0:0:0:0:
94,294,8138,1,0,0:0:0:0:
169,245,8310,2,0,L|367:285,1,180,0|0,3:0|3:0,0:0:0:0:
433,300,8824,1,2,0:3:0:0:
406,129,8995,2,0,P|393:172|401:216,2,90,0|2|0,3:0|0:3|3:0,0:0:0:0:
481,180,9510,1,2,0:3:0:0:
414,41,9681,22,0,P|370:50|336:78,2,90,2|0|0,3:0|0:3|3:0,0:0:0:0:
481,180,10195,1,2,0:0:0:0:
319,250,10367,2,0,L|227:246,2,90,2|0|0,3:2|0:0|3:0,0:0:0:0:
389,304,10881,1,2,0:3:0:0:
229,246,11052,1,0,3:3:0:0:
359,136,11224,1,2,0:3:0:0:
319,250,11395,1,0,3:0:0:0:
240,158,11567,1,2,0:3:0:0:
401,216,11738,38,0,P|401:56|317:56,1,180,4|8,3:2|3:2,0:0:0:0:
385,44,12167,1,2,0:0:0:0:
352,29,12252,1,2,0:0:0:0:
317,19,12338,1,2,0:0:0:0:
282,16,12424,1,2,3:2:0:0:
246,19,12510,1,2,0:0:0:0:
211,28,12595,1,2,0:0:0:0:
178,43,12681,1,2,0:0:0:0:
149,63,12767,1,10,3:2:0:0:
123,89,12852,1,2,0:0:0:0:
102,118,12938,1,2,0:0:0:0:
86,150,13024,1,2,0:0:0:0:
76,185,13110,1,2,3:2:0:0:
72,220,13195,1,2,0:0:0:0:
75,256,13281,1,2,0:0:0:0:
83,291,13367,1,2,0:0:0:0:
97,324,13452,1,8,3:0:0:0:
117,354,13538,1,4,3:0:0:0:
137,384,13624,1,4,3:0:0:0:
358,140,13795,6,0,P|292:113|205:171,1,180,4|8,3:2|3:2,0:0:0:0:
196,202,14224,1,2,0:0:0:0:
195,238,14310,1,2,0:0:0:0:
201,273,14395,1,2,0:0:0:0:
215,306,14481,1,2,3:2:0:0:
237,335,14567,1,2,0:0:0:0:
265,358,14652,1,2,0:0:0:0:
297,373,14738,1,2,0:0:0:0:
332,382,14824,1,10,3:2:0:0:
368,381,14910,1,2,0:0:0:0:
403,373,14995,1,2,0:0:0:0:
435,357,15081,1,2,0:0:0:0:
462,333,15167,1,2,3:2:0:0:
483,304,15252,1,2,0:0:0:0:
497,271,15338,1,2,0:0:0:0:
503,236,15424,1,2,0:0:0:0:
503,199,15510,1,10,3:2:0:0:
496,164,15595,1,10,3:2:0:0:
489,129,15681,1,2,3:2:0:0:
482,94,15767,1,10,3:2:0:0:
475,59,15852,5,4,3:2:0:0:
292,204,16024,1,2,0:0:0:0:
228,144,16195,5,0,3:0:0:0:
265,120,16281,1,8,0:2:0:0:
310,118,16367,1,8,0:2:0:0:
349,138,16452,1,8,0:2:0:0:
374,175,16538,1,0,3:0:0:0:
378,219,16624,1,8,0:2:0:0:
359,259,16710,1,8,0:2:0:0:
323,285,16795,1,8,0:2:0:0:
279,290,16881,1,0,3:0:0:0:
238,273,16967,1,8,0:2:0:0:
197,256,17052,1,8,0:2:0:0:
153,260,17138,1,8,0:2:0:0:
124,295,17224,5,0,3:0:0:0:
137,336,17310,1,8,0:2:0:0:
174,362,17395,1,8,0:2:0:0:
216,376,17481,1,8,0:2:0:0:
259,384,17567,1,0,3:0:0:0:
304,383,17652,1,8,0:2:0:0:
348,372,17738,1,8,0:2:0:0:
387,350,17824,1,8,0:2:0:0:
420,320,17910,1,0,3:0:0:0:
444,282,17995,1,8,0:2:0:0:
459,240,18081,1,8,0:2:0:0:
463,195,18167,1,8,0:2:0:0:
456,151,18252,1,0,3:0:0:0:
439,109,18338,1,8,0:2:0:0:
412,74,18424,1,8,0:2:0:0:
377,45,18510,1,8,0:2:0:0:
337,26,18595,5,0,3:2:0:0:
347,97,18678,1,8,0:1:0:0:
324,164,18761,1,8,0:1:0:0:
273,213,18845,1,8,0:1:0:0:
204,233,18928,1,8,0:2:0:0:
134,219,19011,1,8,0:1:0:0:
79,174,19095,1,8,0:1:0:0:
51,109,19178,1,8,0:1:0:0:
56,37,19261,37,2,0:2:0:0:
187,86,19432,1,2,0:0:0:0:
79,174,19610,1,2,0:0:0:0:
56,37,19789,1,0,0:0:0:0:
8,228,19967,21,2,0:0:0:0:
56,37,20138,1,2,0:0:0:0:
247,85,20310,1,2,0:0:0:0:
199,276,20481,1,2,0:0:0:0:
159,81,20652,6,0,P|174:39|206:8,1,90,4|2,3:2|0:0,0:0:0:0:
200,164,20994,1,8,3:2:0:0:
68,81,21166,1,2,0:0:0:0:
206,7,21337,5,0,3:0:0:0:
156,239,21509,1,2,0:0:0:0:
292,168,21680,1,8,3:2:0:0:
68,81,21852,1,2,0:0:0:0:
248,244,22023,5,0,3:2:0:0:
324,288,22194,1,2,0:0:0:0:
411,288,22366,1,8,3:2:0:0:
487,244,22537,1,2,0:0:0:0:
336,92,22709,5,2,3:2:0:0:
292,168,22880,1,2,0:0:0:0:
368,212,23052,1,8,3:2:0:0:
412,136,23223,1,2,0:0:0:0:
248,91,23394,5,4,3:2:0:0:
291,256,23566,1,2,0:0:0:0:
412,136,23737,1,8,3:2:0:0:
248,91,23909,1,2,0:0:0:0:
204,257,24080,5,0,3:2:0:0:
368,212,24252,1,2,0:0:0:0:
325,377,24423,1,8,3:2:0:0:
204,257,24594,1,2,0:0:0:0:
412,136,24766,5,0,3:0:0:0:
368,212,24937,1,2,0:0:0:0:
291,256,25109,1,8,3:2:0:0:
204,257,25280,1,2,0:0:0:0:
324,135,25452,5,2,3:2:0:0:
446,255,25623,1,2,0:0:0:0:
326,377,25794,1,8,3:2:0:0:
204,257,25966,1,2,0:0:0:0:
488,180,26137,6,0,P|520:212|528:280,1,90,4|2,3:2|0:0,0:0:0:0:
368,212,26480,1,8,3:2:0:0:
488,89,26652,1,2,0:0:0:0:
446,255,26823,5,0,3:0:0:0:
248,91,26994,1,2,0:2:0:0:
410,47,27166,1,8,3:2:0:0:
284,299,27337,1,2,0:0:0:0:
166,129,27509,5,0,3:0:0:0:
248,91,27680,1,2,0:0:0:0:
338,99,27852,1,8,3:2:0:0:
412,152,28023,1,2,0:0:0:0:
231,271,28194,5,2,3:2:0:0:
239,181,28366,1,2,0:0:0:0:
329,189,28537,1,8,3:2:0:0:
321,279,28709,1,2,0:2:0:0:
158,220,28880,5,4,3:2:0:0:
290,108,29052,1,2,0:2:0:0:
321,279,29223,1,8,3:2:0:0:
158,220,29394,1,2,0:0:0:0:
215,57,29566,5,0,3:2:0:0:
329,189,29737,1,2,0:0:0:0:
387,25,29909,1,8,3:2:0:0:
215,57,30080,1,2,0:0:0:0:
321,279,30252,5,0,3:0:0:0:
329,189,30423,1,2,0:0:0:0:
290,108,30594,1,8,3:2:0:0:
215,57,30766,1,2,0:0:0:0:
248,228,30937,5,2,3:2:0:0:
380,114,31109,1,0,0:0:0:0:
215,57,31280,1,8,3:2:0:0:
215,57,31366,1,8,0:2:0:0:
215,57,31452,1,2,0:0:0:0:
404,244,31623,5,4,3:2:0:0:
147,314,31794,1,2,0:0:0:0:
215,57,31966,1,8,3:2:0:0:
404,244,32137,1,2,0:0:0:0:
209,147,32309,5,0,3:0:0:0:
329,189,32480,1,2,0:0:0:0:
248,228,32652,1,8,3:2:0:0:
290,108,32823,1,2,0:0:0:0:
323,279,32994,5,0,3:0:0:0:
248,228,33166,1,2,0:0:0:0:
209,147,33337,1,8,3:2:0:0:
215,57,33509,1,2,0:0:0:0:
425,129,33680,5,2,3:2:0:0:
374,204,33852,1,2,0:0:0:0:
299,153,34023,1,8,3:2:0:0:
350,78,34194,1,2,0:0:0:0:
465,211,34366,5,4,3:2:0:0:
292,244,34537,1,2,0:0:0:0:
350,78,34709,1,8,3:2:0:0:
465,211,34880,1,2,0:0:0:0:
331,326,35052,5,0,3:0:0:0:
299,153,35223,1,2,0:0:0:0:
166,268,35394,1,8,3:2:0:0:
331,326,35566,1,2,0:0:0:0:
350,78,35737,5,0,3:0:0:0:
299,153,35909,1,2,0:0:0:0:
292,244,36080,1,8,3:2:0:0:
331,326,36252,1,2,0:0:0:0:
390,160,36423,5,0,3:0:0:0:
224,101,36594,1,2,0:0:0:0:
166,268,36766,1,8,3:2:0:0:
332,327,36937,1,2,0:0:0:0:
276,26,37109,6,0,P|224:12|160:32,1,90,4|2,3:2|0:0,0:0:0:0:
217,192,37452,1,8,3:2:0:0:
350,78,37623,1,2,0:0:0:0:
188,17,37794,5,0,3:0:0:0:
166,268,37966,1,2,0:0:0:0:
299,153,38137,1,8,3:2:0:0:
48,131,38309,1,2,0:0:0:0:
242,319,38480,5,0,3:0:0:0:
332,327,38652,1,2,0:0:0:0:
414,289,38823,1,8,3:2:0:0:
465,215,38994,1,2,0:0:0:0:
256,163,39166,5,0,3:0:0:0:
294,245,39337,1,2,0:0:0:0:
376,207,39509,1,8,3:2:0:0:
338,125,39680,1,2,0:0:0:0:
204,237,39852,5,4,3:2:0:0:
376,207,40023,1,2,0:0:0:0:
265,74,40194,1,8,3:2:0:0:
204,237,40366,1,2,0:0:0:0:
174,64,40537,5,0,3:0:0:0:
338,125,40709,1,2,0:0:0:0:
204,237,40880,1,8,3:2:0:0:
174,64,41052,1,2,0:0:0:0:
376,207,41223,5,0,3:0:0:0:
338,125,41394,1,2,0:0:0:0:
265,74,41566,1,8,3:2:0:0:
174,64,41737,1,2,0:0:0:0:
286,199,41909,5,0,3:0:0:0:
347,35,42080,1,2,0:0:0:0:
174,64,42252,1,8,3:2:0:0:
130,76,42337,1,8,0:0:0:0:
92,99,42423,1,8,0:0:0:0:
61,131,42509,1,8,0:0:0:0:
40,171,42594,6,0,P|24:259|52:344,1,180,4|0,3:2|3:0,0:0:0:0:
127,295,43109,2,0,P|121:209|204:152,1,180,2|0,0:0|0:0,0:0:0:0:
280,144,43623,2,0,L|464:160,1,180,2|0,3:2|3:0,0:0:0:0:
424,244,44137,2,0,L|244:228,1,180,2|0,0:2|0:0,0:0:0:0:
280,144,44652,6,0,L|372:152,1,90,2|0,3:2|0:0,0:0:0:0:
388,328,44994,2,0,L|296:320,1,90,2|2,3:2|0:0,0:0:0:0:
188,153,45337,6,0,P|212:80|328:64,1,180,2|0,3:2|3:0,0:0:0:0:
280,144,45852,2,0,L|96:160,1,180,2|0,0:0|0:0,0:0:0:0:
136,244,46366,2,0,L|316:228,1,180,2|0,3:2|3:0,0:0:0:0:
280,144,46880,2,0,L|188:152,1,90,2|0,0:0|3:0,0:0:0:0:
274,307,47223,5,2,0:0:0:0:
368,156,47394,2,0,P|360:108|328:68,1,90,2|0,3:2|0:0,0:0:0:0:
167,162,47737,2,0,P|141:198|135:243,1,90,2|2,3:2|0:0,0:0:0:0:
152,316,47994,5,0,0:0:0:0:
152,316,48080,2,0,P|238:310|295:393,1,180,4|0,3:2|3:0,0:0:0:0:
376,340,48594,2,0,B|364:296|332:264|332:264|355:220|332:176,1,180,2|0,0:0|0:0,0:0:0:0:
252,220,49109,2,0,B|229:176|252:132|252:132|220:100|208:56,1,180,2|0,3:2|3:0,0:0:0:0:
290,18,49623,2,0,P|345:85|432:79,1,180,2|0,0:2|0:0,0:0:0:0:
380,4,50137,2,0,P|466:-1|521:65,1,180,2|2,3:2|3:2,0:0:0:0:
488,148,50652,1,2,0:0:0:0:
345,85,50823,6,0,P|258:79|203:146,1,180,2|2,3:2|3:2,0:0:0:0:
241,237,51337,2,0,P|328:243|383:176,1,180,2|0,0:0|0:0,0:0:0:0:
293,161,51852,2,0,B|327:243|327:243|276:324,1,180,2|0,3:2|3:0,0:0:0:0:
189,313,52366,2,0,B|155:231|155:231|206:150,1,180,2|0,0:2|0:0,0:0:0:0:
256,80,52880,21,2,0:0:0:0:
293,161,53052,1,0,0:0:0:0:
203,153,53223,1,0,0:0:0:0:
203,153,53566,6,0,L|382:167,2,180,4|8|0,3:2|0:1|3:0,0:0:0:0:
240,236,54423,1,0,3:0:0:0:
255,79,54594,2,0,P|170:69|114:134,1,180,8|0,0:1|3:0,0:0:0:0:
187,309,55109,1,0,3:0:0:0:
187,309,55280,2,0,P|272:319|328:254,1,180,8|0,0:1|3:0,0:0:0:0:
203,153,55794,1,0,3:0:0:0:
240,236,55966,1,8,0:1:0:0:
240,236,56309,6,0,B|203:153|203:153|256:80,2,180,0|8|0,3:0|0:1|3:0,0:0:0:0:
293,161,57166,1,0,3:0:0:0:
113,145,57337,2,0,B|186:309,1,180,8|0,0:1|3:0,0:0:0:0:
366,325,57852,2,0,B|293:161,1,180,2|0,0:0|0:0,0:0:0:0:
113,145,58366,1,0,3:0:0:0:
186,309,58537,1,0,3:0:0:0:
293,161,58709,2,0,L|288:72,1,90,8|0,0:1|0:0,0:0:0:0:
212,200,59052,6,0,P|268:248|372:204,1,180,4|8,3:2|0:1,0:0:0:0:
298,71,59566,2,0,L|293:160,1,90,2|0,0:0|3:0,0:0:0:0:
361,219,59909,1,0,3:0:0:0:
388,67,60080,2,0,L|208:75,1,180,8|0,0:1|3:0,0:0:0:0:
271,224,60594,2,0,L|360:219,2,90,2|8|0,0:0|0:1|0:0,0:0:0:0:
432,160,61109,1,2,3:2:0:0:
448,248,61280,1,0,3:0:0:0:
464,336,61452,1,8,0:1:0:0:
464,336,61794,6,0,L|284:328,1,180,0|8,3:2|0:1,0:0:0:0:
117,292,62309,2,0,P|161:300|204:288,1,90,2|0,0:0|3:0,0:0:0:0:
281,239,62652,1,0,3:0:0:0:
161,122,62823,2,0,L|156:211,1,90,8|0,0:1|0:0,0:0:0:0:
204,288,63166,1,0,3:0:0:0:
275,149,63337,2,0,L|270:60,2,90,0|8|0,3:0|0:1|3:0,0:0:0:0:
281,239,63852,1,4,0:3:0:0:
435,230,64537,6,0,P|475:202|493:131,1,116.999994644165,4|2,3:2|0:0,0:0:0:0:
320,128,64880,1,0,1:0:0:0:
376,296,65052,2,0,P|419:317|490:297,1,116.999994644165,2|0,0:0|3:0,0:0:0:0:
408,148,65394,1,2,0:0:0:0:
289,277,65566,2,0,P|292:325|345:376,1,116.999994644165,0|2,1:0|0:0,0:0:0:0:
435,230,65909,1,0,3:0:0:0:
261,192,66080,2,0,P|220:219|202:290,2,116.999994644165,2|0|2,0:0|1:0|0:0,0:0:0:0:
397,283,66594,6,0,P|341:299|289:277,1,116.999994644165,0|2,3:2|0:0,0:0:0:0:
299,112,66937,2,0,P|341:153|348:210,1,116.999994644165,0|2,1:0|0:0,0:0:0:0:
214,120,67280,6,0,P|228:64|274:30,1,116.999994644165,0|2,3:2|0:0,0:0:0:0:
348,184,67623,1,0,1:0:0:0:
177,197,67794,2,0,P|135:157|129:100,1,116.999994644165,2|0,0:2|3:0,0:0:0:0:
299,112,68137,1,2,0:0:0:0:
225,267,68309,1,0,1:0:0:0:
299,112,68480,2,0,P|354:96|406:118,1,116.999994644165,2|0,0:2|3:0,0:0:0:0:
389,344,68823,1,2,0:0:0:0:
348,184,68994,1,0,1:0:0:0:
389,344,69166,2,0,P|334:360|282:338,1,116.999994644165,2|0,0:2|3:0,0:0:0:0:
261,192,69509,5,2,0:0:0:0:
400,248,69680,1,0,1:0:0:0:
281,337,69852,1,2,0:0:0:0:
179,158,70023,6,0,P|273:104|348:184,1,233.999989288331,4|2,3:2|1:2,0:0:0:0:
281,337,70537,1,2,0:0:0:0:
261,192,70709,1,0,3:0:0:0:
400,248,70880,1,2,0:0:0:0:
281,337,71052,1,0,1:0:0:0:
108,206,71223,6,0,P|91:150|114:97,1,116.999994644165,2|0,0:2|3:0,0:0:0:0:
464,188,71566,2,0,P|487:241|471:296,1,116.999994644165,2|0,0:2|1:0,0:0:0:0:
231,272,71909,2,0,P|305:194|400:248,1,233.999989288331,2|2,0:0|0:0,0:0:0:0:
273,104,72423,1,0,1:0:0:0:
319,281,72594,1,2,0:0:0:0:
360,96,72766,6,0,P|285:17|191:71,1,233.999989288331,0|0,3:0|1:0,0:0:0:0:
57,113,73280,2,0,P|163:69|273:104,1,233.999989288331,2|2,0:2|0:0,0:0:0:0:
324,176,73794,1,0,1:0:0:0:
172,156,73966,1,2,0:0:0:0:
360,96,74137,6,0,P|408:152|296:260,1,233.999989288331,0|0,3:0|1:0,0:0:0:0:
241,247,74652,2,0,P|270:197|324:175,1,116.999994644165,2|0,0:0|3:0,0:0:0:0:
431,301,74994,1,2,0:0:0:0:
268,332,75166,1,8,3:0:0:0:
221,334,75252,1,0,3:0:0:0:
180,313,75337,1,0,3:0:0:0:
154,275,75423,1,0,3:0:0:0:
152,229,75509,6,0,L|156:112,1,116.999994644165,4|2,3:2|0:0,0:0:0:0:
241,247,75852,1,0,1:0:0:0:
63,211,76023,2,0,L|67:94,1,116.999994644165,2|0,0:2|3:0,0:0:0:0:
241,247,76366,1,2,0:0:0:0:
66,94,76537,2,0,P|138:25|246:105,1,233.999989288331,0|0,1:0|3:0,0:0:0:0:
148,346,77052,2,0,L|156:112,1,233.999989288331,2|2,0:0|0:0,0:0:0:0:
364,38,77566,6,0,L|356:272,1,233.999989288331,0|0,3:2|1:0,0:0:0:0:
352,360,78080,1,2,0:0:0:0:
271,242,78252,6,0,P|362:182|446:253,1,233.999989288331,0|0,3:0|1:0,0:0:0:0:
364,38,78766,2,0,L|356:272,1,233.999989288331,2|2,0:2|0:0,0:0:0:0:
448,124,79280,1,0,1:0:0:0:
275,125,79452,2,0,L|271:242,1,116.999994644165,2|0,0:0|3:0,0:0:0:0:
448,124,79794,1,2,0:0:0:0:
276,36,79966,1,0,1:0:0:0:
181,259,80137,2,0,P|264:329|356:270,1,233.999989288331,2|2,0:0|0:0,0:0:0:0:
275,125,80652,2,0,L|271:242,1,116.999994644165,0|0,1:0|0:0,0:0:0:0:
365,107,80994,22,0,P|281:36|190:96,2,233.999989288331,4|0|2,3:2|1:0|3:2,0:0:0:0:
355,270,81852,1,0,0:0:0:0:
275,125,82023,1,0,1:0:0:0:
420,212,82194,6,0,P|441:265|424:319,1,116.999994644165,2|0,0:2|3:0,0:0:0:0:
275,125,82537,2,0,P|257:70|279:17,1,116.999994644165,2|0,0:2|1:0,0:0:0:0:
365,144,82880,2,0,P|281:214|190:154,1,233.999989288331,2|2,0:2|0:0,0:0:0:0:
152,16,83394,1,0,1:0:0:0:
275,125,83566,1,2,0:0:0:0:
95,286,83737,6,0,P|187:346|271:276,1,233.999989288331,0|0,3:0|1:0,0:0:0:0:
388,204,84252,2,0,P|294:270|181:259,1,233.999989288331,2|0,0:2|0:0,0:0:0:0:
116,200,84766,1,0,1:0:0:0:
316,104,84937,2,0,P|258:190|192:114,1,233.999989288331,2|2,0:0|0:0,0:0:0:0:
246,48,85452,2,0,P|300:16|386:48,1,116.999994644165,0|0,1:0|0:0,0:0:0:0:
388,204,85794,5,0,3:0:0:0:
356,239,85880,1,0,1:0:0:0:
317,263,85966,1,0,1:0:0:0:
271,275,86052,1,0,1:0:0:0:
225,273,86137,1,0,1:0:0:0:
181,258,86223,1,0,1:0:0:0:
143,231,86309,1,0,3:0:0:0:
246,48,86480,5,4,3:2:0:0:
129,181,96766,37,8,0:0:0:0:
219,173,96937,1,0,0:0:0:0:
309,165,97109,1,0,0:0:0:0:
309,165,97452,6,0,L|130:179,2,180,4|8|0,3:2|0:1|3:0,0:0:0:0:
272,248,98309,1,0,3:0:0:0:
257,91,98480,2,0,P|342:81|398:146,1,180,8|0,0:1|3:0,0:0:0:0:
325,321,98994,1,0,3:0:0:0:
325,321,99166,2,0,P|240:331|184:266,1,180,8|0,0:1|3:0,0:0:0:0:
309,165,99680,1,0,3:0:0:0:
272,248,99852,1,8,0:1:0:0:
272,248,100194,6,0,B|309:165|309:165|256:92,2,180,0|8|0,3:0|0:1|3:0,0:0:0:0:
219,173,101052,1,0,3:0:0:0:
399,157,101223,2,0,B|326:321,1,180,8|0,0:1|3:0,0:0:0:0:
146,337,101737,2,0,B|219:173,1,180,2|0,0:0|0:0,0:0:0:0:
399,157,102252,1,0,3:0:0:0:
326,321,102423,1,0,3:0:0:0:
219,173,102594,2,0,L|224:84,1,90,8|0,0:1|0:0,0:0:0:0:
300,212,102937,6,0,P|244:260|140:216,1,180,4|8,3:2|0:1,0:0:0:0:
214,83,103452,2,0,L|219:172,1,90,2|0,0:0|3:0,0:0:0:0:
151,231,103794,1,0,3:0:0:0:
124,79,103966,2,0,L|304:87,1,180,8|0,0:1|3:0,0:0:0:0:
241,236,104480,2,0,L|152:231,2,90,2|8|0,0:0|0:1|0:0,0:0:0:0:
80,172,104994,1,2,0:0:0:0:
64,260,105166,1,0,3:0:0:0:
48,348,105337,1,8,0:1:0:0:
80,172,105509,1,2,0:0:0:0:
48,348,105680,6,0,L|228:340,1,180,0|8,3:2|0:1,0:0:0:0:
395,304,106194,2,0,P|351:312|308:300,1,90,2|0,0:0|3:0,0:0:0:0:
231,251,106537,1,0,3:0:0:0:
351,134,106709,2,0,L|356:223,1,90,8|0,0:1|0:0,0:0:0:0:
308,300,107052,1,8,3:0:0:0:
237,161,107214,2,0,L|242:72,2,90,0|0|0,3:1|3:0|3:0,0:0:0:0:
231,251,107700,1,8,0:3:0:0:
77,242,108423,6,0,P|37:214|19:143,1,116.999994644165,4|0,3:2|0:0,0:0:0:0:
192,140,108766,1,0,1:0:0:0:
136,308,108937,2,0,P|93:329|22:309,1,116.999994644165,2|0,0:0|3:0,0:0:0:0:
104,160,109280,1,0,0:0:0:0:
223,289,109452,2,0,P|220:337|167:388,1,116.999994644165,0|0,1:0|0:0,0:0:0:0:
77,242,109794,1,0,3:0:0:0:
251,204,109966,2,0,P|292:231|310:302,2,116.999994644165,2|0|0,0:0|1:0|0:0,0:0:0:0:
115,295,110480,6,0,P|171:311|223:289,1,116.999994644165,0|0,3:2|0:0,0:0:0:0:
213,124,110823,2,0,P|171:165|164:222,1,116.999994644165,0|0,1:0|0:0,0:0:0:0:
298,132,111166,6,0,P|284:76|238:42,1,116.999994644165,0|0,3:2|0:0,0:0:0:0:
166,195,111509,1,0,1:0:0:0:
335,209,111680,2,0,P|377:169|383:112,1,116.999994644165,2|0,0:2|3:0,0:0:0:0:
213,124,112023,1,2,0:0:0:0:
287,279,112194,1,0,1:0:0:0:
238,42,112366,2,0,P|152:64|166:195,1,243.000000926971,2|2,0:0|0:0,0:0:0:0:
329,131,112880,2,0,L|213:124,1,116.999994644165,0|0,1:0|0:0,0:0:0:0:
287,279,113223,5,2,3:2:0:0:
443,204,113394,1,0,0:0:0:0:
368,48,113566,1,0,1:0:0:0:
212,123,113737,1,0,0:0:0:0:
490,274,113909,6,0,P|520:167|418:122,1,233.999989288331,4|2,3:2|1:2,0:0:0:0:
287,279,114423,1,2,0:0:0:0:
443,204,114594,1,0,3:0:0:0:
368,48,114766,1,2,0:0:0:0:
212,123,114937,1,0,1:0:0:0:
420,116,115109,6,0,P|352:132|296:92,1,116.999994644165,2|0,0:0|3:0,0:0:0:0:
452,36,115452,1,2,0:0:0:0:
442,279,115623,1,0,1:0:0:0:
237,148,115794,2,0,P|260:43|368:48,1,233.999989288331,2|2,0:0|0:0,0:0:0:0:
272,228,116309,1,0,1:0:0:0:
312,111,116480,1,2,0:0:0:0:
345,275,116652,6,0,P|242:310|184:219,1,233.999989288331,0|0,3:0|1:0,0:0:0:0:
349,188,117166,2,0,P|430:259|381:355,1,233.999989288331,2|2,0:0|0:0,0:0:0:0:
272,228,117680,2,0,P|268:156|312:108,1,116.999994644165,0|2,1:0|0:0,0:0:0:0:
345,275,118023,37,0,3:0:0:0:
184,132,118194,1,2,0:0:0:0:
389,65,118366,1,0,1:0:0:0:
345,275,118537,1,2,0:0:0:0:
236,60,118709,21,0,3:0:0:0:
300,344,118880,1,2,0:0:0:0:
468,104,119052,1,8,3:0:0:0:
437,138,119137,1,0,3:0:0:0:
393,152,119223,1,0,3:0:0:0:
347,142,119309,1,0,3:0:0:0:
314,111,119394,6,0,L|196:100,1,116.999994644165,4|0,3:2|0:0,0:0:0:0:
389,65,119737,1,0,1:0:0:0:
223,185,119909,2,0,L|340:196,1,116.999994644165,2|0,0:2|3:0,0:0:0:0:
197,100,120252,1,2,0:0:0:0:
366,281,120423,2,0,L|133:260,1,233.999989288331,0|0,1:2|3:0,0:0:0:0:
342,365,120937,2,0,P|442:322|424:216,1,233.999989288331,2|2,0:0|0:0,0:0:0:0:
345,174,121452,6,0,P|336:230|365:280,1,116.999994644165,0|2,3:2|0:0,0:0:0:0:
419,127,121794,2,0,P|373:91|315:91,1,116.999994644165,0|2,1:2|0:0,0:0:0:0:
287,7,122137,6,0,P|402:8|493:80,1,233.999989288331,0|0,3:2|1:0,0:0:0:0:
412,235,122652,2,0,P|419:126|316:90,1,233.999989288331,2|2,0:2|0:0,0:0:0:0:
479,297,123166,1,0,1:0:0:0:
492,78,123337,2,0,P|520:164|476:302,1,233.999989288331,2|2,0:0|0:0,0:0:0:0:
345,174,123852,1,0,1:0:0:0:
161,184,124023,2,0,P|193:74|287:7,1,233.999989288331,2|2,0:2|0:0,0:0:0:0:
161,184,124537,2,0,P|172:252|204:300,1,116.999994644165,0|0,1:0|0:0,0:0:0:0:
412,235,124880,22,0,P|419:126|316:90,1,233.999989288331,4|0,3:2|1:0,0:0:0:0:
199,175,125394,1,2,0:0:0:0:
345,174,125566,1,0,3:0:0:0:
226,90,125737,1,2,0:0:0:0:
273,227,125909,1,0,1:0:0:0:
316,89,126080,6,0,P|288:24|240:0,1,116.999994644165,2|0,0:0|3:0,0:0:0:0:
273,227,126423,2,0,P|333:263|386:254,1,116.999994644165,2|0,0:0|1:0,0:0:0:0:
226,90,126765,2,0,P|158:96|147:247,1,233.999989288331,2|2,0:0|0:2,0:0:0:0:
345,174,127280,1,0,1:0:0:0:
199,175,127452,1,2,0:0:0:0:
316,89,127623,6,0,P|419:126|412:235,1,233.999989288331,0|0,3:2|1:0,0:0:0:0:
256,156,128137,2,0,P|236:48|334:0,1,233.999989288331,2|2,0:2|0:0,0:0:0:0:
345,174,128652,2,0,P|316:224|256:248,1,116.999994644165,0|2,1:0|0:0,0:0:0:0:
152,122,128994,5,0,3:0:0:0:
316,89,129166,1,2,0:0:0:0:
263,247,129337,1,0,1:0:0:0:
152,122,129509,1,2,0:0:0:0:
345,174,129680,1,0,3:0:0:0:
383,147,129766,1,0,1:0:0:0:
403,106,129852,1,0,1:0:0:0:
400,60,129937,1,0,1:0:0:0:
375,21,130023,1,0,1:0:0:0:
334,0,130109,1,0,1:0:0:0:
287,2,130194,1,0,1:0:0:0:
248,26,130280,1,0,1:0:0:0:
223,66,130366,6,0,P|196:144|236:300,1,233.999989288331,4|8,3:2|0:2,0:0:0:0:
393,351,130880,2,0,B|338:318|284:356|284:356|228:395|175:360,1,233.999989288331,2|0,0:0|0:0,0:0:0:0:
227,288,131394,2,0,P|336:248|512:376,1,350.999983932496,8|0,0:0|0:0,0:0:0:0:
385,254,132080,6,0,P|360:141|399:32,1,233.999989288331,10|0,0:0|3:2,0:0:0:0:
488,48,132594,2,0,P|458:120|399:32,1,233.999989288331,2|0,0:0|0:0,0:0:0:0:
460,208,133109,5,2,3:2:0:0:
400,32,133280,1,0,0:0:0:0:
277,171,133452,2,0,P|218:96|189:188,1,233.999989288331,8|2,0:0|3:2,0:0:0:0:
158,156,133880,1,0,0:0:0:0:
151,112,133966,1,0,0:0:0:0:
171,72,134052,1,0,0:0:0:0:
210,52,134137,1,8,0:0:0:0:
254,57,134223,1,0,0:0:0:0:
286,87,134309,1,2,0:0:0:0:
294,131,134394,1,0,0:0:0:0:
277,171,134480,1,2,3:2:0:0:
287,214,134566,1,0,0:0:0:0:
319,244,134652,1,0,0:0:0:0:
363,249,134737,1,0,0:0:0:0:
402,229,134823,1,8,0:0:0:0:
422,189,134909,1,0,0:0:0:0:
415,145,134994,1,2,0:0:0:0:
260,308,135166,6,0,P|352:336|476:284,1,233.999989288331,0|8,3:0|0:0,0:0:0:0:
400,32,135852,5,4,3:2:0:0:
357,12,135937,1,0,0:0:0:0:
310,17,136023,1,0,0:0:0:0:
272,43,136109,1,0,0:0:0:0:
251,85,136194,1,10,0:0:0:0:
253,131,136280,1,0,0:0:0:0:
277,171,136366,1,2,0:0:0:0:
319,190,136452,1,2,0:0:0:0:
365,186,136537,1,0,3:0:0:0:
406,204,136623,1,0,0:0:0:0:
430,244,136709,1,2,0:0:0:0:
432,290,136794,1,0,0:0:0:0:
411,332,136880,1,8,0:0:0:0:
373,358,136966,1,0,0:0:0:0:
326,363,137052,1,2,0:0:0:0:
284,344,137137,1,2,0:0:0:0:
257,306,137223,5,0,3:2:0:0:
230,268,137309,1,0,0:0:0:0:
188,249,137394,1,2,0:0:0:0:
141,254,137480,1,2,0:0:0:0:
103,280,137566,1,8,0:0:0:0:
125,239,137652,1,2,0:0:0:0:
125,192,137737,1,2,0:0:0:0:
100,152,137823,1,0,0:0:0:0:
61,128,137909,1,0,3:2:0:0:
22,104,137994,1,2,0:0:0:0:
11,59,138080,1,2,0:0:0:0:
35,20,138166,1,0,0:0:0:0:
80,9,138252,1,8,0:0:0:0:
119,33,138337,1,2,0:0:0:0:
130,78,138423,1,2,0:0:0:0:
106,117,138509,1,2,0:0:0:0:
61,128,138594,1,4,3:2:0:0:
37,167,138680,1,2,0:0:0:0:
48,212,138766,1,2,0:0:0:0:
340,250,138937,5,8,3:2:0:0:
344,202,139023,1,2,0:0:0:0:
312,165,139109,1,2,0:0:0:0:
264,161,139194,1,0,0:0:0:0:
227,193,139280,1,0,3:0:0:0:
223,241,139366,1,2,0:0:0:0:
255,278,139452,1,0,0:0:0:0:
303,282,139537,1,2,0:0:0:0:
340,250,139623,1,8,0:0:0:0:
344,202,139709,1,0,0:0:0:0:
330,155,139794,1,2,0:0:0:0:
300,116,139880,1,2,0:0:0:0:
261,87,139966,5,2,3:2:0:0:
206,77,140052,1,0,0:0:0:0:
153,87,140137,1,2,0:0:0:0:
106,115,140223,1,2,0:0:0:0:
73,157,140309,1,8,0:0:0:0:
60,208,140394,1,2,0:0:0:0:
66,263,140480,1,2,0:0:0:0:
92,312,140566,1,2,0:0:0:0:
132,348,140652,2,0,P|238:384|381:349,1,233.999989288331,2|8,3:2|0:0,0:0:0:0:
415,145,141337,5,4,3:2:0:0:
378,180,141423,1,2,0:0:0:0:
328,187,141509,1,2,0:0:0:0:
284,163,141594,1,0,0:0:0:0:
263,117,141680,1,8,0:0:0:0:
219,93,141766,1,0,0:0:0:0:
169,100,141852,1,2,0:0:0:0:
133,136,141937,1,0,0:0:0:0:
122,185,142023,1,0,3:0:0:0:
139,232,142109,1,2,0:0:0:0:
117,277,142194,1,2,0:0:0:0:
70,294,142280,1,0,0:0:0:0:
25,272,142366,1,8,0:0:0:0:
8,225,142452,1,2,0:0:0:0:
30,180,142537,1,2,0:0:0:0:
77,163,142623,1,2,0:0:0:0:
122,185,142709,5,2,3:2:0:0:
170,189,142794,1,2,0:0:0:0:
218,176,142880,1,0,0:0:0:0:
257,149,142966,1,2,0:0:0:0:
284,110,143052,1,8,0:0:0:0:
323,83,143137,1,2,0:0:0:0:
371,70,143223,1,2,0:0:0:0:
419,74,143309,1,0,0:0:0:0:
462,94,143394,1,2,3:2:0:0:
481,141,143480,1,0,0:0:0:0:
468,190,143566,1,2,0:0:0:0:
429,222,143652,1,0,0:0:0:0:
378,225,143737,1,8,0:0:0:0:
335,198,143823,1,2,0:0:0:0:
317,150,143909,1,2,0:0:0:0:
331,101,143994,1,2,0:0:0:0:
371,70,144080,21,2,3:2:0:0:
329,35,144166,1,2,0:0:0:0:
281,11,144252,1,2,0:0:0:0:
228,1,144337,1,2,0:0:0:0:
174,4,144423,1,10,0:0:0:0:
123,21,144509,1,2,0:0:0:0:
78,50,144594,1,2,0:0:0:0:
42,90,144680,1,2,0:0:0:0:
17,138,144766,5,0,3:0:0:0:
69,117,144852,1,2,0:0:0:0:
124,120,144937,1,2,0:0:0:0:
172,151,145023,1,2,0:0:0:0:
202,198,145109,1,8,0:0:0:0:
208,253,145194,1,2,0:0:0:0:
190,305,145280,1,2,0:0:0:0:
138,323,145366,1,2,0:0:0:0:
93,293,145452,5,0,3:0:0:0:
88,239,145537,1,2,0:0:0:0:
106,187,145623,1,2,0:0:0:0:
146,148,145709,1,0,0:0:0:0:
200,132,145794,1,8,0:0:0:0:
256,140,145880,1,0,0:0:0:0:
300,175,145966,6,0,B|355:208|409:170|409:170|465:131|518:166,1,233.999989288331,2|2,0:0|0:0,0:0:0:0:
352,104,146480,1,8,0:0:0:0:
468,236,146652,1,2,0:0:0:0:
301,260,146823,22,0,P|217:191|267:95,1,233.999989288331,4|8,3:2|0:0,0:0:0:0:
433,120,147337,1,2,0:0:0:0:
300,175,147509,1,0,3:0:0:0:
320,32,147680,1,2,0:0:0:0:
433,120,147852,1,8,0:0:0:0:
301,260,148023,6,0,P|217:191|267:95,1,233.999989288331,2|0,0:2|0:0,0:0:0:0:
468,236,148537,1,8,0:0:0:0:
245,341,148709,1,2,0:0:0:0:
144,116,148880,5,0,3:0:0:0:
174,66,148966,1,0,0:0:0:0:
219,29,149052,1,2,0:0:0:0:
273,8,149137,1,0,0:0:0:0:
331,6,149223,1,8,0:0:0:0:
387,24,149309,1,0,0:0:0:0:
434,58,149394,2,0,B|420:100|420:100|428:172,1,116.999994644165,2|0,0:0|3:0,0:0:0:0:
312,121,149737,37,2,0:0:0:0:
258,100,149823,1,0,0:0:0:0:
200,98,149909,1,8,0:0:0:0:
144,116,149994,1,0,0:0:0:0:
97,150,150080,2,0,B|111:192|111:192|103:264,1,116.999994644165,2|0,0:0|3:0,0:0:0:0:
219,213,150423,5,2,0:0:0:0:
273,192,150509,1,0,0:0:0:0:
331,190,150594,1,8,0:0:0:0:
388,325,150766,38,0,P|292:276|224:360,1,233.999989288331,2|0,0:2|0:0,0:0:0:0:
273,192,151280,1,8,0:0:0:0:
311,361,151452,1,2,0:0:0:0:
97,150,151623,21,8,0:1:0:0:
387,71,151794,1,8,0:0:0:0:
311,361,151966,1,8,0:1:0:0:
97,150,152137,1,8,0:0:0:0:
273,192,152309,5,4,0:0:0:0:
124,152,163109,53,0,0:0:0:0:
196,208,163280,2,0,P|148:240|40:188,2,180,4|8|0,0:0|0:1|3:0,0:0:0:0:
124,152,164137,1,2,0:3:0:0:
284,188,164309,1,8,0:1:0:0:
172,308,164480,1,2,0:3:0:0:
372,208,164652,6,0,L|375:297,1,90,0|2,3:0|0:3,0:0:0:0:
472,184,164994,2,0,L|468:273,1,90,8|2,0:1|0:3,0:0:0:0:
368,118,165337,2,0,L|372:208,1,90,0|2,3:0|0:3,0:0:0:0:
475,94,165680,2,0,L|472:184,1,90,8|2,0:1|0:3,0:0:0:0:
364,28,166023,6,0,L|368:118,1,90,0|2,3:0|0:3,0:0:0:0:
371,207,166366,1,8,0:1:0:0:
216,213,166537,2,0,L|291:164,2,90,2|0|2,0:3|3:3|0:3,0:0:0:0:
367,117,167052,1,8,0:1:0:0:
450,248,167223,6,0,L|370:206,1,90,2|0,0:3|3:3,0:0:0:0:
336,332,167566,2,0,L|287:255,1,90,2|8,0:3|0:1,0:0:0:0:
195,347,167909,2,0,L|191:256,1,90,2|0,0:3|3:3,0:0:0:0:
65,289,168252,1,2,0:3:0:0:
65,289,168423,2,0,L|107:208,1,90,8|2,0:1|0:3,0:0:0:0:
299,140,168766,6,0,P|251:172|143:120,1,180,4|8,0:0|0:1,0:0:0:0:
295,50,169280,2,0,L|298:139,1,90,2|0,0:3|3:0,0:0:0:0:
144,218,169623,2,0,L|147:129,2,90,2|8|2,0:3|0:1|0:3,0:0:0:0:
298,139,170137,6,0,L|295:50,1,90,0|2,3:3|0:3,0:0:0:0:
147,128,170480,2,0,L|144:217,1,90,8|2,0:1|0:3,0:0:0:0:
304,318,170823,2,0,L|298:139,1,180,0|8,3:3|0:1,0:0:0:0:
294,49,171337,1,2,0:3:0:0:
225,194,171509,6,0,P|304:228|376:182,1,180,2|8,3:2|0:1,0:0:0:0:
295,50,172023,2,0,L|298:139,1,90,2|0,0:3|3:0,0:0:0:0:
373,272,172366,2,0,L|376:183,1,90,2|8,0:3|0:1,0:0:0:0:
147,128,172709,6,2,P|132:224|373:272,1,409.499981254578,6|8,0:0|0:3,0:3:0:0:
408,188,174080,5,2,0:0:0:0:
195,56,174252,2,0,P|140:39|88:61,2,116.999994644165,4|2|0,3:2|0:0|1:0,0:0:0:0:
204,316,174766,1,2,0:0:0:0:
147,128,174937,1,0,3:0:0:0:
338,172,175109,1,2,0:0:0:0:
156,244,175280,22,0,P|211:227|263:249,2,116.999994644165,0|2|0,1:2|0:0|3:0,0:0:0:0:
248,128,175794,1,2,0:0:0:0:
64,184,175966,1,0,1:0:0:0:
204,316,176137,1,2,0:0:0:0:
331,72,176309,37,0,3:0:0:0:
204,316,176480,1,2,0:0:0:0:
222,56,176652,1,0,1:0:0:0:
301,333,176823,1,2,0:0:0:0:
396,14,176994,38,0,P|419:67|402:122,1,116.999994644165,0|2,3:2|0:0,0:0:0:0:
255,252,177337,1,0,1:0:0:0:
214,58,177509,2,0,L|331:72,1,116.999994644165,2|0,0:0|3:0,0:0:0:0:
188,173,177852,5,2,0:0:0:0:
402,120,178023,1,0,1:0:0:0:
340,332,178194,1,2,0:0:0:0:
188,173,178366,1,0,3:0:0:0:
360,224,178537,5,2,0:0:0:0:
150,280,178709,1,0,1:0:0:0:
94,70,178880,1,2,0:0:0:0:
304,14,179052,1,0,3:0:0:0:
255,252,179223,5,2,0:0:0:0:
215,59,179394,1,0,1:0:0:0:
402,120,179566,1,2,0:0:0:0:
255,252,179737,6,0,L|138:238,1,116.999994644165,4|0,3:2|0:0,0:0:0:0:
360,224,180080,1,2,1:2:0:0:
138,238,180252,1,2,0:0:0:0:
331,328,180423,21,0,3:2:0:0:
215,59,180594,1,2,0:2:0:0:
41,294,180766,1,0,1:2:0:0:
273,125,180937,38,0,P|220:148|165:131,1,116.999994644165,2|0,0:2|3:0,0:0:0:0:
402,120,181280,1,2,0:0:0:0:
215,59,181452,1,0,1:0:0:0:
255,252,181623,2,0,L|372:238,1,116.999994644165,2|0,0:0|3:0,0:0:0:0:
187,163,181966,21,2,0:0:0:0:
402,120,182137,1,0,1:0:0:0:
331,328,182309,1,2,0:0:0:0:
104,197,182480,38,0,P|100:140|131:92,1,116.999994644165,0|2,3:0|0:0,0:0:0:0:
136,280,182823,1,0,1:0:0:0:
76,21,182994,2,0,P|14:118|23:233,1,233.999989288331,2|2,0:0|0:0,0:0:0:0:
200,40,183509,1,0,1:0:0:0:
303,176,183680,2,0,L|186:162,1,116.999994644165,2|0,0:0|3:0,0:0:0:0:
402,120,184023,5,2,0:0:0:0:
331,328,184194,1,0,1:0:0:0:
320,88,184366,2,0,P|412:32|484:148,1,233.999989288331,2|2,0:0|0:0,0:0:0:0:
413,296,184880,1,0,3:0:0:0:
376,251,184966,1,0,3:0:0:0:
320,240,185052,1,0,3:0:0:0:
268,265,185137,1,0,3:0:0:0:
244,317,185223,6,0,L|128:332,2,116.999994644165,4|2|0,3:2|0:0|1:0,0:0:0:0:
56,276,185737,1,2,0:0:0:0:
244,317,185909,1,0,3:0:0:0:
56,276,186080,1,2,0:0:0:0:
331,328,186252,22,0,B|320:253|320:253|352:179|352:179|341:102,1,233.999989288331,0|0,1:0|3:0,0:0:0:0:
406,262,186766,1,2,0:0:0:0:
268,168,186937,1,0,1:0:0:0:
432,116,187109,1,2,0:0:0:0:
331,328,187280,37,0,3:0:0:0:
247,71,187452,1,2,0:0:0:0:
240,312,187623,1,0,1:0:0:0:
341,102,187794,1,2,0:0:0:0:
174,252,187966,38,0,P|151:305|168:360,1,116.999994644165,0|2,3:2|0:0,0:0:0:0:
406,262,188309,1,0,1:0:0:0:
202,104,188480,2,0,L|86:119,1,116.999994644165,2|0,0:2|3:0,0:0:0:0:
240,312,188823,5,2,0:0:0:0:
341,102,188994,1,0,1:0:0:0:
109,120,189166,1,2,0:0:0:0:
240,312,189337,1,0,3:0:0:0:
202,104,189509,5,2,0:0:0:0:
400,172,189680,1,0,1:0:0:0:
240,312,189852,1,2,0:0:0:0:
202,104,190023,1,0,3:0:0:0:
320,242,190194,5,2,0:0:0:0:
202,104,190366,2,0,L|86:119,1,116.999994644165,0|0,1:2|0:0,0:0:0:0:
320,242,190709,6,0,L|436:257,1,116.999994644165,4|0,3:2|0:0,0:0:0:0:
240,312,191052,1,2,1:2:0:0:
436,257,191223,1,2,0:0:0:0:
224,216,191394,21,0,3:0:0:0:
472,336,191566,1,2,0:0:0:0:
452,62,191737,1,0,1:2:0:0:
158,158,191909,38,0,P|135:211|152:266,1,116.999994644165,2|0,0:2|3:0,0:0:0:0:
163,29,192252,1,2,0:0:0:0:
224,216,192423,1,0,1:0:0:0:
31,176,192594,2,0,L|45:59,1,116.999994644165,2|0,0:0|3:0,0:0:0:0:
244,128,192937,21,2,0:0:0:0:
31,176,193109,1,0,1:0:0:0:
180,337,193280,1,2,0:0:0:0:
333,148,193452,38,0,P|249:218|158:158,1,233.999989288331,0|0,3:0|1:0,0:0:0:0:
304,64,193966,2,0,P|376:72|424:148,1,116.999994644165,2|0,0:0|3:0,0:0:0:0:
369,366,194309,1,2,0:0:0:0:
244,128,194480,1,0,1:0:0:0:
484,247,194652,1,2,0:0:0:0:
221,293,194823,37,0,3:0:0:0:
304,64,194994,1,2,0:0:0:0:
369,366,195166,1,0,1:0:0:0:
74,271,195337,1,2,0:0:0:0:
390,93,195509,21,0,1:0:0:0:
354,138,195594,1,0,1:0:0:0:
298,153,195680,1,0,1:0:0:0:
245,132,195766,1,0,1:0:0:0:
214,83,195852,1,0,3:0:0:0:
183,34,195937,1,0,3:0:0:0:
130,13,196023,1,0,3:0:0:0:
74,28,196109,1,0,3:0:0:0:
38,72,196194,6,0,P|208:351|304:63,1,792.000024169923,4|0,3:2|3:0,0:0:0:0:
231,12,197737,1,2,0:0:0:0:
160,68,197909,2,0,L|175:184,1,116.999994644165,8|2,0:0|0:0,0:0:0:0:
231,12,198252,5,0,3:0:0:0:
54,49,198423,1,2,0:0:0:0:
175,184,198594,1,8,0:0:0:0:
231,12,198766,1,2,0:0:0:0:
124,256,198937,6,0,B|177:291|233:252|233:252|287:214|342:247,1,233.999989288331,4|8,3:2|0:0,0:0:0:0:
175,184,199452,1,2,0:0:0:0:
291,319,199623,1,0,3:0:0:0:
350,152,199794,1,2,0:0:0:0:
175,184,199966,1,8,0:0:0:0:
342,247,200137,2,0,P|432:200|388:64,1,233.999989288331,2|0,0:0|0:0,0:0:0:0:
232,20,200652,5,8,0:0:0:0:
175,184,200823,1,2,0:0:0:0:
350,152,200994,1,0,3:0:0:0:
232,20,201166,1,2,0:0:0:0:
76,140,201337,6,0,L|91:256,1,116.999994644165,8|2,0:0|0:0,0:0:0:0:
164,77,201680,1,4,0:2:0:0:
256,192,201766,12,0,205794,3:0:0:0:
352,320,206823,37,0,3:0:0:0:
352,320,206909,1,0,3:0:0:0:
352,320,206994,1,0,3:0:0:0:
224,204,207166,6,0,P|207:259|229:311,1,116.999994644165,4|2,3:2|0:0,0:0:0:0:
430,355,207509,2,0,P|401:250|293:254,1,233.999989288331,8|0,0:0|3:0,0:0:0:0:
188,373,208023,1,2,0:0:0:0:
352,320,208194,1,8,0:0:0:0:
224,204,208366,6,0,L|107:218,1,116.999994644165,2|0,0:2|3:0,0:0:0:0:
288,144,208709,2,0,L|358:238,1,116.999994644165,2|8,0:2|0:0,0:0:0:0:
205,119,209052,2,0,L|251:10,1,116.999994644165,2|0,0:2|3:0,0:0:0:0:
224,204,209394,1,2,0:0:0:0:
71,85,209566,1,8,0:0:0:0:
251,11,209737,1,2,0:0:0:0:
243,289,209909,5,4,3:2:0:0:
205,119,210080,1,2,0:0:0:0:
160,268,210252,1,8,0:0:0:0:
288,144,210423,1,2,0:0:0:0:
184,348,210594,5,0,3:0:0:0:
126,94,210766,1,2,0:0:0:0:
367,169,210937,1,8,0:0:0:0:
61,151,211109,22,0,P|38:98|56:44,1,116.999994644165,2|0,0:0|3:0,0:0:0:0:
436,119,211452,2,0,P|453:173|430:226,1,116.999994644165,2|8,0:0|0:0,0:0:0:0:
250,182,211794,2,0,L|367:168,1,116.999994644165,2|0,0:2|3:0,0:0:0:0:
243,315,212137,1,2,0:0:0:0:
176,135,212309,2,0,L|190:18,1,116.999994644165,8|2,0:2|0:0,0:0:0:0:
436,118,212652,38,0,P|453:172|430:225,1,116.999994644165,4|2,3:2|0:0,0:0:0:0:
230,269,212994,2,0,P|259:164|367:168,1,233.999989288331,8|0,0:0|3:0,0:0:0:0:
472,287,213509,1,2,0:0:0:0:
308,234,213680,1,8,0:0:0:0:
436,118,213852,5,2,0:0:0:0:
388,300,214023,1,0,3:0:0:0:
185,217,214194,5,2,0:0:0:0:
366,167,214366,1,8,0:0:0:0:
396,384,214537,37,2,0:0:0:0:
262,251,214709,1,0,3:0:0:0:
436,118,214880,21,2,0:0:0:0:
185,217,215052,1,8,0:0:0:0:
396,384,215223,1,2,0:0:0:0:
359,82,215394,37,4,3:2:0:0:
304,304,215566,1,2,0:0:0:0:
274,89,215737,1,8,0:0:0:0:
389,297,215909,1,2,0:0:0:0:
189,96,216080,37,0,3:0:0:0:
352,374,216252,1,2,0:0:0:0:
512,96,216423,1,8,0:0:0:0:
185,217,216594,5,2,0:0:0:0:
389,297,216766,1,0,3:0:0:0:
436,118,216937,37,2,0:0:0:0:
262,251,217109,1,8,0:0:0:0:
396,384,217280,21,2,0:0:0:0:
366,167,217452,1,0,3:0:0:0:
320,130,217537,1,8,0:1:0:0:
264,117,217623,1,8,0:1:0:0:
207,129,217709,1,8,0:1:0:0:
160,163,217794,1,8,0:0:0:0:
133,214,217880,1,8,0:0:0:0:
130,272,217966,1,8,0:0:0:0:
151,326,218052,1,8,0:0:0:0:
194,364,218137,6,0,L|311:350,1,116.999994644165,4|2,3:2|0:0,0:0:0:0:
506,311,218480,2,0,L|389:297,1,116.999994644165,8|2,0:2|0:0,0:0:0:0:
262,251,218823,1,0,3:0:0:0:
445,202,218994,1,2,0:0:0:0:
396,384,219166,1,8,0:0:0:0:
196,308,219337,6,0,P|173:255|191:201,1,116.999994644165,2|0,0:0|3:0,0:0:0:0:
351,193,219680,2,0,P|316:239|260:250,1,116.999994644165,2|8,0:0|0:0,0:0:0:0:
174,117,220023,2,0,P|231:123|269:166,1,116.999994644165,2|0,0:0|3:0,0:0:0:0:
196,308,220366,1,2,0:0:0:0:
174,117,220537,1,8,0:0:0:0:
351,193,220709,1,2,0:0:0:0:
108,176,220880,5,4,3:2:0:0:
344,280,221052,1,2,0:0:0:0:
101,263,221223,1,8,0:0:0:0:
351,193,221394,1,2,0:0:0:0:
32,212,221566,5,0,3:0:0:0:
337,367,221737,1,2,0:0:0:0:
319,26,221909,1,8,0:0:0:0:
101,263,222080,21,2,0:0:0:0:
272,228,222252,1,0,3:0:0:0:
232,20,222423,5,2,0:0:0:0:
176,185,222594,1,8,0:0:0:0:
376,254,222766,37,2,0:0:0:0:
262,123,222937,1,0,3:0:0:0:
101,263,223109,21,2,0:0:0:0:
376,254,223280,1,8,0:0:0:0:
232,20,223452,1,2,0:0:0:0:
304,328,223623,37,4,3:2:0:0:
262,123,223794,1,2,0:0:0:0:
219,300,223966,1,8,0:0:0:0:
347,151,224137,1,2,0:0:0:0:
239,384,224309,5,0,3:2:0:0:
177,95,224480,1,2,0:0:0:0:
458,185,224652,1,8,0:0:0:0:
116,152,224823,22,0,P|93:99|111:45,1,116.999994644165,2|0,0:2|3:0,0:0:0:0:
347,151,225166,1,2,0:0:0:0:
136,302,225337,1,8,0:0:0:0:
177,95,225509,1,2,0:0:0:0:
304,328,225680,21,0,3:0:0:0:
262,123,225852,1,2,0:0:0:0:
219,300,226023,1,8,0:0:0:0:
347,151,226194,1,2,0:0:0:0:
219,300,226366,37,4,3:2:0:0:
36,120,226537,1,2,0:2:0:0:
78,325,226709,1,8,0:2:0:0:
177,95,226880,1,2,0:0:0:0:
239,384,227052,5,0,3:0:0:0:
123,266,227223,1,2,0:0:0:0:
284,224,227394,1,8,0:0:0:0:
123,266,227566,22,0,L|6:252,1,116.999994644165,2|0,0:2|3:0,0:0:0:0:
284,224,227909,2,0,L|401:238,1,116.999994644165,2|8,0:2|0:0,0:0:0:0:
123,266,228252,1,2,0:0:0:0:
371,146,228423,21,0,3:0:0:0:
432,147,228508,1,0,3:0:0:0:
481,186,228594,1,0,3:0:0:0:
495,246,228680,1,0,3:0:0:0:
470,302,228765,1,8,0:0:0:0:
415,331,228851,1,8,0:0:0:0:
354,321,228937,1,8,0:0:0:0:
312,276,229023,1,8,0:0:0:0:
307,214,229108,5,4,0:0:0:0:
371,146,229279,1,2,0:2:0:0:
400,237,229450,1,8,0:0:0:0:
194,193,229622,5,2,0:0:0:0:
371,146,229793,1,0,3:0:0:0:
323,323,229965,1,2,0:0:0:0:
320,76,230136,5,8,0:0:0:0:
129,255,230308,1,2,0:0:0:0:
380,331,230479,1,0,3:0:0:0:
320,76,230650,1,2,0:0:0:0:
284,224,230822,5,8,0:0:0:0:
284,224,230908,1,8,0:0:0:0:
284,224,230993,1,0,3:0:0:0:
408,68,231165,5,4,3:2:0:0:
210,38,231336,1,2,0:0:0:0:
284,224,231508,1,8,0:2:0:0:
320,76,231679,5,2,0:0:0:0:
174,119,231850,1,0,3:2:0:0:
284,224,232022,1,2,0:0:0:0:
260,140,232193,5,8,0:0:0:0:
348,160,232365,1,2,0:0:0:0:
284,224,232536,1,0,3:0:0:0:
260,140,232708,1,2,0:0:0:0:
372,248,232879,5,8,0:0:0:0:
369,279,232965,1,8,0:0:0:0:
366,310,233050,1,8,0:0:0:0:
363,342,233136,1,8,0:0:0:0:
361,373,233222,5,4,3:2:0:0:
284,224,233393,1,2,0:0:0:0:
440,184,233565,5,8,0:0:0:0:
443,152,233651,1,0,0:0:0:0:
435,122,233738,1,0,0:0:0:0:
419,95,233825,1,0,0:0:0:0:
395,75,233911,1,0,3:0:0:0:
365,64,233998,1,0,0:0:0:0:
334,63,234085,1,0,0:0:0:0:
304,73,234171,1,0,0:0:0:0:
278,91,234258,1,8,0:0:0:0:
260,117,234345,1,0,0:0:0:0:
242,143,234432,1,0,0:0:0:0:
216,161,234518,1,0,0:0:0:0:
186,171,234605,1,0,3:0:0:0:
155,170,234692,1,0,0:0:0:0:
125,159,234778,1,0,0:0:0:0:
101,139,234865,1,0,0:0:0:0:
85,112,234952,1,8,0:0:0:0:
77,82,235038,1,8,0:0:0:0:
81,51,235125,1,0,3:0:0:0:
11,181,235299,37,4,3:2:0:0:
173,75,235472,1,2,0:0:0:0:
11,181,235625,5,8,0:0:0:0:
32,207,235710,1,0,0:0:0:0:
58,229,235796,1,0,0:0:0:0:
87,246,235882,1,0,0:0:0:0:
119,258,235967,1,0,3:0:0:0:
152,265,236053,1,0,0:0:0:0:
185,265,236139,1,0,0:0:0:0:
219,260,236225,1,0,0:0:0:0:
251,250,236310,1,8,0:0:0:0:
280,234,236396,1,0,0:0:0:0:
307,213,236482,1,0,0:0:0:0:
329,188,236567,1,0,0:0:0:0:
348,160,236653,1,0,3:0:0:0:
352,300,236819,21,8,0:0:0:0:
305,328,236903,1,8,0:0:0:0:
255,347,236986,1,8,0:0:0:0:
202,358,237069,1,8,0:0:0:0:
148,359,237153,1,8,0:0:0:0:
95,351,237236,1,8,0:0:0:0:
43,332,237319,38,0,P|14:299|3:256,2,90,4|2|0,3:2|0:0|3:0,0:0:0:0:
40,176,237845,2,0,P|50:139|95:97,2,90,2|0|2,0:2|3:0|0:0,0:0:0:0:
177,90,238371,2,0,P|213:81|272:98,2,90,0|2|0,3:2|0:3|3:0,0:0:0:0:
314,165,238890,2,0,P|340:192|354:252,2,90,2|0|2,0:2|3:0|0:0,0:0:0:0:
304,316,239405,6,0,P|274:283|264:240,2,90,2|0|0,3:0|0:0|3:0,0:0:0:0:
172,236,239919,2,0,P|186:193|218:162,2,90,2|0|2,0:0|3:0|0:0,0:0:0:0:
175,80,240433,2,0,P|218:70|261:83,2,90,0|2|0,3:0|0:3|3:0,0:0:0:0:
310,4,240947,2,0,P|340:38|351:81,2,90,2|0|2,0:0|3:0|0:0,0:0:0:0:
510,135,241462,6,0,P|466:144|424:132,2,90,2|0|0,3:2|0:0|3:0,0:0:0:0:
342,168,241976,2,0,P|310:199|296:242,2,90,2|0|2,0:0|3:0|0:0,0:0:0:0:
424,324,242490,2,0,P|413:281|384:248,2,90,0|2|0,3:0|0:3|3:0,0:0:0:0:
247,317,243005,2,0,P|290:328|333:319,2,90,2|0|2,0:0|3:0|0:0,0:0:0:0:
164,276,243519,6,0,L|180:96,1,180,2|0,3:0|3:0,0:0:0:0:
348,108,244205,2,0,L|332:288,1,180,0|0,3:0|3:0,0:0:0:0:
324,376,244719,1,2,0:3:0:0:
243,279,244890,21,0,3:0:0:0:
235,368,245061,1,2,0:3:0:0:
332,287,245233,1,0,3:3:0:0:
324,376,245404,1,2,0:0:0:0:
