osu file format v14

[General]
AudioFilename: audio.mp3
AudioLeadIn: 0
PreviewTime: 200111
Countdown: 0
SampleSet: Soft
StackLeniency: 0.2
Mode: 0
LetterboxInBreaks: 0
WidescreenStoryboard: 1

[Editor]
Bookmarks: 85052
DistanceSpacing: 2.2
BeatDivisor: 8
GridSize: 8
TimelineZoom: 2.500001

[Metadata]
Title:Deichuu ni Saku
TitleUnicode:泥中に咲く
Artist:Wolpis Kater
ArtistUnicode:ウォルピスカーター
Creator:SnowNiNo_
Version:Collab Insane
Source:
Tags:これからもウォルピス社の提供でお送りします。 ELS Evergreen Leland Studio 針原翼 HarryP はりーP Akitoshi Corinn -Laura-
BeatmapID:1941572
BeatmapSetID:927723

[Difficulty]
HPDrainRate:5.5
CircleSize:4
OverallDifficulty:8
ApproachRate:9
SliderMultiplier:3.59999990463257
SliderTickRate:1

[Events]
//Background and Video events
0,0,"maxresdefault.jpg",0,0
//Break Periods
//Storyboard Layer 0 (Background)
//Storyboard Layer 1 (Fail)
//Storyboard Layer 2 (Pass)
//Storyboard Layer 3 (Foreground)
//Storyboard Sound Samples

[TimingPoints]
3191,705.882352941176,4,1,0,100,1,0
28249,-200,4,2,1,30,0,0
39720,-200,4,2,1,5,0,0
39896,-200,4,2,1,30,0,0
51188,-181.818181818182,4,2,1,40,0,0
73690,-117.647058823529,4,2,1,40,0,0
73779,-250,4,2,1,40,0,0
85073,-142.857142857143,4,2,2,50,0,0
107661,-142.857142857143,4,2,3,60,0,0
116132,-285.714285714286,4,2,3,60,0,0
118161,-285.714285714286,4,2,3,60,0,0
118249,-200,4,2,3,60,0,0
118867,-200,4,2,3,5,0,0
118955,-117.647058823529,4,2,3,90,0,1
141543,-117.647058823529,4,2,3,60,0,0
164132,-100,4,2,3,70,0,0
175426,-133.333333333333,4,2,1,40,0,0
198014,-500,4,2,1,10,0,0
200132,-500,4,2,1,40,0,0
200838,-100,4,2,3,90,0,1
222720,-500,4,2,3,90,0,1
223338,-500,4,2,3,5,0,1
223426,-100,4,2,3,80,0,0
246014,-100,4,2,3,90,0,1
268602,725.075528700906,4,2,3,90,1,0
268602,-133.333333333333,4,2,3,90,0,0
268692,-133.333333333333,4,2,1,40,0,0
270052,705.882352941176,4,2,1,40,1,0
270052,-133.333333333333,4,2,1,40,0,0
280022,-100,4,2,1,5,0,0

[Colours]
Combo1 : 0,255,0
Combo2 : 0,255,255
Combo3 : 255,128,255
Combo4 : 255,255,0

[HitObjects]
174,213,28249,5,2,0:0:0:0:
174,213,28602,2,0,P|166:261|163:306,1,89.9999976158142,2|2,0:0|0:0,0:0:0:0:
296,124,29308,2,0,P|303:172|307:217,1,89.9999976158142,2|2,0:0|0:0,0:0:0:0:
184,38,30014,2,0,P|156:59|51:44,1,134.999996423721,10|2,0:0|0:0,0:0:0:0:
61,51,30720,1,2,0:0:0:0:
307,217,31426,6,0,P|351:210|406:202,1,89.9999976158142,10|2,0:0|0:0,0:0:0:0:
326,345,32132,2,0,P|279:338|233:330,1,89.9999976158142,2|2,0:0|0:0,0:0:0:0:
74,311,32838,2,0,B|52:211|52:211|94:236,1,134.999996423721,10|2,0:0|0:0,0:0:0:0:
80,227,33543,1,2,0:0:0:0:
326,345,34249,6,0,P|345:308|346:240,1,89.9999976158142,10|2,0:0|0:0,0:0:0:0:
215,187,34955,2,0,P|217:233|238:275,1,89.9999976158142,2|2,0:0|0:0,0:0:0:0:
296,136,35661,2,0,B|196:125|218:188|112:176,1,179.999995231628,10|2,0:0|0:0,0:0:0:0:
125,177,37073,6,0,P|116:130|121:77,1,89.9999976158143,2|2,0:0|0:0,0:0:0:0:
296,136,37779,2,0,P|303:206|284:274,1,134.999996423721,2|2,0:0|0:0,0:0:0:0:
286,267,38485,1,10,0:0:0:0:
222,57,39190,2,0,B|263:64|283:85|283:85|312:60|356:59,1,134.999996423721,2|0,0:0|0:0,0:0:0:0:
435,82,39896,6,0,P|427:137|420:189,1,89.9999976158142,2|2,0:0|0:0,0:0:0:0:
285,273,40602,2,0,P|224:239|145:257,1,134.999996423721,2|2,0:0|0:0,0:0:0:0:
79,294,41308,2,0,P|72:212|61:95,1,179.999995231628,10|0,0:0|0:0,0:0:0:0:
172,19,42367,1,2,0:0:0:0:
300,76,42720,6,0,P|345:69|403:62,1,89.9999976158142,2|2,0:0|0:0,0:0:0:0:
488,166,43426,2,0,P|428:189|399:263,1,134.999996423721,2|2,0:0|0:0,0:0:0:0:
488,256,44132,2,0,B|384:242|416:314|302:292,1,179.999995231628,10|0,0:0|0:0,0:0:0:0:
162,162,45367,1,2,0:0:0:0:
162,162,45543,6,0,P|110:166|52:172,1,89.9999976158142,2|2,0:0|0:0,0:0:0:0:
10,308,46249,2,0,P|79:315|150:320,1,134.999996423721,2|2,0:0|0:0,0:0:0:0:
239,328,46955,2,0,P|251:274|242:230,1,89.9999976158142,10|0,0:0|0:0,0:0:0:0:
366,166,47661,2,0,P|359:212|371:257,1,89.9999976158142,2|0,0:0|0:0,0:0:0:0:
455,287,48190,1,2,0:0:0:0:
455,287,48367,6,0,P|462:207|472:101,2,179.999995231628,10|2|10,0:0|0:0|0:0,0:0:0:0:
455,287,51014,5,0,0:0:0:0:
455,287,51190,2,0,L|399:282,1,49.5000001993179,2|2,0:0|0:0,0:0:0:0:
330,227,51543,2,0,L|274:232,1,49.5000001993179,2|0,0:0|0:0,0:0:0:0:
187,241,51896,2,0,P|176:185|176:134,1,99.0000003986359,2|2,0:0|0:0,0:0:0:0:
127,58,52426,1,0,0:0:0:0:
59,117,52602,6,0,L|5:113,1,49.5000001993179,10|0,0:0|0:0,0:0:0:0:
139,31,52955,2,0,L|193:27,1,49.5000001993179,2|0,0:0|0:0,0:0:0:0:
251,134,53308,2,0,L|197:130,1,49.5000001993179,2|0,0:0|0:0,0:0:0:0:
335,206,53661,1,2,0:0:0:0:
426,137,53838,6,0,B|446:87|446:87|424:27,1,99.0000003986359,2|0,0:0|0:0,0:0:0:0:
335,206,54367,2,0,L|340:265,1,49.5000001993179,2|0,0:0|0:0,0:0:0:0:
351,364,54720,1,2,0:0:0:0:
351,364,54896,1,2,0:0:0:0:
433,296,55073,2,0,P|439:267|434:231,1,49.5000001993179,2|0,0:0|0:0,0:0:0:0:
333,180,55426,6,0,B|246:173|265:223|174:214,1,148.500000597954,10|0,0:0|0:0,0:0:0:0:
87,182,56132,2,0,P|78:148|83:114,1,49.5000001993179
105,28,56485,1,2,0:0:0:0:
105,28,56661,1,2,0:0:0:0:
213,17,56838,6,0,L|219:75,1,49.500000199318,2|2,0:0|0:0,0:0:0:0:
274,159,57191,1,2,0:0:0:0:
274,159,57367,2,0,P|317:131|383:133,1,99.0000003986359,2|0,0:0|0:0,0:0:0:0:
469,168,57896,1,2,0:0:0:0:
469,168,58073,1,2,0:0:0:0:
414,258,58249,6,0,L|358:252,1,49.5000001993179,10|2,0:0|0:0,0:0:0:0:
322,351,58602,1,2,0:0:0:0:
322,351,58779,2,0,L|378:345,1,49.5000001993179,2|0,0:0|0:0,0:0:0:0:
255,269,59132,2,0,P|215:264|151:305,1,99.0000003986359,2|0,0:0|0:0,0:0:0:0:
80,334,59661,6,0,L|72:270,1,49.500000199318,10|2,0:0|0:0,0:0:0:0:
14,211,60014,2,0,L|22:147,1,49.500000199318,2|2,0:0|0:0,0:0:0:0:
79,88,60367,1,2,0:0:0:0:
79,88,60543,1,2,0:0:0:0:
149,151,60720,2,0,L|202:144,1,49.500000199318,2|2,0:0|0:0,0:0:0:0:
255,269,61073,6,0,L|202:262,1,49.500000199318,10|2,0:0|0:0,0:0:0:0:
141,180,61426,1,2,0:0:0:0:
226,121,61602,2,0,B|315:106|297:160|387:138,1,148.500000597954,2|0,0:0|0:0,0:0:0:0:
462,94,62308,1,2,0:0:0:0:
462,94,62485,6,0,L|457:31,1,49.5000001993179,2|2,0:0|0:0,0:0:0:0:
354,55,62838,2,0,L|359:-8,1,49.5000001993179,2|2,0:0|0:0,0:0:0:0:
394,165,63190,2,0,L|389:228,1,49.5000001993179,2|2,0:0|0:0,0:0:0:0:
284,199,63543,2,0,L|289:262,1,49.5000001993179,2|2,0:0|0:0,0:0:0:0:
197,314,63896,6,0,L|136:306,1,49.500000199318,10|2,0:0|0:0,0:0:0:0:
261,378,64249,1,2,0:0:0:0:
261,378,64426,1,2,0:0:0:0:
345,336,64602,2,0,P|400:327|453:318,1,99.0000003986359,2|2,0:0|0:0,0:0:0:0:
486,224,65132,6,0,B|502:171|502:171|479:116,1,99.0000003986359,2|0,0:0|0:0,0:0:0:0:
389,88,65661,2,0,P|385:122|382:151,1,49.5000001993179,2|0,0:0|0:0,0:0:0:0:
287,84,66014,2,0,P|249:66|188:71,1,99.0000003986359,2|2,0:0|0:0,0:0:0:0:
133,142,66543,1,2,0:0:0:0:
223,168,66720,6,0,P|206:263|195:334,1,148.500000597954
101,374,67426,2,0,P|93:336|88:316,1,49.5000001993179,2|0,0:0|0:0,0:0:0:0:
53,227,67779,1,0,0:0:0:0:
53,227,67955,1,2,0:0:0:0:
90,127,68132,6,0,P|113:120|159:120,1,49.5000001993179,2|2,0:0|0:0,0:0:0:0:
244,149,68485,1,2,0:0:0:0:
330,87,68661,2,0,P|327:54|324:22,1,49.5000001993179,2|0,0:0|0:0,0:0:0:0:
435,98,69014,2,0,P|427:165|423:210,1,99.0000003986359,2|2,0:0|0:0,0:0:0:0:
406,308,69543,6,0,P|442:313|464:317,1,49.5000001993179,10|2,0:0|0:0,0:0:0:0:
333,242,69896,1,2,0:0:0:0:
333,242,70073,2,0,P|297:247|275:251,1,49.5000001993179,2|0,0:0|0:0,0:0:0:0:
190,307,70426,2,0,P|154:302|132:298,2,49.5000001993179,2|2|2,0:0|0:0|0:0,0:0:0:0:
133,192,70955,6,0,P|106:195|80:199,1,49.5000001993179,10|0,0:0|0:0,0:0:0:0:
146,90,71308,1,2,0:0:0:0:
146,90,71485,1,2,0:0:0:0:
244,128,71661,2,0,L|233:188,1,49.500000199318,2|2,0:0|0:0,0:0:0:0:
196,273,72014,2,0,L|207:333,1,49.500000199318,2|2,0:0|0:0,0:0:0:0:
296,253,72367,6,0,L|360:258,1,49.5000001993179,10|2,0:0|0:0,0:0:0:0:
454,268,72720,1,2,0:0:0:0:
454,268,72896,2,0,L|459:204,1,49.5000001993179,2|0,0:0|0:0,0:0:0:0:
463,114,73249,1,2,0:0:0:0:
463,114,73426,2,0,P|422:121|371:105,1,74.2500002989769,2|0,0:0|0:0,0:0:0:0:
371,102,73779,6,0,P|348:147|322:41,1,287.999992370605,2|10,0:0|0:0,0:0:0:0:
320,40,75896,1,2,0:0:0:0:
167,189,76602,6,0,P|117:182|23:168,1,143.999996185303,10|2,0:0|0:0,0:0:0:0:
162,328,78014,2,0,P|229:317|307:306,1,143.999996185303,10|2,0:0|0:0,0:0:0:0:
437,155,79426,6,0,P|439:113|430:82,2,71.9999980926514,10|2|2,0:0|0:0|0:0,0:0:0:0:
234,197,80838,2,0,B|311:190|295:233|378:224,1,143.999996185303,10|2,0:0|0:0,0:0:0:0:
224,75,82249,6,0,P|189:80|152:100,2,71.9999980926514,10|2|2,0:0|0:0|0:0,0:0:0:0:
366,224,83661,2,0,P|356:307|348:371,1,143.999996185303,10|2,0:0|0:0,0:0:0:0:
245,372,84720,1,0,0:0:0:0:
167,308,85073,6,0,P|113:315|44:334,1,125.999992816925,6|0,0:0|0:0,0:0:0:0:
144,144,85779,2,0,P|202:164|269:169,1,125.999992816925,8|0,0:0|0:0,0:0:0:0:
357,113,86308,1,0,3:0:0:0:
357,113,86396,1,0,3:0:0:0:
357,113,86485,6,0,P|352:79|348:43,1,62.9999964084626,2|0,0:0|0:0,0:0:0:0:
463,115,86838,2,0,P|459:146|454:182,1,62.9999964084626,2|0,0:0|0:0,0:0:0:0:
386,265,87190,2,0,B|311:266|338:300|265:305,1,125.999992816925,8|0,0:0|0:0,0:0:0:0:
160,274,87720,1,2,0:0:0:0:
240,196,87896,6,0,P|234:128|229:63,1,125.999992816925,2|0,0:0|0:0,0:0:0:0:
53,4,88602,2,0,P|48:66|42:138,1,125.999992816925,8|0,0:0|0:0,0:0:0:0:
26,240,89132,1,0,3:0:0:0:
26,240,89220,1,0,3:0:0:0:
26,240,89308,5,2,0:0:0:0:
108,316,89485,2,0,P|149:292|236:303,1,125.999992816925,2|0,0:0|0:0,0:0:0:0:
328,339,90014,1,8,0:0:0:0:
419,274,90190,2,0,P|409:194|402:133,1,125.999992816925,2|0,0:0|0:0,0:0:0:0:
286,131,90720,6,0,P|341:158|410:145,1,125.999992816925,2|0,0:0|0:0,0:0:0:0:
216,23,91426,2,0,P|154:14|99:42,1,125.999992816925,8|0,0:0|0:0,0:0:0:0:
49,145,91955,1,0,3:0:0:0:
49,145,92043,1,0,3:0:0:0:
49,145,92132,6,0,P|53:177|58:215,1,62.9999964084626,2|0,0:0|0:0,0:0:0:0:
159,253,92485,2,0,P|163:222|166:191,1,62.9999964084626,2|0,0:0|0:0,0:0:0:0:
257,124,92838,2,0,B|331:117|306:159|396:151,1,125.999992816925,8|0,0:0|0:0,0:0:0:0:
485,123,93367,1,2,0:0:0:0:
507,233,93543,6,0,P|500:300|494:363,1,125.999992816925,2|0,0:0|0:0,0:0:0:0:
306,357,94249,2,0,P|300:294|293:232,1,125.999992816925,8|0,0:0|0:0,0:0:0:0:
203,163,94779,1,0,3:0:0:0:
203,163,94867,1,0,3:0:0:0:
203,163,94955,6,0,P|143:186|81:161,1,125.999992816925,2|0,0:0|0:0,0:0:0:0:
252,12,95661,2,0,P|261:45|260:91,1,62.9999964084626,8|0,0:0|0:0,0:0:0:0:
334,159,96014,1,8,0:0:0:0:
395,65,96190,1,8,0:0:0:0:
334,159,96367,6,0,P|352:201|348:295,1,125.999992816925,6|0,0:0|0:0,0:0:0:0:
191,375,97073,2,0,P|145:369|66:319,1,125.999992816925,8|0,0:0|0:0,0:0:0:0:
46,222,97602,1,0,3:0:0:0:
46,222,97690,1,0,3:0:0:0:
46,222,97779,6,0,L|130:209,1,62.9999964084626,2|0,0:0|0:0,0:0:0:0:
175,122,98132,2,0,L|113:112,1,62.9999964084626,2|0,0:0|0:0,0:0:0:0:
225,211,98485,2,0,P|277:183|356:184,1,125.999992816925,8|0,0:0|0:0,0:0:0:0:
440,234,99014,1,2,0:0:0:0:
508,145,99190,6,0,P|500:85|490:13,1,125.999992816925,2|0,0:0|0:0,0:0:0:0:
342,180,99896,2,0,P|333:241|323:314,1,125.999992816925,8|0,0:0|0:0,0:0:0:0:
224,357,100426,1,0,3:0:0:0:
224,357,100514,1,0,3:0:0:0:
224,357,100602,6,0,P|168:331|90:338,1,125.999992816925,2|0,0:0|0:0,0:0:0:0:
3,174,101308,2,0,P|33:172|67:157,1,62.9999964084626,8|0,0:0|0:0,0:0:0:0:
147,84,101661,1,8,0:0:0:0:
170,194,101838,1,8,0:0:0:0:
147,84,102014,6,0,P|103:52|20:53,1,125.999992816925,2|0,0:0|0:0,0:0:0:0:
259,126,102720,2,0,P|303:94|386:95,1,125.999992816925,8|0,0:0|0:0,0:0:0:0:
470,144,103249,1,0,3:0:0:0:
470,144,103338,1,0,3:0:0:0:
470,144,103426,6,0,P|466:183|463:227,1,62.9999964084626,2|0,0:0|0:0,0:0:0:0:
359,249,103779,2,0,P|356:217|353:186,1,62.9999964084626,2|0,0:0|0:0,0:0:0:0:
259,126,104132,2,0,P|221:142|131:117,1,125.999992816925,8|0,0:0|0:0,0:0:0:0:
39,76,104661,1,2,0:0:0:0:
3,182,104838,6,0,P|9:244|15:311,1,125.999992816925,2|0,0:0|0:0,0:0:0:0:
187,379,105543,2,0,P|192:316|198:254,1,125.999992816925,8|0,0:0|0:0,0:0:0:0:
268,165,106073,1,0,3:0:0:0:
268,165,106161,1,0,3:0:0:0:
268,165,106249,5,2,0:0:0:0:
358,231,106426,2,0,P|409:247|489:218,1,125.999992816925,2|0,0:0|0:0,0:0:0:0:
415,130,106955,1,8,1:0:0:0:
335,219,107132,1,2,0:0:0:0:
236,152,107308,2,0,P|228:108|235:80,1,62.9999964084626,2|0,0:0|0:0,0:0:0:0:
137,17,107661,6,0,B|109:44|109:44|5:28,1,125.999992816925,6|0,0:0|0:0,0:0:0:0:
114,142,108190,1,0,0:0:0:0:
220,65,108367,1,8,0:0:0:0:
258,163,108543,2,0,P|253:198|250:240,1,62.9999964084626,0|0,0:0|0:0,0:0:0:0:
234,330,108896,1,2,0:0:0:0:
144,272,109073,6,0,P|96:276|71:283,1,62.9999964084626,2|0,0:0|0:0,0:0:0:0:
232,358,109426,2,0,P|262:364|301:364,1,62.9999964084626,2|0,0:0|0:0,0:0:0:0:
398,348,109779,1,8,0:0:0:0:
398,348,109955,1,0,0:0:0:0:
356,249,110132,2,0,P|361:213|365:178,1,62.9999964084626,0|0,0:0|0:0,0:0:0:0:
382,81,110485,6,0,P|422:87|448:83,1,62.9999964084626,2|0,0:0|0:0,0:0:0:0:
295,15,110838,2,0,P|263:12|233:18,1,62.9999964084626,0|0,0:0|0:0,0:0:0:0:
134,56,111190,1,8,0:0:0:0:
161,158,111367,1,0,0:0:0:0:
27,77,111543,1,0,0:0:0:0:
54,179,111720,1,2,0:0:0:0:
156,62,111896,6,0,P|161:25|157:-5,1,62.9999964084626,2|0,0:0|0:0,0:0:0:0:
35,98,112249,1,2,0:0:0:0:
179,177,112426,2,0,L|248:169,1,62.9999964084626,0|8,0:0|0:0,0:0:0:0:
346,152,112779,1,0,0:0:0:0:
311,51,112955,2,0,P|272:50|238:61,1,62.9999964084626,0|0,0:0|0:0,0:0:0:0:
362,172,113308,5,2,0:0:0:0:
459,128,113485,2,0,P|452:65|446:3,1,125.999992816925,0|0,0:0|0:0,0:0:0:0:
346,151,114014,2,0,P|343:183|341:219,1,62.9999964084626,8|0,0:0|0:0,0:0:0:0:
334,319,114367,1,0,0:0:0:0:
334,319,114543,1,2,0:0:0:0:
239,269,114720,6,0,P|180:278|150:286,1,62.9999964084626,2|0,0:0|0:0,0:0:0:0:
72,298,115073,1,2,0:0:0:0:
126,172,115249,2,0,P|162:163|195:165,2,62.9999964084626,0|8|0,0:0|0:0|0:0,0:0:0:0:
32,119,115779,1,0,0:0:0:0:
169,44,115955,1,0,3:0:0:0:
169,44,116043,1,0,3:0:0:0:
169,44,116132,6,0,B|241:46|213:81|288:85,1,125.999992816925,2|0,0:0|0:0,0:0:0:0:
404,50,117190,1,0,0:0:0:0:
437,170,117543,6,0,P|380:177|326:184,1,110.24999371481,0|0,0:0|0:0,0:0:0:0:
296,189,118249,6,0,B|257:202|239:237|239:237|219:203|172:196,1,157.499995827675,4|0,3:0|0:0,0:0:0:0:
148,197,118955,6,0,P|153:235|158:272,1,76.4999994325638,6|0,0:0|0:0,0:0:0:0:
232,115,119308,1,0,0:0:0:0:
135,73,119485,1,0,0:0:0:0:
275,20,119661,2,0,P|312:23|360:29,1,76.4999994325638,8|0,0:0|0:0,0:0:0:0:
472,114,120014,2,0,P|434:118|390:122,1,76.4999994325638,0|0,0:0|3:0,0:0:0:0:
282,218,120367,6,0,P|265:276|295:355,1,114.749999148846,2|0,0:0|0:0,0:0:0:0:
289,356,120720,2,0,L|377:349,1,76.4999994325638,2|0,0:0|0:0,0:0:0:0:
512,244,121073,2,0,B|456:235|456:235|436:213|436:213|365:202,1,152.999998865128,8|0,0:0|0:0,0:0:0:0:
258,105,121602,1,0,0:0:0:0:
387,28,121779,6,0,P|404:68|404:113,1,76.4999994325638,2|0,0:0|0:0,0:0:0:0:
367,236,122132,1,0,0:0:0:0:
280,122,122308,1,0,0:0:0:0:
456,184,122485,1,8,0:0:0:0:
507,51,122661,1,0,0:0:0:0:
378,112,122838,1,0,0:0:0:0:
483,207,123014,1,0,3:0:0:0:
483,207,123102,1,0,3:0:0:0:
483,207,123190,6,0,P|480:244|476:287,1,76.4999994325638,2|0,0:0|0:0,0:0:0:0:
348,326,123543,2,0,P|344:288|341:245,1,76.4999994325638,2|0,0:0|0:0,0:0:0:0:
249,131,123896,2,0,B|169:121|186:182|95:168,1,152.999998865128,8|0,0:0|0:0,0:0:0:0:
6,47,124426,1,0,3:0:0:0:
6,47,124514,1,0,3:0:0:0:
6,47,124602,5,2,0:0:0:0:
162,25,124779,1,0,0:0:0:0:
81,160,124955,1,0,0:0:0:0:
162,25,125132,2,0,P|199:21|241:17,1,76.4999994325638,0|8,0:0|0:0,0:0:0:0:
375,93,125485,1,0,0:0:0:0:
230,154,125661,1,0,0:0:0:0:
344,4,125838,1,2,3:2:0:0:
460,150,126014,6,0,P|470:188|463:236,1,76.4999994325638,2|0,0:0|0:0,0:0:0:0:
364,343,126367,1,2,0:0:0:0:
297,203,126543,2,0,P|334:200|375:195,1,76.4999994325638,0|8,0:0|0:0,0:0:0:0:
241,285,126896,2,0,P|203:281|162:277,1,76.4999994325638,0|0,0:0|0:0,0:0:0:0:
54,265,127249,1,0,0:0:0:0:
178,180,127426,5,2,0:0:0:0:
178,180,127602,1,0,0:0:0:0:
100,351,127779,1,0,0:0:0:0:
100,351,127955,1,0,0:0:0:0:
69,135,128132,5,8,0:0:0:0:
203,282,128308,1,0,0:0:0:0:
249,84,128485,1,0,0:0:0:0:
383,231,128661,1,0,3:0:0:0:
383,231,128749,1,0,3:0:0:0:
383,231,128838,5,2,0:0:0:0:
233,184,129014,1,0,0:0:0:0:
366,101,129190,1,2,0:0:0:0:
500,183,129367,2,0,P|495:220|488:278,1,76.4999994325638,0|2,0:0|0:0,0:0:0:0:
321,370,129720,1,0,3:0:0:0:
321,370,129808,1,0,3:0:0:0:
321,370,129896,2,0,P|316:332|311:295,1,76.4999994325638,2|0,3:2|3:2,0:0:0:0:
285,124,130249,5,6,3:2:0:0:
207,277,130426,1,0,0:0:0:0:
360,199,130602,1,0,0:0:0:0:
190,172,130779,1,0,0:0:0:0:
311,294,130955,2,0,P|351:296|386:286,1,76.4999994325638,8|0,0:0|0:0,0:0:0:0:
192,307,131308,2,0,P|155:296|117:299,1,76.4999994325638,0|0,0:0|3:0,0:0:0:0:
3,196,131661,6,0,P|7:138|11:81,1,114.749999148846,2|0,0:0|0:0,0:0:0:0:
15,51,132014,2,0,P|52:42|94:47,1,76.4999994325638,2|0,0:0|0:0,0:0:0:0:
258,96,132367,1,8,0:0:0:0:
100,173,132543,1,0,0:0:0:0:
202,1,132720,1,0,0:0:0:0:
100,173,132896,6,0,P|105:228|115:342,1,152.999998865128,0|0,0:0|0:0,0:0:0:0:
267,196,133426,1,0,0:0:0:0:
99,143,133602,1,0,0:0:0:0:
212,306,133779,1,8,0:0:0:0:
281,170,133955,1,0,0:0:0:0:
383,284,134132,1,0,0:0:0:0:
452,148,134308,1,0,3:0:0:0:
452,148,134396,1,0,3:0:0:0:
452,148,134485,6,0,P|449:107|443:62,1,76.4999994325638,2|0,0:0|0:0,0:0:0:0:
307,3,134838,2,0,P|302:40|299:79,1,76.4999994325638,2|0,0:0|0:0,0:0:0:0:
171,199,135190,2,0,P|105:218|28:174,1,152.999998865128,8|0,0:0|0:0,0:0:0:0:
184,88,135720,1,0,3:0:0:0:
184,88,135808,1,0,3:0:0:0:
184,88,135896,5,2,0:0:0:0:
247,269,136073,1,0,0:0:0:0:
383,135,136249,1,0,0:0:0:0:
247,269,136426,2,0,P|243:307|237:358,2,76.4999994325638,0|8|0,0:0|0:0|0:0,0:0:0:0:
281,80,136955,1,0,0:0:0:0:
375,247,137132,1,2,0:0:0:0:
199,171,137308,6,0,P|159:175|106:161,1,76.4999994325638,2|0,0:0|0:0,0:0:0:0:
273,52,137661,1,2,0:0:0:0:
387,174,137838,2,0,L|370:285,1,76.4999994325638,0|8,0:0|0:0,0:0:0:0:
281,80,138190,1,0,0:0:0:0:
434,42,138367,2,0,P|472:43|508:54,1,76.4999994325638,2|0,0:0|0:0,0:0:0:0:
387,174,138720,5,2,0:0:0:0:
387,174,138896,1,0,0:0:0:0:
281,80,139073,1,0,0:0:0:0:
281,80,139249,1,0,0:0:0:0:
275,247,139426,5,8,0:0:0:0:
154,63,139602,1,0,0:0:0:0:
375,149,139779,1,0,0:0:0:0:
160,201,139955,1,0,0:0:0:0:
160,201,140043,1,0,0:0:0:0:
160,201,140132,6,0,P|98:190|69:189,1,76.4999994325638,2|0,3:2|3:3,0:0:0:0:
195,336,140485,1,2,3:2:0:0:
334,242,140661,1,0,3:3:0:0:
334,242,140749,1,0,3:3:0:0:
334,242,140838,5,2,3:2:0:0:
179,176,141014,1,0,3:3:0:0:
298,343,141190,1,4,3:2:0:0:
366,139,141367,1,0,3:3:0:0:
160,201,141543,6,0,B|94:229|94:229|1:189|1:189|57:169,1,229.499998297691,6|0,0:0|0:0,0:0:0:0:
265,111,142249,2,0,B|284:179|284:179|266:228|266:228|290:291|290:291|311:246,1,229.499998297691,2|0,0:0|0:0,0:0:0:0:
361,55,142955,2,0,B|307:47|307:47|254:76|254:76|198:61|198:61|124:93,1,229.499998297691,2|0,0:0|0:0,0:0:0:0:
5,144,143661,5,2,0:0:0:0:
74,7,143838,1,0,0:0:0:0:
5,144,144014,1,0,0:0:0:0:
74,7,144191,1,0,0:0:0:0:
160,177,144367,6,0,B|194:221|194:221|179:329|179:329|231:271,1,229.499998297691,2|0,0:0|0:0,0:0:0:0:
332,143,145073,2,0,B|383:127|383:127|438:148|438:148|501:128|501:128|454:180,1,229.499998297691,2|0,0:0|0:0,0:0:0:0:
322,28,145779,2,0,B|263:43|263:43|226:71|226:71|159:78|159:78|99:49,1,229.499998297691,2|0,0:0|0:0,0:0:0:0:
20,179,146485,2,0,B|0:233|0:233|45:334|45:334|82:275,1,229.499998297691,2|0,0:0|0:0,0:0:0:0:
225,161,147190,6,0,B|382:184|382:184|319:108,1,229.499998297691,2|0,0:0|0:0,0:0:0:0:
282,312,147896,2,0,B|125:335|125:335|69:272,1,229.499998297691,2|0,0:0|0:0,0:0:0:0:
6,63,148602,2,0,B|163:86|163:86|243:54,1,229.499998297691,2|0,0:0|0:0,0:0:0:0:
398,9,149308,6,0,L|394:101,1,76.4999994325638,2|0,0:0|0:0,0:0:0:0:
390,231,149661,1,0,0:0:0:0:
390,231,149838,1,0,0:0:0:0:
254,179,150014,6,0,P|213:180|163:202,1,76.4999994325638,2|0,0:0|0:0,0:0:0:0:
73,291,150367,1,0,0:0:0:0:
73,291,150543,1,0,0:0:0:0:
201,359,150720,2,0,B|358:335|358:335|284:297,1,229.499998297691,2|0,0:0|0:0,0:0:0:0:
180,192,151426,6,0,P|167:137|168:111,1,76.4999994325638,2|0,0:0|0:0,0:0:0:0:
304,32,151779,2,0,P|302:70|291:106,1,76.4999994325638,0|0,0:0|0:0,0:0:0:0:
187,220,152132,1,2,0:0:0:0:
74,85,152308,1,0,0:0:0:0:
283,131,152485,1,0,0:0:0:0:
75,209,152661,1,0,0:0:0:0:
289,268,152838,6,0,P|328:260|377:253,1,76.4999994325638,6|0,0:0|0:0,0:0:0:0:
199,365,153190,2,0,P|160:357|111:350,1,76.4999994325638,0|0,0:0|0:0,0:0:0:0:
202,193,153543,1,2,0:0:0:0:
290,354,153720,1,0,0:0:0:0:
394,253,153896,2,0,P|399:197|391:171,1,76.4999994325638,0|0,0:0|0:0,0:0:0:0:
311,30,154249,5,2,0:0:0:0:
221,172,154426,1,0,0:0:0:0:
395,95,154602,1,0,0:0:0:0:
204,69,154779,2,0,P|159:77|105:86,1,76.4999994325638,0|2,0:0|0:0,0:0:0:0:
14,160,155132,1,0,0:0:0:0:
135,224,155308,1,0,0:0:0:0:
101,89,155485,1,0,0:0:0:0:
48,264,155661,6,0,P|52:302|57:346,1,76.4999994325638,2|0,0:0|0:0,0:0:0:0:
221,376,156014,2,0,P|225:337|229:299,1,76.4999994325638,0|0,0:0|0:0,0:0:0:0:
336,170,156367,1,2,0:0:0:0:
328,337,156543,1,0,0:0:0:0:
227,201,156720,1,0,0:0:0:0:
348,317,156896,1,0,0:0:0:0:
487,222,157073,6,0,P|496:168|492:134,1,76.4999994325638,2|0,0:0|0:0,0:0:0:0:
396,8,157426,1,0,0:0:0:0:
252,94,157602,1,0,0:0:0:0:
252,94,157779,2,0,P|244:143|254:178,1,76.4999994325638,2|0,0:0|0:0,0:0:0:0:
346,242,158132,2,0,P|354:291|344:326,1,76.4999994325638,2|2,0:0|0:0,0:0:0:0:
184,359,158485,5,6,0:0:0:0:
250,204,158661,1,0,0:0:0:0:
116,307,158838,1,0,0:0:0:0:
273,365,159014,1,0,0:0:0:0:
382,237,159190,2,0,P|386:188|376:151,1,76.4999994325638,2|0,0:0|0:0,0:0:0:0:
279,59,159543,2,0,P|274:96|280:134,1,76.4999994325638,0|0,0:0|0:0,0:0:0:0:
363,12,159896,5,2,0:0:0:0:
179,68,160073,1,0,0:0:0:0:
373,135,160249,1,0,0:0:0:0:
179,67,160426,2,0,P|140:71|102:75,1,76.4999994325638,0|2,0:0|0:0,0:0:0:0:
0,189,160779,1,0,0:0:0:0:
177,233,160955,1,0,0:0:0:0:
71,81,161132,1,0,0:0:0:0:
26,282,161308,6,0,P|31:323|34:357,1,76.4999994325638,2|0,0:0|0:0,0:0:0:0:
161,259,161661,1,0,0:0:0:0:
22,177,161838,1,0,0:0:0:0:
187,98,162014,2,0,P|247:126|338:92,1,152.999998865128,2|0,0:0|0:0,0:0:0:0:
413,18,162543,1,0,0:0:0:0:
486,186,162720,6,0,P|481:225|478:272,1,76.4999994325638,2|0,0:0|0:0,0:0:0:0:
303,204,163073,1,0,0:0:0:0:
449,94,163249,1,0,0:0:0:0:
382,314,163426,2,0,P|343:316|296:298,1,76.4999994325638,6|2,0:0|0:0,0:0:0:0:
156,175,163779,1,2,0:0:0:0:
341,105,163955,1,2,0:0:0:0:
183,290,164132,6,0,L|190:379,1,89.9999976158143,14|0,0:0|0:0,0:0:0:0:
333,194,164485,2,0,L|340:105,1,89.9999976158143,0|0,0:0|0:0,0:0:0:0:
156,175,164838,1,10,0:0:0:0:
132,70,165014,1,0,0:0:0:0:
59,217,165190,2,0,P|61:268|71:317,1,89.9999976158143,0|0,0:0|0:0,0:0:0:0:
267,183,165543,6,0,P|274:138|276:93,1,89.9999976158143,10|0,0:0|0:0,0:0:0:0:
260,342,165896,2,0,P|314:331|353:309,1,89.9999976158143,0|0,0:0|0:0,0:0:0:0:
153,174,166249,2,0,P|140:225|136:389,1,179.999995231629,10|0,0:0|0:0,0:0:0:0:
260,342,166779,1,0,0:0:0:0:
267,183,166955,6,0,P|265:138|257:93,1,89.9999976158143,10|0,0:0|0:0,0:0:0:0:
132,42,167308,1,0,0:0:0:0:
153,174,167485,1,0,0:0:0:0:
350,235,167661,2,0,P|368:181|362:30,1,179.999995231629,10|0,0:0|0:0,0:0:0:0:
288,0,168190,1,0,0:0:0:0:
267,183,168367,6,0,P|265:138|257:93,1,89.9999976158143,10|0,0:0|0:0,0:0:0:0:
473,30,168720,2,0,P|465:74|463:119,1,89.9999976158143,0|0,0:0|0:0,0:0:0:0:
350,235,169073,1,10,0:0:0:0:
343,114,169249,1,2,0:0:0:0:
443,281,169426,1,2,0:0:0:0:
498,204,169602,1,2,0:0:0:0:
318,351,169779,6,0,P|263:354|125:330,1,179.999995231629,10|0,0:0|0:0,0:0:0:0:
57,124,170308,1,0,0:0:0:0:
350,235,170485,2,0,P|306:251|257:255,1,89.9999976158143,10|0,0:0|0:0,0:0:0:0:
144,48,170838,2,0,P|188:52|230:68,1,89.9999976158143,0|0,0:0|0:0,0:0:0:0:
30,255,171190,6,0,P|78:212|193:170,1,179.999995231629,10|0,0:0|0:0,0:0:0:0:
263,255,171720,1,0,0:0:0:0:
255,20,171896,2,0,P|274:67|283:116,1,89.9999976158143,10|0,0:0|0:0,0:0:0:0:
382,315,172249,2,0,P|391:271|408:229,1,89.9999976158143,0|0,0:0|0:0,0:0:0:0:
426,79,172602,5,10,0:0:0:0:
281,105,172779,1,0,0:0:0:0:
408,229,172955,1,0,0:0:0:0:
263,255,173132,1,0,0:0:0:0:
442,61,173308,5,10,0:0:0:0:
420,241,173485,1,0,0:0:0:0:
268,92,173661,1,0,0:0:0:0:
246,272,173838,1,0,0:0:0:0:
458,43,174014,6,0,P|409:31|347:33,1,89.9999976158143,10|0,0:0|0:0,0:0:0:0:
115,182,174367,2,0,P|159:180|203:169,1,89.9999976158143,0|0,0:0|0:0,0:0:0:0:
258,54,174720,1,10,0:0:0:0:
312,223,174896,1,0,0:0:0:0:
356,106,175073,1,0,0:0:0:0:
428,183,175249,1,0,0:0:0:0:
203,169,175426,6,0,P|165:194|193:95,1,270.000003147125,6|2,0:0|0:0,0:0:0:0:
75,264,176838,2,0,B|210:334|220:212|355:280,1,270.000003147125,2|2,0:0|0:0,0:0:0:0:
335,271,177896,1,2,0:0:0:0:
479,308,178249,6,0,B|390:170|522:192|452:31,1,270.000003147125,2|2,0:0|0:0,0:0:0:0:
335,62,179485,1,2,0:0:0:0:
335,62,179661,2,0,B|306:39|279:0|279:0|305:61|290:193,1,270.000003147125,2|0,0:0|0:0,0:0:0:0:
290,184,181073,6,0,P|226:162|279:263,1,270.000003147125,2|2,0:0|0:0,0:0:0:0:
374,326,182308,1,2,0:0:0:0:
374,326,182485,2,0,P|461:265|357:242,1,270.000003147125,2|2,0:0|0:0,0:0:0:0:
357,242,183543,1,2,0:0:0:0:
243,288,183896,6,0,P|252:220|230:146,2,135.000001573563,2|2|2,0:0|0:0|0:0,0:0:0:0:
243,288,184955,1,2,0:0:0:0:
169,344,185132,1,2,0:0:0:0:
100,280,185308,2,0,P|105:226|76:140,1,135.000001573563,2|0,0:0|0:0,0:0:0:0:
253,26,186014,2,0,P|231:89|234:156,1,135.000001573563,2|2,0:0|0:0,0:0:0:0:
448,165,186720,6,0,P|416:123|320:115,1,135.000001573563,2|2,0:0|0:0,0:0:0:0:
172,233,187426,2,0,P|283:289|362:192,1,270.000003147125,2|2,0:0|0:0,0:0:0:0:
362,191,188838,1,2,0:0:0:0:
428,113,189190,1,2,0:0:0:0:
340,63,189543,6,0,P|292:62|72:18,1,270.000003147125,2|2,0:0|0:0,0:0:0:0:
22,162,190779,1,2,0:0:0:0:
22,162,190955,2,0,B|104:118|104:118|59:308,1,270.000003147125,2|0,0:0|0:0,0:0:0:0:
376,260,192367,6,0,P|352:221|367:129,2,135.000001573563,2|2|2,0:0|0:0|0:0,0:0:0:0:
376,260,193602,1,2,0:0:0:0:
376,260,193779,1,2,0:0:0:0:
136,260,195190,6,0,P|160:221|145:129,2,135.000001573563,2|2|2,0:0|0:0|0:0,0:0:0:0:
136,260,196425,1,2,0:0:0:0:
136,260,196602,1,2,0:0:0:0:
256,192,198014,12,2,199955,0:0:0:0:
262,133,200132,6,0,P|258:151|257:174,1,35.9999990463257
273,199,200838,5,6,0:0:0:0:
348,150,201014,1,0,0:0:0:0:
379,234,201190,2,0,P|389:281|391:327,1,89.9999976158143,2|0,0:0|0:0,0:0:0:0:
252,215,201543,5,10,0:0:0:0:
365,136,201719,1,0,0:0:0:0:
399,258,201896,2,0,P|409:305|411:351,1,89.9999976158143,2|0,0:0|0:0,0:0:0:0:
229,234,202249,5,2,0:0:0:0:
387,117,202426,1,0,0:0:0:0:
421,279,202602,2,0,P|431:326|433:372,1,89.9999976158143,2|0,0:0|0:0,0:0:0:0:
275,114,202955,2,0,P|272:70|279:22,1,89.9999976158143,10|0,0:0|0:0,0:0:0:0:
184,375,203308,2,0,P|160:333|146:167,1,179.999995231629,2|2,0:0|0:0,0:0:0:0:
139,204,204014,5,2,0:0:0:0:
69,25,204190,1,0,0:0:0:0:
40,208,204367,2,0,P|30:259|33:313,1,89.9999976158143,10|0,0:0|0:0,0:0:0:0:
242,186,204720,2,0,P|242:141|232:97,1,89.9999976158143,2|0,0:0|0:0,0:0:0:0:
165,279,205073,6,0,P|223:297|357:311,1,179.999995231629,2|2,0:0|0:0,0:0:0:0:
397,231,205602,1,0,0:0:0:0:
242,186,205779,2,0,P|292:178|343:155,1,89.9999976158143,10|0,0:0|0:0,0:0:0:0:
163,98,206132,1,2,0:0:0:0:
165,279,206308,1,0,0:0:0:0:
230,28,206485,5,2,0:0:0:0:
56,143,206661,1,0,0:0:0:0:
242,186,206838,1,2,0:0:0:0:
119,12,207014,1,0,0:0:0:0:
49,241,207190,2,0,P|52:296|49:354,1,89.9999976158143,10|0,0:0|0:0,0:0:0:0:
257,191,207543,2,0,P|256:146|258:101,1,89.9999976158143,2|0,0:0|0:0,0:0:0:0:
212,303,207896,5,2,0:0:0:0:
157,107,208073,1,0,0:0:0:0:
208,329,208249,1,2,0:0:0:0:
348,157,208426,1,0,0:0:0:0:
204,355,208602,1,10,0:0:0:0:
298,286,208779,2,0,P|345:304|388:326,2,89.9999976158143,0|2|0,0:0|0:0|0:0,0:0:0:0:
401,206,209308,6,0,P|451:198|500:196,1,89.9999976158143,2|0,0:0|0:0,0:0:0:0:
421,92,209661,2,0,P|376:89|331:81,1,89.9999976158143,2|0,0:0|0:0,0:0:0:0:
193,7,210014,1,10,0:0:0:0:
228,127,210190,1,0,0:0:0:0:
110,67,210367,2,0,P|65:54|10:57,1,89.9999976158143,2|0,0:0|0:0,0:0:0:0:
44,252,210720,6,0,P|61:208|66:160,1,89.9999976158143,2|0,0:0|0:0,0:0:0:0:
169,217,211073,1,2,0:0:0:0:
142,311,211249,1,0,0:0:0:0:
228,127,211426,2,0,P|250:178|274:323,1,179.999995231629,10|2,0:0|0:0,0:0:0:0:
273,299,211955,1,0,0:0:0:0:
349,156,212132,6,0,P|357:100|356:48,1,89.9999976158143,6|0,0:0|0:0,0:0:0:0:
264,36,212485,1,2,0:0:0:0:
228,127,212661,1,0,0:0:0:0:
379,166,212838,6,0,P|387:110|386:58,1,89.9999976158143,10|0,0:0|0:0,0:0:0:0:
226,20,213191,1,2,0:0:0:0:
194,134,213367,1,0,0:0:0:0:
409,176,213543,6,0,P|417:120|416:68,1,89.9999976158143,2|0,0:0|0:0,0:0:0:0:
188,4,213896,1,2,0:0:0:0:
160,141,214073,1,0,0:0:0:0:
439,186,214249,6,0,P|447:130|446:78,1,89.9999976158143,10|0,0:0|0:0,0:0:0:0:
188,4,214602,1,2,0:0:0:0:
261,202,214779,1,0,0:0:0:0:
63,84,214955,6,0,P|43:135|23:292,1,179.999995231629,2|2,0:0|0:0,0:0:0:0:
115,383,215485,1,0,0:0:0:0:
212,169,215661,2,0,P|215:219|230:268,1,89.9999976158143,10|0,0:0|0:0,0:0:0:0:
360,357,216014,2,0,P|371:313|373:268,1,89.9999976158143,2|0,0:0|0:0,0:0:0:0:
503,325,216367,6,0,P|504:267|477:113,1,179.999995231629,2|2,0:0|0:0,0:0:0:0:
391,64,216896,1,0,0:0:0:0:
373,268,217073,2,0,P|344:217|244:97,1,179.999995231629,10|2,0:0|0:0,0:0:0:0:
178,27,217602,1,0,0:0:0:0:
155,259,217779,5,2,0:0:0:0:
269,121,217955,1,0,0:0:0:0:
91,113,218132,1,2,0:0:0:0:
263,246,218308,1,0,0:0:0:0:
21,350,218485,2,0,P|10:295|13:163,1,179.999995231629,10|2,0:0|0:0,0:0:0:0:
91,113,219014,1,0,0:0:0:0:
179,265,219190,5,2,0:0:0:0:
180,49,219367,1,0,0:0:0:0:
90,203,219543,1,2,0:0:0:0:
269,121,219720,1,0,0:0:0:0:
297,360,219896,2,0,P|307:295|350:171,1,179.999995231629,10|2,0:0|0:0,0:0:0:0:
436,117,220426,1,0,0:0:0:0:
464,314,220602,6,0,P|452:267|442:209,1,89.9999976158143,2|0,0:0|0:0,0:0:0:0:
236,72,220955,2,0,P|224:119|214:177,1,89.9999976158143,2|0,0:0|0:0,0:0:0:0:
297,360,221308,1,10,0:0:0:0:
286,234,221485,1,0,0:0:0:0:
169,371,221661,2,0,P|126:351|78:340,1,89.9999976158143,2|0,0:0|0:0,0:0:0:0:
15,264,222014,6,0,P|58:253|99:233,2,89.9999976158143,2|0|0,0:0|0:0|0:0,0:0:0:0:
15,264,222543,1,0,0:0:0:0:
21,160,222720,6,0,P|26:138|31:93,1,62.99999833107,4|0,3:0|0:0,0:0:0:0:
35,50,223426,6,0,P|75:74|219:93,1,179.999995231629,6|0,0:0|0:0,0:0:0:0:
299,68,223955,1,0,0:0:0:0:
84,215,224132,2,0,P|128:208|185:187,1,89.9999976158143,10|0,0:0|0:0,0:0:0:0:
269,322,224485,2,0,P|226:307|182:300,1,89.9999976158143,0|0,0:0|0:0,0:0:0:0:
298,209,224838,6,0,P|346:189|497:177,1,179.999995231629,2|0,0:0|0:0,0:0:0:0:
487,271,225367,1,0,0:0:0:0:
269,322,225543,2,0,P|317:327|369:346,1,89.9999976158143,10|0,0:0|0:0,0:0:0:0:
206,215,225896,2,0,P|163:228|118:232,1,89.9999976158143,0|0,0:0|0:0,0:0:0:0:
375,172,226249,6,0,P|322:160|201:78,1,179.999995231629,2|0,0:0|0:0,0:0:0:0:
305,46,226779,1,0,0:0:0:0:
112,141,226955,2,0,P|98:81|99:38,1,89.9999976158143,10|0,0:0|0:0,0:0:0:0:
206,215,227308,2,0,P|203:259|191:303,1,89.9999976158143,0|0,0:0|0:0,0:0:0:0:
7,193,227661,6,0,P|18:242|16:384,1,179.999995231629,2|0,0:0|0:0,0:0:0:0:
120,376,228190,1,0,0:0:0:0:
88,115,228367,2,0,P|108:159|115:217,1,89.9999976158143,10|0,0:0|0:0,0:0:0:0:
191,303,228720,1,0,0:0:0:0:
224,105,228896,1,0,0:0:0:0:
326,384,229073,6,0,P|332:336|331:289,1,89.9999976158143,2|0,0:0|0:0,0:0:0:0:
224,105,229426,2,0,P|230:153|229:200,1,89.9999976158143,0|0,0:0|0:0,0:0:0:0:
134,384,229779,1,10,0:0:0:0:
117,201,229955,2,0,P|99:252|72:299,1,89.9999976158143,0|0,0:0|0:0,0:0:0:0:
69,54,230308,1,0,0:0:0:0:
229,194,230485,6,0,P|277:209|419:222,1,179.999995231629,2|0,0:0|0:0,0:0:0:0:
482,147,231014,1,0,0:0:0:0:
299,101,231190,2,0,P|347:98|404:81,1,89.9999976158143,10|0,0:0|0:0,0:0:0:0:
136,20,231543,2,0,P|92:9|47:6,1,89.9999976158143,0|0,0:0|0:0,0:0:0:0:
174,122,231896,6,0,P|135:149|49:281,1,179.999995231629,2|0,0:0|0:0,0:0:0:0:
89,372,232426,1,0,0:0:0:0:
253,213,232602,2,0,P|245:265|246:315,1,89.9999976158143,10|0,0:0|0:0,0:0:0:0:
299,101,232955,2,0,P|298:56|290:11,1,89.9999976158143,0|0,0:0|0:0,0:0:0:0:
418,359,233308,6,0,P|444:290|443:159,1,179.999995231629,2|0,0:0|0:0,0:0:0:0:
408,22,233838,1,0,0:0:0:0:
214,91,234014,2,0,P|262:104|314:107,1,89.9999976158143,10|0,0:0|0:0,0:0:0:0:
110,7,234367,2,0,P|65:11|21:23,1,89.9999976158143,0|0,0:0|0:0,0:0:0:0:
108,194,234720,6,0,P|121:139|122:94,1,89.9999976158143,6|0,0:0|0:0,0:0:0:0:
214,91,235073,1,0,0:0:0:0:
231,183,235249,1,0,0:0:0:0:
117,202,235426,6,0,P|130:147|131:102,1,89.9999976158143,10|0,0:0|0:0,0:0:0:0:
223,99,235779,1,0,0:0:0:0:
240,191,235955,1,0,0:0:0:0:
126,210,236132,6,0,P|139:155|140:110,1,89.9999976158143,2|0,0:0|0:0,0:0:0:0:
232,107,236485,1,0,0:0:0:0:
249,199,236661,1,0,0:0:0:0:
135,218,236838,6,0,P|148:163|149:118,1,89.9999976158143,10|0,0:0|0:0,0:0:0:0:
306,26,237190,2,0,P|309:70|320:114,1,89.9999976158143,0|0,0:0|0:0,0:0:0:0:
202,283,237543,6,0,P|222:209|231:97,1,179.999995231629,2|0,0:0|0:0,0:0:0:0:
190,18,238073,1,0,0:0:0:0:
330,203,238249,2,0,P|327:158|320:114,1,89.9999976158143,10|0,0:0|0:0,0:0:0:0:
432,27,238602,2,0,P|424:71|421:116,1,89.9999976158143,0|0,0:0|0:0,0:0:0:0:
392,276,238955,6,0,P|379:221|315:109,1,179.999995231629,2|0,0:0|0:0,0:0:0:0:
231,106,239485,1,0,0:0:0:0:
254,288,239661,2,0,P|254:243|248:198,1,89.9999976158143,10|0,0:0|0:0,0:0:0:0:
96,377,240014,1,0,0:0:0:0:
89,187,240191,1,0,0:0:0:0:
254,288,240367,6,0,P|302:299|350:301,1,89.9999976158143,2|0,0:0|0:0,0:0:0:0:
407,101,240720,2,0,P|362:103|318:114,1,89.9999976158143,0|0,0:0|0:0,0:0:0:0:
494,364,241073,2,0,P|484:309|486:175,1,179.999995231629,10|0,0:0|0:0,0:0:0:0:
379,330,241602,1,0,0:0:0:0:
258,206,241779,6,0,P|302:195|347:193,1,89.9999976158143,2|0,0:0|0:0,0:0:0:0:
500,20,242132,2,0,P|456:9|411:6,1,89.9999976158143,0|0,0:0|0:0,0:0:0:0:
194,120,242485,2,0,P|281:131|346:193,1,179.999995231629,10|0,0:0|0:0,0:0:0:0:
379,330,243014,1,0,0:0:0:0:
239,207,243190,6,0,P|262:294|263:384,1,179.999995231629,2|0,0:0|0:0,0:0:0:0:
150,384,243720,1,0,0:0:0:0:
112,193,243896,2,0,P|136:236|149:293,1,89.9999976158143,10|0,0:0|0:0,0:0:0:0:
1,376,244249,2,0,P|13:332|35:293,1,89.9999976158143,0|0,0:0|0:0,0:0:0:0:
10,107,244602,6,0,P|22:150|44:189,1,89.9999976158143,10|0,3:2|3:2,0:0:0:0:
75,221,244867,1,0,3:2:0:0:
75,221,244955,2,0,P|97:182|109:138,1,89.9999976158143,0|0,3:2|3:2,0:0:0:0:
165,63,245308,1,2,3:2:0:0:
183,49,245396,1,0,3:2:0:0:
204,44,245484,1,0,3:2:0:0:
226,47,245572,1,0,3:2:0:0:
245,59,245660,1,0,3:2:0:0:
258,77,245749,1,0,3:2:0:0:
263,99,245837,1,0,3:2:0:0:
260,121,245925,1,0,3:2:0:0:
248,140,246013,5,6,0:0:0:0:
193,220,246190,1,0,0:0:0:0:
328,195,246367,1,2,0:0:0:0:
273,275,246543,1,0,0:0:0:0:
225,133,246720,5,10,0:0:0:0:
186,242,246897,1,0,0:0:0:0:
334,172,247074,1,2,0:0:0:0:
295,281,247250,1,0,0:0:0:0:
196,132,247426,6,0,P|146:117|97:119,1,89.9999976158143,2|0,0:0|0:0,0:0:0:0:
324,282,247779,2,0,P|368:281|411:267,1,89.9999976158143,2|0,0:0|0:0,0:0:0:0:
162,140,248132,5,10,0:0:0:0:
193,305,248309,1,0,0:0:0:0:
327,109,248486,1,2,0:0:0:0:
358,274,248662,1,0,0:0:0:0:
409,162,248838,6,0,P|418:108|418:61,1,89.9999976158143,2|0,0:0|0:0,0:0:0:0:
255,37,249190,1,2,0:0:0:0:
358,274,249367,1,0,0:0:0:0:
204,149,249543,2,0,P|205:193|213:238,1,89.9999976158143,10|0,0:0|0:0,0:0:0:0:
435,325,249896,2,0,P|443:280|444:235,1,89.9999976158143,2|0,0:0|0:0,0:0:0:0:
151,318,250249,6,0,P|175:273|204:132,1,179.999995231629,2|2,0:0|0:0,0:0:0:0:
131,27,250779,1,0,0:0:0:0:
318,170,250955,2,0,P|316:112|306:65,1,89.9999976158143,10|0,0:0|0:0,0:0:0:0:
79,118,251308,2,0,P|71:162|71:207,1,89.9999976158143,2|0,0:0|0:0,0:0:0:0:
408,307,251661,6,0,P|430:252|436:113,1,179.999995231629,2|2,0:0|0:0,0:0:0:0:
276,155,252190,1,0,0:0:0:0:
275,346,252367,2,0,P|288:297|293:252,1,89.9999976158143,10|0,0:0|0:0,0:0:0:0:
357,59,252720,1,2,0:0:0:0:
380,242,252896,1,0,0:0:0:0:
215,63,253073,6,0,P|163:48|112:49,1,89.9999976158143,2|0,0:0|0:0,0:0:0:0:
293,259,253426,2,0,P|337:256|380:243,1,89.9999976158143,2|0,0:0|0:0,0:0:0:0:
102,179,253779,2,0,P|165:187|286:148,1,179.999995231629,10|2,0:0|0:0,0:0:0:0:
294,22,254308,1,0,0:0:0:0:
126,80,254485,6,0,P|111:129|104:290,1,179.999995231629,2|2,0:0|0:0,0:0:0:0:
139,384,255014,1,0,0:0:0:0:
206,204,255190,2,0,P|211:260|223:315,1,89.9999976158143,10|0,0:0|0:0,0:0:0:0:
305,166,255543,1,2,0:0:0:0:
312,344,255720,1,0,0:0:0:0:
445,141,255896,6,0,P|441:185|433:230,1,89.9999976158143,2|0,0:0|0:0,0:0:0:0:
305,166,256249,2,0,P|297:121|293:76,1,89.9999976158143,2|0,0:0|0:0,0:0:0:0:
312,344,256602,2,0,P|267:332|152:234,1,179.999995231629,10|2,0:0|0:0,0:0:0:0:
163,251,257308,5,2,0:0:0:0:
138,151,257485,1,0,0:0:0:0:
262,226,257661,1,2,0:0:0:0:
238,126,257837,1,0,0:0:0:0:
137,249,258014,5,10,0:0:0:0:
139,125,258191,1,0,0:0:0:0:
260,251,258367,1,2,0:0:0:0:
263,127,258543,1,0,0:0:0:0:
108,239,258720,6,0,P|53:243|9:241,1,89.9999976158143,2|0,0:0|0:0,0:0:0:0:
292,137,259073,2,0,P|336:135|381:139,1,89.9999976158143,2|0,0:0|0:0,0:0:0:0:
78,219,259426,5,10,0:0:0:0:
170,66,259603,1,0,0:0:0:0:
229,309,259779,1,2,0:0:0:0:
322,158,259955,1,0,0:0:0:0:
352,279,260132,6,0,P|369:333|372:381,1,89.9999976158143,2|0,0:0|0:0,0:0:0:0:
149,153,260485,2,0,P|154:108|169:65,1,89.9999976158143,2|0,0:0|0:0,0:0:0:0:
260,384,260838,2,0,P|252:334|254:201,1,179.999995231629,10|2,0:0|0:0,0:0:0:0:
317,69,261367,1,0,0:0:0:0:
352,279,261543,6,0,P|369:333|372:381,1,89.9999976158143,2|0,0:0|0:0,0:0:0:0:
72,272,261896,2,0,P|55:218|52:170,1,89.9999976158143,2|0,0:0|0:0,0:0:0:0:
246,25,262249,2,0,P|254:75|252:208,1,179.999995231629,10|2,0:0|0:0,0:0:0:0:
148,14,262779,1,0,0:0:0:0:
345,189,262955,6,0,P|349:144|345:100,1,89.9999976158143,2|0,0:0|0:0,0:0:0:0:
158,218,263308,1,2,0:0:0:0:
148,14,263485,1,0,0:0:0:0:
252,204,263661,2,0,P|256:248|252:293,1,89.9999976158143,10|0,0:0|0:0,0:0:0:0:
153,116,264014,1,2,0:0:0:0:
163,320,264191,1,0,0:0:0:0:
247,102,264367,5,2,0:0:0:0:
64,232,264543,1,0,0:0:0:0:
148,14,264720,1,2,0:0:0:0:
252,204,264896,1,0,0:0:0:0:
59,130,265073,2,0,P|47:85|44:27,1,89.9999976158143,10|0,0:0|0:0,0:0:0:0:
383,191,265426,2,0,P|379:235|367:279,1,89.9999976158143,2|0,0:0|0:0,0:0:0:0:
247,102,265779,5,2,0:0:0:0:
252,204,265955,1,0,0:0:0:0:
167,37,266132,1,2,0:0:0:0:
105,157,266308,1,0,0:0:0:0:
342,111,266485,2,0,P|331:57|310:19,1,89.9999976158143,10|0,0:0|0:0,0:0:0:0:
252,204,266838,2,0,P|263:258|284:296,1,89.9999976158143,2|0,0:0|0:0,0:0:0:0:
472,369,267190,5,6,3:2:0:0:
472,355,267279,1,0,3:2:0:0:
472,341,267367,2,0,L|475:291,1,44.9999988079071,0|0,3:2|3:2,0:0:0:0:
385,288,267543,1,2,3:2:0:0:
385,274,267632,1,0,3:2:0:0:
385,260,267720,2,0,L|382:210,1,44.9999988079071,0|0,3:2|3:2,0:0:0:0:
480,184,267896,1,2,3:2:0:0:
480,170,267985,1,0,3:2:0:0:
480,156,268073,2,0,L|483:106,1,44.9999988079071,0|0,3:2|3:2,0:0:0:0:
393,103,268249,1,2,3:2:0:0:
393,89,268338,1,0,3:2:0:0:
393,75,268426,2,0,L|390:25,1,44.9999988079071,0|0,3:2|3:2,0:0:0:0:
296,124,268603,6,0,P|254:105|138:90,1,135.000001573563,4|0,0:0|0:0,0:0:0:0:
44,120,269145,1,2,0:0:0:0:
107,194,269327,2,0,P|124:249|126:350,1,135.000001573563,2|0,0:0|0:0,0:0:0:0:
214,372,269870,1,2,0:0:0:0:
234,260,270052,6,0,P|251:205|254:112,1,135.000001573563,2|0,0:0|0:0,0:0:0:0:
363,302,270757,2,0,P|359:264|347:223,2,67.5000007867814,2|2|2,0:0|0:0|0:0,0:0:0:0:
298,369,271287,1,2,0:0:0:0:
457,300,271464,6,0,P|469:234|464:141,1,135.000001573563,2|0,0:0|0:0,0:0:0:0:
462,67,271993,1,2,0:0:0:0:
373,145,272170,2,0,P|336:118|247:94,1,135.000001573563,2|0,0:0|0:0,0:0:0:0:
160,119,272699,1,0,0:0:0:0:
174,212,272876,6,0,P|185:246|194:296,1,67.5000007867814,2|0,0:0|0:0,0:0:0:0:
277,355,273228,2,0,P|284:322|294:289,1,67.5000007867814,0|0,0:0|0:0,0:0:0:0:
379,200,273582,2,0,P|390:234|399:284,2,67.5000007867814,2|0|0,0:0|0:0|0:0,0:0:0:0:
342,88,274111,1,0,0:0:0:0:
273,187,274288,6,0,P|235:161|126:133,1,135.000001573563,2|0,0:0|0:0,0:0:0:0:
47,155,274817,1,0,0:0:0:0:
124,42,274993,2,0,P|166:25|273:26,1,135.000001573563,2|0,0:0|0:0,0:0:0:0:
345,56,275523,1,0,0:0:0:0:
302,148,275699,6,0,P|294:196|287:312,1,135.000001573563,2|0,0:0|0:0,0:0:0:0:
115,356,276405,2,0,P|110:288|100:221,1,135.000001573563,2|0,0:0|0:0,0:0:0:0:
89,24,277111,6,0,P|128:43|231:63,1,135.000001573563,2|0,0:0|0:0,0:0:0:0:
314,39,277640,1,0,0:0:0:0:
265,154,277817,2,0,P|198:165|136:192,1,135.000001573563,0|0,0:0|0:0,0:0:0:0:
273,319,278523,6,0,P|334:345|401:357,1,135.000001573563,0|0,0:0|0:0,0:0:0:0:
500,328,279052,1,0,0:0:0:0:
441,239,279229,2,0,P|379:212|312:200,1,135.000001573563,2|0,0:0|0:0,0:0:0:0:
312,200,279934,5,2,0:0:0:0:
256,192,280022,12,0,284522,0:0:0:0:
