osu file format v14

[General]
AudioFilename: wolpis_192_ikikaera.mp3
AudioLeadIn: 0
PreviewTime: 40282
Countdown: 0
SampleSet: Soft
StackLeniency: 0.4
Mode: 0
LetterboxInBreaks: 0
EpilepsyWarning: 1
WidescreenStoryboard: 1

[Editor]
DistanceSpacing: 0.9
BeatDivisor: 4
GridSize: 32
TimelineZoom: 2.5

[Metadata]
Title:Asagao no Chiru Koro ni
TitleUnicode:アサガオの散る頃に
Artist:Wolpis Kater
ArtistUnicode:ウォルピスカーター
Creator:gokugohan12468
Version:Normal
Source:
Tags:When the Morning Glory Falls Zips ぷす Pusu n-buna No.734 hatsune miku 初音ミク cover utaite Carter Japanese Rock Pop jrock jpop j-rock j-pop Vocaloid KittyAdventure ohm002 farewell love tragic story
BeatmapID:2382047
BeatmapSetID:1136606

[Difficulty]
HPDrainRate:4
CircleSize:3.2
OverallDifficulty:4.5
ApproachRate:5
SliderMultiplier:2.2
SliderTickRate:2

[Events]
//Background and Video events
0,0,"Asagao_no_Chiru_Koro_ni.jpg",0,0
//Break Periods
2,69311,77782
//Storyboard Layer 0 (Background)
//Storyboard Layer 1 (Fail)
//Storyboard Layer 2 (Pass)
//Storyboard Layer 3 (Foreground)
//Storyboard Layer 4 (Overlay)
//Storyboard Sound Samples

[TimingPoints]
1547,705.882352941176,4,2,1,50,1,0
1547,-100,4,2,1,50,0,0
11252,-100,4,2,1,70,0,0
11429,-100,4,2,1,70,0,0
12841,-100,4,2,1,60,0,0
35429,-100,4,2,1,50,0,0
39664,-100,4,2,1,65,0,0
41076,-100,4,2,1,80,0,1
50252,-100,4,2,1,75,0,1
50605,-100,4,2,1,70,0,1
50870,-100,4,2,1,80,0,0
50958,-100,4,2,1,80,0,1
51223,-100,4,2,1,5,0,0
51311,-100,4,2,1,50,0,1
51576,-100,4,2,1,5,0,0
51664,-100,4,2,1,60,0,1
51929,-100,4,2,1,5,0,0
52017,-100,4,2,1,70,0,1
52282,-100,4,2,1,5,0,0
52370,-100,4,2,1,80,0,1
64370,-100,4,2,1,70,0,1
65076,-100,4,2,1,60,0,1
65782,-100,4,2,1,50,0,1
66488,-100,4,2,1,65,0,1
69311,-100,4,2,1,50,0,0
79017,-100,4,2,1,70,0,0
79194,-100,4,2,1,70,0,0
80605,-100,4,2,1,60,0,0
103194,-100,4,2,1,50,0,0
103370,-100,4,2,1,15,0,0
103723,-100,4,2,1,15,0,0
104605,705.882352941176,4,2,1,70,1,1
104605,-100,4,2,1,70,0,1
115810,-100,4,2,1,5,0,0
115899,-100,4,2,1,70,0,1
128957,-100,4,2,1,70,0,1
129310,-100,4,2,1,70,0,1
130016,-100,4,2,1,70,0,0
132840,-100,4,2,1,60,0,0
141310,-100,4,2,1,50,0,0
142722,-100,4,2,1,85,0,1
142987,-100,4,2,1,5,0,0
143075,-100,4,2,1,55,0,1
143340,-100,4,2,1,5,0,0
143428,-100,4,2,1,65,0,1
143693,-100,4,2,1,5,0,0
143781,-100,4,2,1,75,0,1
144046,-100,4,2,1,5,0,0
144134,-100,4,2,1,80,0,1
152251,-100,4,2,1,80,0,1
152604,-100,4,2,1,85,0,1
155340,-100,4,2,1,80,0,0
155428,-100,4,2,1,90,0,1
164604,-100,4,2,1,80,0,1
164957,-100,4,2,1,85,0,1
165222,-100,4,2,1,90,0,0
165310,-100,4,2,1,90,0,1
165575,-100,4,2,1,5,0,0
165663,-100,4,2,1,50,0,1
165928,-100,4,2,1,5,0,0
166016,-100,4,2,1,65,0,1
166281,-100,4,2,1,5,0,0
166369,-100,4,2,1,80,0,1
166634,-100,4,2,1,5,0,0
166722,-100,4,2,1,90,0,1
178722,-100,4,2,1,80,0,1
179428,-100,4,2,1,70,0,1
180134,-100,4,2,1,65,0,1
180840,-100,4,2,1,60,0,1
183663,-100,4,2,1,50,0,0

[Colours]
Combo1 : 0,128,192
Combo2 : 255,0,255
Combo3 : 255,0,128
Combo4 : 0,255,255
Combo5 : 47,187,255
Combo6 : 108,108,255
Combo7 : 117,117,130
Combo8 : 196,196,215

[HitObjects]
107,73,11252,85,8,0:0:0:0:
107,73,11429,2,0,L|99:144,1,55,8|8,0:0|0:0,0:0:0:0:
177,190,11958,2,0,L|169:261,1,55,8|8,0:0|0:0,0:0:0:0:
238,317,12488,1,8,0:0:0:0:
319,261,12841,38,0,P|391:273|473:161,1,220,2|10,1:2|0:0,0:0:0:0:
311,53,14252,2,0,L|319:166,1,110,2|2,1:2|1:2,0:0:0:0:
219,167,14958,2,0,L|211:57,1,110,10|2,0:0|0:0,0:0:0:0:
119,18,15664,5,0,1:0:0:0:
104,115,16017,2,0,P|52:94|-5:109,2,110,2|10|2,0:0|0:0|0:0,0:0:0:0:
44,194,17076,2,0,P|10:243|16:301,1,110,0|2,1:0|1:2,0:0:0:0:
109,271,17782,2,0,P|152:303|205:301,1,110,10|2,0:0|0:0,0:0:0:0:
301,344,18488,101,2,1:2:0:0:
301,344,18664,2,0,L|311:169,1,165,2|8,0:0|0:0,0:0:0:0:
405,149,19546,1,2,0:0:0:0:
405,49,19899,2,0,P|343:32|297:47,1,110,2|2,1:2|1:2,0:0:0:0:
213,92,20605,2,0,P|150:76|105:92,1,110,10|2,0:0|0:0,0:0:0:0:
18,63,21311,5,2,1:2:0:0:
18,63,21488,2,0,B|44:90|61:94|61:94|49:217,1,165,2|10,0:0|0:0,0:0:0:0:
59,303,22370,1,2,0:0:0:0:
136,364,22723,2,0,B|200:378|185:337|247:350,1,110,2|2,1:2|1:2,0:0:0:0:
299,266,23429,2,0,B|355:253|340:294|404:280,1,110,10|2,0:0|1:2,0:0:0:0:
466,202,24135,101,6,1:2:0:0:
325,62,24841,2,0,L|216:76,1,110,10|0,0:0|0:0,0:0:0:0:
126,33,25546,2,0,P|89:82|89:136,1,110,2|2,1:2|1:2,0:0:0:0:
174,175,26252,2,0,P|211:224|211:278,1,110,10|2,0:0|0:0,0:0:0:0:
148,346,26958,5,0,1:0:0:0:
51,322,27311,1,2,0:0:0:0:
47,223,27664,2,0,L|35:112,1,110,10|2,0:0|0:0,0:0:0:0:
108,46,28370,2,0,P|170:68|192:114,1,110,0|2,1:0|1:2,0:0:0:0:
276,156,29076,2,0,P|344:156|380:126,1,110,10|2,0:0|0:0,0:0:0:0:
469,94,29782,101,2,1:2:0:0:
469,94,29958,2,0,L|459:258,1,165,2|8,0:0|0:0,0:0:0:0:
381,320,30841,1,2,0:0:0:0:
301,260,31194,2,0,B|250:237|250:237|198:257,1,110,2|2,1:2|1:2,0:0:0:0:
119,314,31899,2,0,B|68:333|68:333|17:310,1,110,10|2,0:0|0:0,0:0:0:0:
74,230,32605,5,2,1:2:0:0:
74,230,32782,2,0,L|61:65,1,165,2|10,0:0|0:0,0:0:0:0:
159,50,33664,1,2,0:0:0:0:
257,38,34017,2,0,B|304:40|304:40|320:53|320:53|369:56,1,110,2|2,1:2|1:2,0:0:0:0:
454,19,34723,2,0,B|476:69|476:69|452:123,1,110,10|10,0:0|0:0,0:0:0:0:
364,163,35429,101,2,0:0:0:0:
256,192,35605,12,2,39664,0:0:0:0:
399,157,41076,6,0,B|334:162|368:196|299:203,1,110,6|0,1:2|0:0,0:0:0:0:
241,124,41782,1,10,2:0:0:0:
151,166,42135,1,2,0:0:0:0:
70,108,42488,2,0,P|20:130|0:193,1,110,2|2,1:2|1:2,0:0:0:0:
76,240,43194,2,0,L|79:299,1,55,10|2,0:0|0:0,0:0:0:0:
82,344,43546,1,2,0:0:0:0:
179,372,43899,101,4,1:0:0:0:
268,330,44252,1,2,0:0:0:0:
264,231,44605,2,0,L|373:223,1,110,10|0,0:0|0:0,0:0:0:0:
433,143,45311,2,0,P|415:91|371:60,1,110,2|2,1:2|1:2,0:0:0:0:
283,106,46017,2,0,L|228:101,1,55,10|2,0:0|0:0,0:0:0:0:
178,99,46370,1,2,0:0:0:0:
99,39,46723,5,6,1:2:0:0:
24,103,47076,2,0,L|33:157,1,55,2|2,0:0|0:0,0:0:0:0:
81,169,47429,2,0,L|61:277,1,110,10|2,0:0|0:0,0:0:0:0:
129,350,48135,1,2,1:2:0:0:
228,350,48488,1,2,1:2:0:0:
278,264,48841,2,0,P|283:211|258:161,1,110,10|2,0:0|0:0,0:0:0:0:
234,65,49546,102,0,L|346:76,1,110,6|2,1:2|0:0,0:0:0:0:
430,28,50252,2,0,B|455:56|455:56|450:134,1,110,10|2,0:0|0:0,0:0:0:0:
500,214,50958,1,14,0:0:0:0:
428,282,51311,1,2,1:2:0:0:
329,275,51664,1,2,1:2:0:0:
267,195,52017,1,2,1:2:0:0:
280,96,52370,6,0,L|169:87,1,110,6|0,1:2|0:0,0:0:0:0:
90,27,53076,2,0,P|57:70|58:136,1,110,10|0,0:0|0:0,0:0:0:0:
2,208,53782,2,0,P|35:247|92:257,1,110,2|2,1:2|1:2,0:0:0:0:
138,344,54488,2,0,P|193:329|222:288,1,110,10|2,0:0|0:0,0:0:0:0:
292,217,55194,101,4,1:0:0:0:
378,265,55546,1,2,0:0:0:0:
451,198,55899,2,0,L|442:84,1,110,10|0,0:0|0:0,0:0:0:0:
407,53,56429,1,2,0:0:0:0:
407,53,56605,1,2,1:2:0:0:
322,104,56958,1,2,1:2:0:0:
225,82,57311,2,0,P|207:135|222:186,1,110,10|2,0:0|0:0,0:0:0:0:
247,227,57841,1,0,0:0:0:0:
247,227,58017,6,0,B|177:313|177:313|70:291,1,220,6|10,1:2|0:0,0:0:0:0:
33,198,59076,2,0,L|36:141,1,55,2|2,0:0|0:0,0:0:0:0:
11,99,59429,2,0,P|70:95|102:57,1,110,2|2,1:2|1:2,0:0:0:0:
200,60,60135,2,0,P|236:99|291:99,1,110,10|2,0:0|0:0,0:0:0:0:
384,69,60841,102,0,L|374:189,1,110,6|0,1:2|0:0,0:0:0:0:
397,222,61370,1,0,0:0:0:0:
397,222,61546,2,0,P|340:212|286:241,1,110,12|0,0:0|0:0,0:0:0:0:
215,293,62252,1,4,1:0:0:0:
215,293,62429,1,8,0:0:0:0:
136,232,62782,1,0,1:0:0:0:
136,232,62958,2,0,B|125:158|125:158|154:120,1,110,8|2,0:0|0:0,0:0:0:0:
99,42,63664,6,0,P|174:115|277:90,1,220,6|10,1:2|0:0,0:0:0:0:
462,20,65076,2,0,B|425:63|425:63|451:224,1,220,10|2,0:0|0:0,0:0:0:0:
255,192,66488,102,0,P|71:245|57:54,1,440,6|2,1:2|0:0,0:0:0:0:
185,60,79017,69,8,0:0:0:0:
185,60,79194,2,0,L|181:124,1,55,8|8,0:0|0:0,0:0:0:0:
280,120,79723,2,0,L|276:184,1,55,8|8,0:0|0:0,0:0:0:0:
358,230,80252,1,8,0:0:0:0:
404,142,80605,38,0,P|455:238|395:324,1,220,2|10,1:2|0:0,0:0:0:0:
302,343,81664,1,0,0:0:0:0:
203,350,82017,2,0,B|183:302|183:302|207:246,1,110,2|2,1:2|1:2,0:0:0:0:
258,164,82723,2,0,B|278:116|278:116|254:60,1,110,10|2,0:0|0:0,0:0:0:0:
158,45,83429,5,0,1:0:0:0:
72,95,83782,2,0,L|86:217,1,110,2|10,0:0|0:0,0:0:0:0:
16,276,84488,1,2,0:0:0:0:
94,335,84841,2,0,P|153:349|201:326,1,110,0|2,1:0|1:2,0:0:0:0:
293,351,85546,2,0,P|330:289|329:250,1,110,10|2,0:0|0:0,0:0:0:0:
311,160,86252,101,2,1:2:0:0:
311,160,86429,2,0,L|487:170,1,165,2|8,0:0|0:0,0:0:0:0:
496,72,87311,1,2,0:0:0:0:
404,34,87664,2,0,L|294:27,1,110,2|2,1:2|1:2,0:0:0:0:
214,86,88370,2,0,P|177:163|184:195,1,110,10|2,0:0|0:0,0:0:0:0:
105,247,89076,5,2,1:2:0:0:
105,247,89252,2,0,P|186:233|248:289,1,165,2|8,0:0|0:0,0:0:0:0:
331,332,90135,1,2,0:0:0:0:
387,250,90488,2,0,L|401:138,1,110,2|2,1:2|1:2,0:0:0:0:
302,157,91194,2,0,L|288:45,1,110,10|2,0:0|1:2,0:0:0:0:
199,91,91899,102,0,B|70:61|125:170|-15:133,1,220,2|10,1:2|0:0,0:0:0:0:
3,234,92958,1,0,0:0:0:0:
102,233,93311,2,0,L|87:348,1,110,2|2,1:2|1:2,0:0:0:0:
186,354,94017,2,0,L|200:244,1,110,10|2,0:0|0:0,0:0:0:0:
257,163,94723,5,0,1:0:0:0:
355,166,95076,2,0,L|474:181,1,110,2|10,0:0|0:0,0:0:0:0:
493,83,95782,1,2,0:0:0:0:
394,74,96135,1,0,1:0:0:0:
304,32,96488,2,0,L|185:47,1,110,2|10,1:2|0:0,0:0:0:0:
100,15,97194,1,2,0:0:0:0:
44,96,97546,101,2,1:2:0:0:
44,96,97723,2,0,L|66:276,1,165,2|10,0:0|0:0,0:0:0:0:
140,322,98605,1,2,0:0:0:0:
202,245,98958,2,0,P|260:268|305:249,1,110,2|2,1:2|1:2,0:0:0:0:
354,167,99664,2,0,P|354:113|317:73,1,110,10|2,0:0|0:0,0:0:0:0:
232,23,100370,5,2,1:2:0:0:
232,23,100546,2,0,B|188:56|188:56|78:45,1,165,2|8,0:0|0:0,0:0:0:0:
8,116,101429,1,2,0:0:0:0:
99,153,101782,2,0,P|76:212|88:257,1,110,2|2,1:2|1:2,0:0:0:0:
158,324,102488,2,0,P|211:334|260:312,1,110,10|10,0:0|0:0,0:0:0:0:
349,356,103194,54,0,P|302:290|323:213,1,165,2|0,0:0|0:0,0:0:0:0:
494,35,104605,38,0,P|447:62|393:56,1,110,6|2,1:2|0:0,0:0:0:0:
296,37,105310,2,0,P|227:36|189:68,1,110,10|2,0:0|0:0,0:0:0:0:
97,71,106016,1,2,1:2:0:0:
121,167,106369,1,2,1:2:0:0:
32,211,106722,2,0,B|10:265|10:265|31:324,1,110,10|2,0:0|0:0,0:0:0:0:
117,271,107428,6,0,L|226:280,1,110,6|2,1:2|0:0,0:0:0:0:
296,351,108134,2,0,P|320:304|316:243,1,110,10|2,0:0|0:0,0:0:0:0:
239,186,108840,1,2,1:2:0:0:
330,147,109193,1,2,1:2:0:0:
256,81,109546,2,0,L|262:21,1,55,10|2,0:0|0:0,0:0:0:0:
213,13,109899,1,2,0:0:0:0:
127,62,110252,5,6,1:2:0:0:
32,32,110605,2,0,P|10:79|41:133,2,110,2|10|2,0:0|0:0|0:0,0:0:0:0:
127,62,111663,1,2,1:2:0:0:
138,160,112016,1,2,1:2:0:0:
65,227,112369,1,10,0:0:0:0:
64,325,112722,1,2,0:0:0:0:
156,362,113075,5,6,1:2:0:0:
225,291,113428,2,0,P|251:299|278:297,1,55,2|2,0:0|0:0,0:0:0:0:
296,343,113781,2,0,P|323:339|346:325,1,55,10|2,0:0|0:0,0:0:0:0:
390,348,114134,2,0,P|409:330|418:302,1,55,2|2,0:0|0:0,0:0:0:0:
407,255,114487,2,0,P|397:202|416:151,1,110,6|2,1:2|0:0,0:0:0:0:
338,88,115193,2,0,L|280:97,2,55,2|2|2,0:0|0:0|0:0,0:0:0:0:
397,8,115899,70,0,L|510:25,1,110,6|2,1:2|0:0,0:0:0:0:
509,123,116605,1,8,0:0:0:0:
416,150,116957,1,2,0:0:0:0:
324,187,117310,2,0,L|314:299,1,110,2|2,1:2|1:2,0:0:0:0:
226,343,118016,2,0,P|172:343|131:307,1,110,10|2,0:0|0:0,0:0:0:0:
32,295,118722,6,0,P|130:251|172:153,1,220,6|8,1:2|0:0,0:0:0:0:
77,126,119781,2,0,L|84:58,1,55,2|2,0:0|0:0,0:0:0:0:
59,27,120134,2,0,L|168:38,1,110,2|2,1:2|1:2,0:0:0:0:
210,64,120663,1,2,0:0:0:0:
210,64,120840,2,0,L|264:58,1,55,10|2,0:0|0:0,0:0:0:0:
356,20,121369,1,2,0:0:0:0:
356,20,121546,6,0,P|382:80|362:132,1,110,6|2,1:2|0:0,0:0:0:0:
292,182,122252,1,10,0:0:0:0:
292,182,122428,1,2,0:0:0:0:
295,280,122781,1,2,0:0:0:0:
295,280,122957,5,6,1:2:0:0:
208,327,123310,1,2,1:2:0:0:
109,316,123663,2,0,L|103:261,1,55,10|2,0:0|0:0,0:0:0:0:
91,162,124193,1,2,0:0:0:0:
90,161,124369,70,0,P|134:132|187:140,1,110,6|2,1:2|0:0,0:0:0:0:
222,178,124899,1,2,0:0:0:0:
222,178,125075,1,12,0:0:0:0:
282,100,125428,1,2,0:0:0:0:
381,103,125781,1,6,1:2:0:0:
420,73,125957,2,0,L|414:17,2,55,10|2|2,0:0|0:0|1:2,0:0:0:0:
467,87,126487,2,0,L|478:196,1,110,10|2,0:0|0:0,2:0:0:0:
510,290,127193,6,0,P|479:333|427:348,1,110,6|2,1:2|0:0,0:0:0:0:
332,318,127899,1,10,0:0:0:0:
274,237,128252,1,2,0:0:0:0:
297,141,128604,2,0,P|192:121|111:189,1,220,14|2,0:0|0:0,0:0:0:0:
60,274,129663,1,2,0:0:0:0:
128,344,130016,54,0,B|231:420|367:342|248:273|404:177|507:267,1,440,6|2,1:2|0:0,0:0:0:0:
450,75,132134,2,0,P|392:68|356:106,1,110,2|2,0:0|0:0,0:0:0:0:
276,153,132840,70,0,L|57:127,2,220,6|2|2,1:2|1:2|1:2,0:0:0:0:
455,236,134957,1,2,1:2:0:0:
266,297,135663,6,0,B|158:313|158:313|153:318|153:318|44:332,2,220,0|2|2,1:0|1:2|1:2,0:0:0:0:
455,236,137781,1,2,1:2:0:0:
420,37,138487,102,0,P|316:55|275:152,1,220,0|2,1:0|1:2,0:0:0:0:
189,331,139899,2,0,P|94:320|49:192,1,220,2|2,1:2|1:2,0:0:0:0:
191,77,141310,37,2,0:0:0:0:
191,77,142722,5,14,0:0:0:0:
96,46,143075,1,10,0:0:0:0:
38,126,143428,1,10,0:0:0:0:
96,206,143781,1,2,1:2:0:0:
191,180,144134,86,0,P|238:217|291:212,1,110,6|0,1:2|0:0,0:0:0:0:
367,158,144840,2,0,L|354:40,1,110,10|0,0:0|0:0,0:0:0:0:
449,17,145546,1,2,1:2:0:0:
501,100,145899,1,2,1:2:0:0:
465,192,146252,2,0,L|452:301,1,110,10|2,0:0|0:0,0:0:0:0:
364,346,146957,37,4,1:0:0:0:
280,292,147310,1,2,0:0:0:0:
199,349,147663,2,0,P|136:354|96:325,1,110,10|0,0:0|0:0,0:0:0:0:
70,295,148193,1,2,0:0:0:0:
70,295,148369,1,2,1:2:0:0:
79,196,148722,1,2,1:2:0:0:
175,172,149075,2,0,L|162:60,1,110,10|2,0:0|0:0,0:0:0:0:
252,21,149781,70,0,P|336:52|341:181,1,220,6|8,1:2|0:0,0:0:0:0:
425,235,150840,1,0,0:0:0:0:
368,316,151193,2,0,P|307:302|260:323,1,110,0|0,1:2|1:2,0:0:0:0:
189,254,151899,2,0,P|128:268|81:247,1,110,8|2,0:0|0:0,0:0:0:0:
31,333,152604,38,0,L|51:109,1,220,6|8,1:2|0:0,0:0:0:0:
110,34,153663,1,0,0:0:0:0:
184,98,154016,2,0,P|234:116|285:98,1,110,4|8,1:2|0:0,0:0:0:0:
356,28,154722,1,10,0:0:0:0:
448,64,155075,1,10,0:0:0:0:
476,104,155252,1,8,0:0:0:0:
457,149,155428,70,0,B|462:214|496:180|503:249,1,110,6|0,1:2|0:0,0:0:0:0:
453,331,156134,1,10,0:0:0:0:
355,349,156487,1,2,0:0:0:0:
272,294,156840,2,0,B|206:287|240:253|175:248,1,110,2|2,1:2|1:2,0:0:0:0:
94,191,157546,2,0,L|98:136,1,55,10|2,0:0|0:0,0:0:0:0:
71,94,157899,1,2,0:0:0:0:
149,33,158252,37,4,1:2:0:0:
242,63,158604,1,2,0:0:0:0:
336,31,158957,2,0,P|440:49|489:143,1,220,10|2,0:0|1:2,0:0:0:0:
475,242,160016,1,2,1:2:0:0:
399,304,160369,2,0,P|375:318|347:318,1,55,10|2,0:0|0:0,0:0:0:0:
301,300,160722,1,2,0:0:0:0:
212,344,161075,5,4,1:0:0:0:
120,307,161428,2,0,L|129:252,1,55,2|2,0:0|0:0,0:0:0:0:
92,219,161781,1,10,0:0:0:0:
64,124,162134,1,2,0:0:0:0:
124,45,162487,2,0,P|178:45|217:82,1,110,2|2,1:2|1:2,0:0:0:0:
285,154,163193,2,0,P|338:153|377:116,1,110,10|2,0:0|0:0,0:0:0:0:
457,178,163899,6,0,P|430:224|443:277,1,110,6|2,1:2|0:0,0:0:0:0:
353,319,164604,2,0,P|325:272|274:257,1,110,10|2,0:0|0:0,0:0:0:0:
187,306,165310,1,14,0:0:0:0:
88,304,165663,1,2,1:2:0:0:
21,230,166016,1,2,1:2:0:0:
31,129,166369,1,2,1:2:0:0:
115,76,166722,38,0,L|234:88,1,110,6|0,1:2|0:0,0:0:0:0:
302,25,167428,2,0,P|368:31|399:77,1,110,10|0,0:0|0:0,0:0:0:0:
419,157,168134,2,0,P|353:163|322:209,1,110,2|2,1:2|1:2,0:0:0:0:
227,192,168840,2,0,L|241:308,1,110,10|2,0:0|0:0,0:0:0:0:
157,356,169546,37,4,1:0:0:0:
73,302,169899,1,2,0:0:0:0:
107,209,170252,2,0,B|91:158|91:158|109:104,1,110,10|0,0:0|0:0,0:0:0:0:
88,59,170781,1,2,0:0:0:0:
88,59,170957,2,0,L|212:65,1,110,2|2,1:2|1:2,0:0:0:0:
290,28,171663,2,0,L|414:34,1,110,10|2,0:0|1:2,0:0:0:0:
429,73,172193,1,10,0:0:0:0:
429,73,172369,6,0,P|423:178|331:231,1,220,6|8,1:2|0:0,0:0:0:0:
233,217,173428,2,0,L|239:278,1,55,2|2,0:0|0:0,0:0:0:0:
268,311,173781,2,0,P|214:305|167:331,1,110,2|2,1:2|1:2,0:0:0:0:
82,278,174487,2,0,P|88:224|62:177,1,110,10|2,0:0|0:0,0:0:0:0:
42,79,175193,6,0,B|85:81|85:81|109:68|109:68|156:70,1,110,6|0,1:2|0:0,0:0:0:0:
190,43,175722,1,0,0:0:0:0:
190,43,175899,2,0,P|233:84|226:137,1,110,12|0,0:0|0:0,0:0:0:0:
321,181,176604,1,4,1:2:0:0:
321,181,176781,1,8,0:0:0:0:
419,155,177134,1,0,1:0:0:0:
419,155,177310,2,0,L|406:280,1,110,8|2,0:0|0:0,0:0:0:0:
485,325,178016,38,0,P|385:288|300:351,1,220,6|10,1:2|0:0,0:0:0:0:
125,275,179428,2,0,B|91:158|189:180|138:66,1,220,10|2,0:0|0:0,0:0:0:0:
334,52,180840,6,0,P|484:140|318:191,1,440,6|2,1:2|0:0,0:0:0:0:
318,191,183663,5,2,0:0:0:0:
256,192,183840,12,2,186487,0:0:0:0:
