osu file format v14

[General]
AudioFilename: audio.mp3
AudioLeadIn: 0
PreviewTime: 118748
Countdown: 0
SampleSet: Soft
StackLeniency: 0.4
Mode: 0
LetterboxInBreaks: 0
WidescreenStoryboard: 0

[Editor]
Bookmarks: 175395,197983,284492
DistanceSpacing: 0.5
BeatDivisor: 8
GridSize: 8
TimelineZoom: 1.2

[Metadata]
Title:Deichuu ni Saku
TitleUnicode:泥中に咲く
Artist:Wolpis Carter
ArtistUnicode:ウォルピスカーター
Creator:Aurorance
Version:Blooming
Source:
Tags:kater これからもウォルピス社の提供でお送りします。 els evergreen leland studio 針原翼 harryp はりーp kennethbbg mahiru shiina seapodeerman jpop pop j-pop japanese
BeatmapID:4397068
BeatmapSetID:2096755

[Difficulty]
HPDrainRate:6
CircleSize:4
OverallDifficulty:8.7
ApproachRate:9.2
SliderMultiplier:3
SliderTickRate:1

[Events]
//Background and Video events
0,0,"kjDqqwY.jpeg",0,0
//Break Periods
2,175595,197413
//Storyboard Layer 0 (Background)
//Storyboard Layer 1 (Fail)
//Storyboard Layer 2 (Pass)
//Storyboard Layer 3 (Foreground)
//Storyboard Layer 4 (Overlay)
//Storyboard Sound Samples

[TimingPoints]
3161,705.882352941176,4,2,1,50,1,0
28219,-100,4,2,1,30,0,0
28572,705.882352941176,4,2,1,30,1,0
28572,-125,4,2,1,30,0,0
39160,-166.666666666667,4,2,1,30,0,0
39689,-166.666666666667,4,2,1,5,0,0
39866,-166.666666666667,4,2,1,30,0,0
41277,-125,4,2,1,30,0,0
41982,-125,4,2,1,30,0,0
42336,-125,4,2,1,30,0,0
44806,-125,4,2,1,30,0,0
45336,-125,4,2,1,30,0,0
49748,-125,4,2,1,20,0,0
51160,-100,4,2,1,40,0,0
55395,-125,4,2,1,40,0,0
56807,-100,4,2,1,40,0,0
59101,-125,4,2,1,40,0,0
59983,-100,4,2,1,40,0,0
60865,-100,4,2,1,40,0,0
61042,-100,4,2,1,40,0,0
66689,-125,4,2,1,40,0,0
68101,-100,4,2,1,40,0,0
73748,-133.333333333333,4,2,1,30,0,0
79041,-133.333333333333,4,2,1,30,0,0
79395,-133.333333333333,4,2,1,30,0,0
83982,-133.333333333333,4,2,1,30,0,0
84336,-133.333333333333,4,2,1,30,0,0
84688,-133.333333333333,4,2,1,30,0,0
85042,-90.9090909090909,4,2,1,50,0,0
94748,-90.9090909090909,4,2,2,50,0,0
94924,-90.9090909090909,4,2,1,50,0,0
97571,-90.9090909090909,4,2,2,50,0,0
97748,-90.9090909090909,4,2,1,50,0,0
100395,-90.9090909090909,4,2,2,50,0,0
101277,-90.9090909090909,4,2,1,50,0,0
106924,-90.9090909090909,4,2,2,50,0,0
107277,-90.9090909090909,4,2,1,50,0,0
107630,-86.9565217391304,4,2,3,60,0,0
107982,-86.9565217391304,4,2,2,60,0,0
109042,-86.9565217391304,4,2,1,60,0,0
109218,-86.9565217391304,4,2,1,60,0,0
109395,-86.9565217391304,4,2,1,60,0,0
109748,-86.9565217391304,4,2,2,60,0,0
110454,-86.9565217391304,4,2,1,60,0,0
111160,-86.9565217391304,4,2,2,60,0,0
111866,-86.9565217391304,4,2,1,60,0,0
112571,-86.9565217391304,4,2,2,60,0,0
113277,-86.9565217391304,4,2,1,60,0,0
113983,-86.9565217391304,4,2,2,60,0,0
114689,-86.9565217391304,4,2,1,60,0,0
115395,-86.9565217391304,4,2,2,60,0,0
117513,-133.333333333333,4,2,1,60,0,0
118042,-133.333333333333,4,2,1,60,0,0
118219,-133.333333333333,4,2,2,60,0,0
118924,-133.333333333333,4,2,3,70,0,0
119101,-133.333333333333,4,2,2,70,0,0
119630,-80,4,2,2,70,0,0
120336,-80,4,2,1,70,0,0
121042,-80,4,2,2,70,0,0
121218,-80,4,2,2,70,0,0
121395,-80,4,2,2,70,0,0
121748,-80,4,2,1,70,0,0
122012,-80,4,2,1,70,0,0
122101,-80,4,2,1,70,0,0
122454,-80,4,2,2,70,0,0
124571,-80,4,2,1,70,0,0
125277,-80,4,2,2,70,0,0
125983,-80,4,2,1,70,0,0
126159,-80,4,2,2,70,0,0
127395,-80,4,2,1,70,0,0
127571,-80,4,2,2,70,0,0
128807,-80,4,2,1,70,0,0
128983,-80,4,2,2,70,0,0
130042,-80,4,2,1,70,0,0
130924,-80,4,2,2,70,0,0
131630,-80,4,2,1,70,0,0
132336,-80,4,2,2,70,0,0
133306,-80,4,2,2,70,0,0
133395,-80,4,2,2,70,0,0
135866,-80,4,2,1,70,0,0
136571,-80,4,2,2,70,0,0
137277,-80,4,2,1,70,0,0
137453,-80,4,2,2,70,0,0
138689,-80,4,2,1,70,0,0
138866,-80,4,2,2,70,0,0
140101,-80,4,2,1,70,0,0
140277,-80,4,2,2,70,0,0
140807,-80,4,2,1,70,0,0
141160,-80,4,2,2,70,0,0
141248,-80,4,2,2,70,0,0
141336,-80,4,2,2,70,0,0
141424,-80,4,2,2,70,0,0
141513,-66.6666666666667,4,2,3,60,0,0
141865,-66.6666666666667,4,2,2,60,0,0
142219,-66.6666666666667,4,2,1,60,0,0
142748,-66.6666666666667,4,2,2,60,0,0
142924,-66.6666666666667,4,2,1,60,0,0
143188,-66.6666666666667,4,2,1,60,0,0
143277,-66.6666666666667,4,2,1,60,0,0
143807,-66.6666666666667,4,2,2,60,0,0
144336,-66.6666666666667,4,2,1,60,0,0
144866,-66.6666666666667,4,2,2,60,0,0
145042,-66.6666666666667,4,2,1,60,0,0
145571,-66.6666666666667,4,2,2,60,0,0
145748,-66.6666666666667,4,2,1,60,0,0
146012,-66.6666666666667,4,2,1,60,0,0
146101,-66.6666666666667,4,2,1,60,0,0
146807,-66.6666666666667,4,2,3,60,0,0
146983,-66.6666666666667,4,2,1,60,0,0
147866,-62.5,4,2,1,60,0,0
148571,-58.8235294117647,4,2,1,60,0,0
148835,-58.8235294117647,4,2,1,60,0,0
148924,-66.6666666666667,4,2,1,60,0,0
149630,-66.6666666666667,4,2,2,60,0,0
149983,-80,4,2,1,60,0,0
150335,-80,4,2,2,60,0,0
150689,-80,4,2,1,60,0,0
151659,-80,4,2,1,60,0,0
151748,-80,4,2,2,60,0,0
152807,-74.0740740740741,4,2,3,60,0,0
152983,-74.0740740740741,4,2,2,60,0,0
153513,-74.0740740740741,4,2,1,60,0,0
153866,-74.0740740740741,4,2,2,60,0,0
155630,-74.0740740740741,4,2,1,60,0,0
155983,-74.0740740740741,4,2,2,60,0,0
157042,-74.0740740740741,4,2,1,60,0,0
157395,-74.0740740740741,4,2,2,60,0,0
158454,-74.0740740740741,4,2,3,60,0,0
158630,-74.0740740740741,4,2,2,60,0,0
159336,-74.0740740740741,4,2,2,60,0,0
159513,-74.0740740740741,4,2,2,60,0,0
159866,-74.0740740740741,4,2,1,60,0,0
160219,-74.0740740740741,4,2,2,60,0,0
161277,-74.0740740740741,4,2,1,60,0,0
161630,-74.0740740740741,4,2,2,60,0,0
161983,-74.0740740740741,4,2,1,60,0,0
162513,-74.0740740740741,4,2,2,60,0,0
162953,-74.0740740740741,4,2,2,60,0,0
163042,-74.0740740740741,4,2,2,60,0,0
163395,-80,4,2,1,60,0,0
163483,-80,4,2,1,60,0,0
163571,-80,4,2,2,60,0,0
163659,-80,4,2,2,60,0,0
163748,-80,4,2,2,60,0,0
163836,-80,4,2,2,60,0,0
163924,-80,4,2,2,60,0,0
164012,-80,4,2,2,60,0,0
164101,-66.6666666666667,4,2,1,70,0,0
164807,-66.6666666666667,4,2,2,70,0,0
165513,-66.6666666666667,4,2,3,70,0,0
165865,-66.6666666666667,4,2,2,70,0,0
166924,-66.6666666666667,4,2,3,70,0,0
167101,-66.6666666666667,4,2,2,70,0,0
169219,-66.6666666666667,4,2,1,70,0,0
169395,-66.6666666666667,4,2,2,70,0,0
169748,-66.6666666666667,4,2,3,70,0,0
170012,-66.6666666666667,4,2,3,70,0,0
170101,-66.6666666666667,4,2,2,70,0,0
170718,-66.6666666666667,4,2,2,70,0,0
170807,-66.6666666666667,4,2,2,70,0,0
172571,-66.6666666666667,4,2,3,70,0,0
172748,-66.6666666666667,4,2,2,70,0,0
173983,-66.6666666666667,4,2,3,70,0,0
174160,-66.6666666666667,4,2,2,70,0,0
175395,-66.6666666666667,4,2,3,50,0,0
197983,-133.333333333333,4,2,2,50,0,0
200100,-133.333333333333,4,2,2,30,0,0
200807,-133.333333333333,4,2,1,80,0,0
201513,-133.333333333333,4,2,2,80,0,0
202219,-133.333333333333,4,2,1,80,0,0
202395,-133.333333333333,4,2,2,80,0,0
202571,-80,4,2,2,80,0,0
202835,-80,4,2,2,80,0,0
202924,-66.6666666666667,4,2,3,80,0,0
203100,-66.6666666666667,4,2,3,80,0,0
203277,-66.6666666666667,4,2,2,80,0,0
206454,-66.6666666666667,4,2,1,80,0,0
207159,-66.6666666666667,4,2,2,80,0,0
207866,-66.6666666666667,4,2,1,80,0,0
208042,-66.6666666666667,4,2,2,80,0,0
209277,-66.6666666666667,4,2,1,80,0,0
209983,-66.6666666666667,4,2,2,80,0,0
210689,-66.6666666666667,4,2,1,80,0,0
210866,-66.6666666666667,4,2,2,80,0,0
212101,-66.6666666666667,4,2,3,80,0,0
212277,-66.6666666666667,4,2,2,80,0,0
213513,-66.6666666666667,4,2,1,80,0,0
213689,-66.6666666666667,4,2,2,80,0,0
214219,-66.6666666666667,4,2,3,80,0,0
214483,-66.6666666666667,4,2,3,80,0,0
214571,-66.6666666666667,4,2,1,80,0,0
215100,-66.6666666666667,4,2,1,80,0,0
215277,-66.6666666666667,4,2,1,80,0,0
215541,-66.6666666666667,4,2,1,80,0,0
215630,-66.6666666666667,4,2,3,80,0,0
215807,-66.6666666666667,4,2,3,80,0,0
215983,-66.6666666666667,4,2,2,80,0,0
217748,-66.6666666666667,4,2,1,80,0,0
218453,-66.6666666666667,4,2,2,80,0,0
219160,-66.6666666666667,4,2,1,80,0,0
219336,-66.6666666666667,4,2,2,80,0,0
220571,-66.6666666666667,4,2,1,80,0,0
221100,-66.6666666666667,4,2,1,80,0,0
221277,-66.6666666666667,4,2,2,80,0,0
221630,-80,4,2,2,80,0,0
221894,-80,4,2,2,80,0,0
221983,-133.333333333333,4,2,3,50,0,0
222160,-133.333333333333,4,2,1,50,0,0
222688,-133.333333333333,4,2,4,50,0,0
223395,-74.0740740740741,4,2,3,70,0,0
223571,-74.0740740740741,4,2,3,70,0,0
223924,-74.0740740740741,4,2,2,70,0,0
226042,-74.0740740740741,4,2,2,70,0,0
226219,-74.0740740740741,4,2,2,70,0,0
226571,-74.0740740740741,4,2,2,70,0,0
226924,-74.0740740740741,4,2,2,70,0,0
227276,-74.0740740740741,4,2,2,70,0,0
227630,-74.0740740740741,4,2,2,70,0,0
229042,-74.0740740740741,4,2,1,70,0,0
229395,-66.6666666666667,4,2,1,70,0,0
229571,-66.6666666666667,4,2,1,70,0,0
229748,-66.6666666666667,4,2,2,70,0,0
230100,-66.6666666666667,4,2,2,70,0,0
230277,-66.6666666666667,4,2,2,70,0,0
230454,-66.6666666666667,4,2,1,70,0,0
230718,-66.6666666666667,4,2,1,70,0,0
230807,-66.6666666666667,4,2,1,70,0,0
231160,-66.6666666666667,4,2,2,70,0,0
231689,-66.6666666666667,4,2,2,70,0,0
231866,-66.6666666666667,4,2,1,70,0,0
232218,-66.6666666666667,4,2,1,70,0,0
232571,-66.6666666666667,4,2,2,70,0,0
232923,-66.6666666666667,4,2,2,70,0,0
233277,-66.6666666666667,4,2,2,70,0,0
233541,-66.6666666666667,4,2,2,5,0,0
233630,-66.6666666666667,4,2,2,70,0,0
233983,-66.6666666666667,4,2,2,70,0,0
234247,-66.6666666666667,4,2,2,5,0,0
234336,-66.6666666666667,4,2,2,70,0,0
234689,-66.6666666666667,4,2,1,70,0,0
235042,-74.0740740740741,4,2,1,70,0,0
235395,-74.0740740740741,4,2,2,70,0,0
236101,-74.0740740740741,4,2,1,70,0,0
236277,-74.0740740740741,4,2,2,70,0,0
236983,-74.0740740740741,4,2,2,70,0,0
237160,-74.0740740740741,4,2,2,70,0,0
237336,-74.0740740740741,4,2,2,70,0,0
237513,-74.0740740740741,4,2,1,70,0,0
237865,-74.0740740740741,4,2,1,70,0,0
238219,-74.0740740740741,4,2,2,70,0,0
238571,-74.0740740740741,4,2,2,70,0,0
238924,-74.0740740740741,4,2,2,70,0,0
239276,-74.0740740740741,4,2,2,70,0,0
239630,-74.0740740740741,4,2,2,70,0,0
239806,-74.0740740740741,4,2,2,70,0,0
239983,-74.0740740740741,4,2,2,70,0,0
240336,-74.0740740740741,4,2,1,70,0,0
240689,-66.6666666666667,4,2,1,70,0,0
241041,-66.6666666666667,4,2,2,70,0,0
241748,-66.6666666666667,4,2,1,70,0,0
241924,-66.6666666666667,4,2,2,70,0,0
242806,-66.6666666666667,4,2,2,70,0,0
243160,-66.6666666666667,4,2,2,70,0,0
243336,-66.6666666666667,4,2,2,70,0,0
243866,-66.6666666666667,4,2,2,70,0,0
244218,-66.6666666666667,4,2,2,70,0,0
244571,-66.6666666666667,4,2,2,70,0,0
244660,-66.6666666666667,4,2,2,70,0,0
244748,-66.6666666666667,4,2,2,70,0,0
245983,-66.6666666666667,4,2,3,80,0,0
246160,-66.6666666666667,4,2,2,80,0,0
248101,-66.6666666666667,4,2,3,80,0,0
248277,-66.6666666666667,4,2,2,80,0,0
249071,-66.6666666666667,4,2,2,80,0,0
249160,-66.6666666666667,4,2,2,80,0,0
251630,-66.6666666666667,4,2,1,80,0,0
251806,-66.6666666666667,4,2,1,80,0,0
251983,-66.6666666666667,4,2,1,80,0,0
252336,-66.6666666666667,4,2,2,80,0,0
253042,-66.6666666666667,4,2,1,80,0,0
253218,-66.6666666666667,4,2,2,80,0,0
254454,-66.6666666666667,4,2,1,80,0,0
254718,-66.6666666666667,4,2,1,80,0,0
254807,-66.6666666666667,4,2,1,80,0,0
255071,-66.6666666666667,4,2,1,80,0,0
255160,-66.6666666666667,4,2,2,80,0,0
255336,-66.6666666666667,4,2,2,80,0,0
255513,-66.6666666666667,4,2,2,80,0,0
256835,-66.6666666666667,4,2,2,80,0,0
256924,-66.6666666666667,4,2,2,80,0,0
257188,-66.6666666666667,4,2,2,80,0,0
257277,-66.6666666666667,4,2,3,80,0,0
257454,-66.6666666666667,4,2,2,80,0,0
258689,-66.6666666666667,4,2,1,80,0,0
258866,-66.6666666666667,4,2,2,80,0,0
259395,-66.6666666666667,4,2,3,80,0,0
259571,-66.6666666666667,4,2,2,80,0,0
260365,-66.6666666666667,4,2,2,80,0,0
260454,-66.6666666666667,4,2,2,80,0,0
260630,-66.6666666666667,4,2,2,80,0,0
260807,-66.6666666666667,4,2,3,80,0,0
260983,-66.6666666666667,4,2,3,80,0,0
261160,-66.6666666666667,4,2,2,80,0,0
262924,-66.6666666666667,4,2,1,80,0,0
263100,-66.6666666666667,4,2,1,80,0,0
263277,-66.6666666666667,4,2,1,80,0,0
263630,-66.6666666666667,4,2,2,80,0,0
264336,-66.6666666666667,4,2,1,80,0,0
265042,-66.6666666666667,4,2,2,80,0,0
265748,-66.6666666666667,4,2,1,80,0,0
266454,-66.6666666666667,4,2,2,80,0,0
267160,-66.6666666666667,4,2,3,80,0,0
267336,-66.6666666666667,4,2,2,80,0,0
268572,725.075528700906,4,2,1,40,1,0
268572,-125,4,2,1,40,0,0
268934,-125,4,2,1,40,0,0
269115,-125,4,2,1,40,0,0
269659,-125,4,2,1,40,0,0
269840,-125,4,2,1,40,0,0
270022,705.882352941176,4,2,1,30,1,0
270022,-125,4,2,1,30,0,0
270374,-125,4,2,1,30,0,0
270727,-125,4,2,1,30,0,0
271785,-125,4,2,1,30,0,0
271963,-125,4,2,1,30,0,0
272491,-125,4,2,1,30,0,0
272669,-125,4,2,1,30,0,0
273197,-125,4,2,1,30,0,0
273551,-125,4,2,1,30,0,0
274609,-125,4,2,1,30,0,0
274963,-125,4,2,1,30,0,0
275315,-125,4,2,1,30,0,0
275669,-125,4,2,1,30,0,0
276021,-125,4,2,1,30,0,0
276374,-125,4,2,1,30,0,0
284492,-125,4,2,1,10,0,0

[Colours]
Combo1 : 232,232,232
Combo2 : 255,114,111

[HitObjects]
29,102,28219,5,2,2:2:0:0:
29,102,28572,2,0,P|96:89|149:82,1,120,2|2,2:1|2:2,0:0:0:0:
236,18,29277,1,2,2:2:0:0:
236,18,29630,1,2,2:2:0:0:
319,120,29983,6,0,P|309:177|297:306,1,180,2|2,2:1|2:2,0:0:0:0:
338,362,30689,1,2,2:2:0:0:
338,362,31395,5,2,2:1:0:0:
338,362,31748,1,2,2:2:0:0:
245,306,32101,2,0,P|179:313|126:324,1,120,2|2,2:2|2:2,0:0:0:0:
7,236,32807,6,0,P|14:161|30:55,1,180,2|2,2:1|2:2,0:0:0:0:
88,1,33513,1,2,2:2:0:0:
88,1,34219,5,2,2:1:0:0:
167,74,34572,1,2,2:2:0:0:
266,32,34924,1,2,2:2:0:0:
266,32,35277,1,2,2:2:0:0:
220,157,35630,6,0,P|323:136|456:119,1,240,2|2,2:1|2:2,0:0:0:0:
456,118,37042,5,2,2:1:0:0:
456,118,37395,1,2,2:2:0:0:
508,216,37748,2,0,P|451:206|322:194,1,180,2|2,2:2|2:2,0:0:0:0:
263,235,38454,1,2,2:1:0:0:
263,235,39160,6,0,P|204:214|190:147,1,135,2|0,2:2|0:0,0:0:0:0:
237,88,39866,5,2,2:1:0:0:
110,147,40219,1,2,2:2:0:0:
13,6,40571,1,2,2:2:0:0:
13,6,41101,5,2,2:2:0:0:
67,64,41277,2,0,P|50:178|36:306,1,240,2|0,2:1|0:0,0:0:0:0:
36,301,42336,1,2,2:2:0:0:
151,368,42689,5,2,2:1:0:0:
151,368,43042,1,2,2:2:0:0:
244,282,43395,1,2,2:2:0:0:
244,282,43924,5,2,2:2:0:0:
315,338,44101,2,0,P|328:218|345:100,1,240,2|0,2:1|0:0,0:0:0:0:
345,100,45336,5,2,2:2:0:0:
283,150,45513,2,0,P|224:138|164:128,1,120,2|2,2:1|2:2,0:0:0:0:
4,57,46219,2,0,P|91:45|185:27,1,180,2|2,2:2|2:2,0:0:0:0:
251,61,46924,1,2,2:1:0:0:
188,143,47630,1,2,2:2:0:0:
260,248,48160,1,2,2:2:0:0:
260,248,48336,1,2,2:1:0:0:
371,178,49042,1,2,2:2:0:0:
442,234,49748,1,2,2:1:0:0:
442,234,50983,5,2,2:2:0:0:
371,178,51160,2,0,P|374:139|381:101,2,75,2|2|2,2:1|2:2|2:2,0:0:0:0:
442,234,51689,1,2,2:2:0:0:
393,310,51866,2,0,P|321:326|258:289,1,150,2|2,2:2|2:2,0:0:0:0:
77,101,52571,6,0,P|36:94|-5:92,1,75,2|2,2:1|2:2,0:0:0:0:
93,189,52924,1,2,2:2:0:0:
93,189,53101,1,2,2:2:0:0:
138,38,53277,2,0,P|212:25|287:15,1,150,2|2,2:2|2:2,0:0:0:0:
373,37,53807,2,0,P|366:72|335:90,1,75,2|2,2:2|2:1,0:0:0:0:
445,207,54336,6,0,P|372:187|298:176,1,150,2|2,2:2|2:2,0:0:0:0:
215,213,54866,1,2,2:2:0:0:
176,131,55042,1,2,2:2:0:0:
176,131,55395,6,0,P|63:116|7:216,1,240,2|2,2:1|2:2,0:0:0:0:
143,374,56454,5,2,2:2:0:0:
143,374,56630,1,2,2:2:0:0:
75,314,56807,2,0,P|38:307|-5:304,2,75,2|2|2,2:1|2:2|2:2,0:0:0:0:
160,286,57336,1,2,2:2:0:0:
369,374,57866,5,2,2:2:0:0:
369,374,58042,1,2,2:2:0:0:
437,314,58219,2,0,P|474:307|517:304,2,75,2|2|2,2:1|2:2|2:2,0:0:0:0:
352,286,58748,1,2,2:2:0:0:
218,232,59101,6,0,P|165:246|152:307,1,120,2|2,2:2|2:2,0:0:0:0:
249,373,59630,5,2,2:1:0:0:
249,373,59807,1,2,2:2:0:0:
323,322,59983,2,0,P|326:287|331:247,1,75,2|2,2:2|2:2,0:0:0:0:
243,246,60336,5,2,2:2:0:0:
243,246,60513,1,2,2:2:0:0:
375,173,60689,2,0,P|378:138|383:98,1,75,2|0,2:2|0:0,0:0:0:0:
295,3,61042,6,0,P|285:77|277:152,1,150,2|2,2:1|2:2,0:0:0:0:
341,271,61571,1,2,2:2:0:0:
21,150,62277,5,2,2:2:0:0:
62,69,62454,2,0,P|52:33|23:11,2,75,2|2|2,2:1|2:2|2:2,0:0:0:0:
21,150,62983,5,2,2:2:0:0:
110,155,63160,2,0,P|139:132|148:96,2,75,2|2|2,2:2|2:2|2:2,0:0:0:0:
21,150,63689,5,2,2:2:0:0:
49,235,63866,2,0,P|81:252|117:247,1,75,2|2,2:1|2:2,0:0:0:0:
230,290,64219,2,0,P|259:267|268:231,1,75,2|2,2:2|2:2,0:0:0:0:
180,64,64571,1,2,2:2:0:0:
180,64,64924,5,2,2:2:0:0:
255,0,65101,1,2,2:2:0:0:
477,32,65630,6,0,P|402:38|329:53,1,150,2|2,2:2|2:2,0:0:0:0:
154,143,66336,1,2,2:2:0:0:
84,100,66513,1,2,2:2:0:0:
253,30,66689,2,0,P|238:129|222:268,1,240,2|2,2:1|2:2,0:0:0:0:
421,369,67748,5,2,2:2:0:0:
421,369,67924,1,2,2:2:0:0:
481,274,68101,2,0,P|407:285|332:301,1,150,2|2,2:1|2:2,0:0:0:0:
260,353,68630,1,2,2:2:0:0:
198,288,68807,1,2,2:2:0:0:
271,236,68983,1,2,2:2:0:0:
271,236,69336,5,2,2:2:0:0:
175,159,69513,2,0,P|136:154|101:151,2,75,2|2|2,2:1|2:2|2:2,0:0:0:0:
286,118,70042,1,2,2:2:0:0:
390,258,70395,5,2,2:2:0:0:
300,279,70571,2,0,P|305:238|311:198,1,75,2|2,2:2|2:2,0:0:0:0:
361,352,70924,2,0,P|289:370|222:337,1,150,2|2,2:1|2:2,0:0:0:0:
156,276,71454,1,2,2:2:0:0:
214,207,71630,2,0,P|210:166|201:125,1,75,2|2,2:2|2:2,0:0:0:0:
177,46,71983,1,2,2:2:0:0:
177,46,72160,1,2,2:2:0:0:
293,153,72336,6,0,P|328:168|364:161,1,75,2|2,2:1|2:2,0:0:0:0:
423,95,72689,1,2,2:2:0:0:
354,36,72866,1,2,2:2:0:0:
512,257,73219,5,2,2:2:0:0:
512,257,73395,1,2,2:2:0:0:
423,358,73748,6,0,P|368:345|312:337,2,112.5,2|2|2,2:1|2:2|2:2,0:0:0:0:
237,262,75160,1,2,2:1:0:0:
179,80,75866,1,2,2:2:0:0:
4,222,76571,6,0,P|58:209|114:201,2,112.5,2|2|2,2:1|2:2|2:2,0:0:0:0:
188,82,77983,2,0,P|215:129|205:184,1,112.5,2|2,2:1|2:2,0:0:0:0:
67,208,78689,2,0,P|39:160|49:105,1,112.5,2|0,2:1|0:0,0:0:0:0:
154,272,79395,6,0,P|210:281|264:292,2,112.5,2|2|2,2:1|2:2|2:2,0:0:0:0:
344,220,80807,1,2,2:1:0:0:
423,45,81513,1,2,2:1:0:0:
229,179,82219,6,0,P|174:166|118:158,2,112.5,2|2|2,2:1|2:2|2:2,0:0:0:0:
275,366,83630,2,0,P|302:318|292:263,1,112.5,2|0,2:1|0:0,0:0:0:0:
182,167,84336,2,0,P|171:112|199:64,1,112.5,2|0,2:2|0:0,0:0:0:0:
491,11,85042,6,0,P|484:55|482:92,1,82.5,4|0,1:2|0:0,0:0:0:0:
326,161,85395,2,0,P|332:116|334:79,1,82.5,2|0,2:2|0:0,0:0:0:0:
510,202,85748,2,0,P|430:202|388:268,1,165,10|2,2:2|2:2,0:0:0:0:
237,360,86277,5,8,2:1:0:0:
237,360,86366,1,8,2:1:0:0:
237,360,86454,2,0,P|160:344|135:263,2,165,2|0|10,1:1|1:1|2:2,0:0:0:0:
213,283,87336,1,0,0:0:0:0:
213,283,87689,5,2,1:2:0:0:
311,216,87866,2,0,P|239:208|143:195,1,165,2|2,1:1|2:2,0:0:0:0:
117,344,88395,1,0,0:0:0:0:
124,350,88571,2,0,P|196:358|292:371,1,165,10|2,2:2|2:2,0:0:0:0:
437,268,89101,5,8,2:1:0:0:
437,268,89189,1,8,2:1:0:0:
437,268,89277,1,2,1:1:0:0:
387,350,89454,2,0,P|341:285|359:206,1,165,0|0,1:1|0:0,0:0:0:0:
429,136,89983,1,10,2:2:0:0:
505,195,90160,2,0,P|436:232|358:206,1,165,0|0,1:1|0:0,0:0:0:0:
281,42,90689,6,0,P|239:38|200:32,1,82.5,2|0,1:1|0:0,0:0:0:0:
83,183,91042,2,0,P|125:187|164:193,1,82.5,2|0,2:2|0:0,0:0:0:0:
111,4,91395,2,0,P|79:77|1:90,1,165,10|2,2:2|2:2,0:0:0:0:
80,228,91924,5,8,2:1:0:0:
80,228,92013,1,8,2:1:0:0:
80,228,92101,2,0,P|158:213|243:204,1,165,2|0,1:1|1:1,0:0:0:0:
413,201,92630,5,2,2:2:0:0:
402,284,92807,2,0,P|336:238|338:159,1,165,10|0,2:2|0:0,0:0:0:0:
413,201,93336,1,2,1:2:0:0:
292,321,93513,6,0,P|207:307|122:298,1,165,2|2,1:1|2:2,0:0:0:0:
9,251,94042,1,0,0:0:0:0:
97,143,94219,2,0,P|107:183|91:219,1,82.5,10|0,2:2|0:0,0:0:0:0:
9,251,94571,1,2,2:2:0:0:
99,353,94748,5,10,2:1:0:0:
99,353,94836,1,8,2:1:0:0:
99,353,94924,2,0,P|181:361|262:375,1,165,2|0,1:1|0:0,0:0:0:0:
440,210,95630,6,0,L|431:292,1,82.5,10|0,2:2|1:1,0:0:0:0:
484,361,95983,1,8,2:2:0:0:
484,361,96160,1,8,2:2:0:0:
350,240,96336,6,0,P|312:223|272:228,1,82.5,6|0,1:1|0:0,0:0:0:0:
119,330,96689,2,0,P|156:346|196:341,1,82.5,2|0,2:2|0:0,0:0:0:0:
185,135,97042,2,0,P|110:104|23:122,1,165,10|0,2:2|0:0,0:0:0:0:
85,315,97571,1,10,2:1:0:0:
85,315,97660,1,8,2:1:0:0:
85,315,97748,2,0,P|149:309|197:223,1,165,2|0,1:1|1:1,0:0:0:0:
320,15,98454,6,0,P|326:79|413:124,1,165,10|2,2:2|2:2,0:0:0:0:
403,38,98983,1,0,1:1:0:0:
248,120,99160,6,0,P|254:202|259:284,1,165,2|2,1:1|2:2,0:0:0:0:
472,362,99866,2,0,P|465:279|460:197,1,165,10|0,2:2|0:0,0:0:0:0:
329,68,100395,1,10,2:1:0:0:
329,68,100483,1,8,2:1:0:0:
329,68,100571,2,0,P|396:110|473:87,1,165,2|0,1:2|0:0,0:0:0:0:
286,156,101277,6,0,L|203:165,1,82.5,10|0,2:2|1:1,0:0:0:0:
135,112,101630,1,2,2:2:0:0:
135,112,101807,1,8,2:2:0:0:
248,244,101983,6,0,P|262:281|255:321,1,82.5,2|0,1:1|0:0,0:0:0:0:
38,370,102336,2,0,P|22:332|29:291,1,82.5,2|0,2:2|0:0,0:0:0:0:
233,146,102689,6,0,P|304:136|397:125,1,165,10|0,2:2|0:0,0:0:0:0:
450,291,103219,1,8,2:1:0:0:
450,291,103307,1,8,2:1:0:0:
450,291,103395,2,0,P|367:289|328:225,1,165,2|0,1:1|1:1,0:0:0:0:
162,75,104101,6,0,P|87:112|16:83,1,165,10|0,2:2|0:0,0:0:0:0:
85,14,104630,1,0,1:1:0:0:
233,134,104807,6,0,P|224:179|219:220,1,82.5,2|0,1:1|0:0,0:0:0:0:
372,323,105160,2,0,P|366:282|358:241,1,82.5,2|0,2:2|0:0,0:0:0:0:
135,262,105513,2,0,P|196:311|275:295,1,165,10|0,2:2|0:0,0:0:0:0:
425,150,106042,5,8,2:1:0:0:
425,150,106130,1,8,2:1:0:0:
425,150,106219,1,2,1:1:0:0:
346,240,106395,2,0,P|337:167|325:74,1,165,0|0,1:1|0:0,0:0:0:0:
148,0,106924,5,8,2:2:0:0:
62,139,107101,1,0,1:1:0:0:
0,45,107277,2,0,P|38:48|81:55,1,82.5,4|2,2:3|2:2,0:0:0:0:
266,211,107630,6,0,P|172:219|90:230,1,172.5,6|2,1:1|2:2,0:0:0:0:
193,311,108160,1,2,2:2:0:0:
243,120,108336,1,10,2:2:0:0:
360,210,108513,1,2,2:2:0:0:
360,210,108866,5,2,1:2:0:0:
303,288,109042,2,0,P|273:257|261:216,1,86.25,2|0,1:1|0:0,0:0:0:0:
375,115,109395,1,2,1:2:0:0:
375,115,109571,1,2,2:2:0:0:
173,153,109924,6,0,P|180:196|185:239,2,86.25,2|2|2,2:2|2:2|2:2,0:0:0:0:
18,199,110454,2,0,P|54:221|96:217,1,86.25,2|2,1:1|2:2,0:0:0:0:
229,87,110807,2,0,P|192:64|150:68,1,86.25,2|2,2:2|2:2,0:0:0:0:
18,199,111160,5,10,2:2:0:0:
173,153,111336,1,2,2:2:0:0:
190,329,111513,1,2,2:2:0:0:
117,248,111689,1,2,1:2:0:0:
325,160,111866,6,0,P|373:229|352:310,1,172.5,2|2,1:1|1:2,0:0:0:0:
278,247,112395,1,2,2:2:0:0:
451,156,112571,1,8,2:2:0:0:
478,250,112748,2,0,P|432:252|394:233,1,86.25,2|2,2:2|2:2,0:0:0:0:
451,156,113101,1,2,2:2:0:0:
504,356,113277,5,2,1:1:0:0:
504,356,113454,2,0,P|412:340|332:330,1,172.5,2|2,2:2|2:2,0:0:0:0:
204,247,113983,1,10,2:2:0:0:
314,218,114160,1,2,2:2:0:0:
219,359,114336,2,0,P|177:349|134:341,1,86.25,2|2,2:2|1:2,0:0:0:0:
21,121,114689,5,2,1:1:0:0:
111,251,114866,1,2,2:2:0:0:
191,51,115042,2,0,P|143:45|104:41,1,86.25,2|2,1:2|2:2,0:0:0:0:
245,192,115395,1,8,2:2:0:0:
344,0,115748,5,2,2:2:0:0:
451,78,115924,1,10,2:2:0:0:
450,86,116013,1,8,2:2:0:0:
449,94,116101,1,6,1:2:0:0:
449,94,117513,6,0,B|377:68|374:182|307:157,1,168.75,2|0,2:1|0:0,0:0:0:0:
168,180,118219,6,0,B|239:154|242:268|309:243,1,168.75,4|2,1:3|2:2,0:0:0:0:
385,367,118924,5,6,1:1:0:0:
307,157,119101,1,2,2:2:0:0:
431,280,119277,1,2,2:2:0:0:
402,185,119454,1,2,2:2:0:0:
263,354,119630,2,0,P|166:338|75:328,1,187.5,10|2,2:2|2:2,0:0:0:0:
15,148,120160,5,10,2:1:0:0:
15,148,120248,1,8,2:1:0:0:
15,148,120336,2,0,P|56:156|102:136,1,93.75,2|8,1:1|2:1,0:0:0:0:
221,11,120689,1,2,1:2:0:0:
126,41,120866,1,2,2:2:0:0:
242,221,121042,2,0,P|239:174|234:126,1,93.75,10|0,2:2|0:0,0:0:0:0:
148,219,121395,1,2,2:2:0:0:
148,219,121571,1,2,2:2:0:0:
313,89,121748,6,0,P|385:78|455:71,1,140.625,2|0,1:1|0:0,0:0:0:0:
452,71,122101,1,2,2:2:0:0:
253,0,122277,1,2,2:2:0:0:
443,164,122454,2,0,P|402:184|357:174,1,93.75,10|2,2:2|2:2,0:0:0:0:
201,99,122807,1,2,2:2:0:0:
247,268,122983,1,10,2:1:0:0:
247,268,123071,1,8,2:1:0:0:
247,268,123160,2,0,P|250:228|258:168,1,93.75,0|10,1:1|2:1,0:0:0:0:
93,323,123513,2,0,B|175:291|190:387|267:360,1,187.5,0|8,1:1|2:2,0:0:0:0:
427,119,124219,5,2,2:2:0:0:
253,27,124395,1,10,2:1:0:0:
253,27,124483,1,8,2:1:0:0:
253,27,124571,2,0,P|297:15|341:30,1,93.75,2|2,1:1|2:2,0:0:0:0:
359,217,124924,1,2,2:2:0:0:
214,166,125101,2,0,P|247:133|292:124,1,93.75,2|8,2:2|2:2,0:0:0:0:
154,274,125454,5,2,2:2:0:0:
12,124,125630,1,2,2:2:0:0:
46,330,125807,1,2,1:2:0:0:
46,330,125895,1,8,2:1:0:0:
46,330,125983,2,0,P|41:290|32:234,1,93.75,2|10,1:1|2:1,0:0:0:0:
12,124,126336,1,2,1:2:0:0:
163,346,126513,2,0,P|153:267|135:158,1,187.5,2|2,2:2|2:2,0:0:0:0:
112,51,127042,1,2,2:2:0:0:
112,51,127219,1,2,2:2:0:0:
229,184,127395,5,6,1:1:0:0:
135,160,127571,1,10,2:1:0:0:
312,58,127748,1,2,2:2:0:0:
218,33,127924,1,2,2:2:0:0:
338,233,128101,6,0,P|318:191|324:145,1,93.75,10|2,2:2|2:2,0:0:0:0:
499,10,128454,1,2,2:2:0:0:
499,10,128630,1,10,2:1:0:0:
403,177,128807,1,2,1:1:0:0:
312,58,128983,1,10,2:2:0:0:
236,169,129160,1,2,1:2:0:0:
163,109,129336,2,0,P|118:98|74:120,1,93.75,10|4,2:1|1:2,0:0:0:0:
28,256,129689,5,10,2:2:0:0:
28,256,129777,1,8,2:2:0:0:
28,256,129866,2,0,P|74:267|112:246,1,93.75,0|10,1:1|2:3,0:0:0:0:
245,88,130219,5,6,1:2:0:0:
449,161,130395,1,2,2:2:0:0:
286,268,130571,1,2,2:2:0:0:
464,294,130748,1,2,2:2:0:0:
387,377,130924,2,0,P|376:283|361:191,1,187.5,10|2,2:2|2:2,0:0:0:0:
194,19,131454,5,10,2:1:0:0:
194,19,131542,1,8,2:1:0:0:
194,19,131630,2,0,P|143:9|102:34,1,93.75,2|8,1:1|2:1,0:0:0:0:
13,186,131983,1,2,1:2:0:0:
163,106,132160,1,2,2:2:0:0:
292,306,132336,5,10,2:2:0:0:
103,181,132513,1,2,2:2:0:0:
316,83,132689,1,2,2:2:0:0:
165,294,132866,1,2,2:2:0:0:
216,79,133042,6,0,P|227:151|234:221,1,140.625,4|0,1:2|0:0,0:0:0:0:
233,218,133395,1,2,2:2:0:0:
382,375,133571,1,2,2:2:0:0:
512,186,133748,2,0,P|472:167|422:173,1,93.75,10|2,2:2|2:2,0:0:0:0:
266,348,134101,1,2,2:2:0:0:
131,258,134277,5,10,2:1:0:0:
131,258,134366,1,8,2:1:0:0:
131,258,134454,2,0,P|135:206|142:164,1,93.75,0|10,1:1|2:1,0:0:0:0:
46,17,134807,2,0,P|119:70|208:52,1,187.5,0|8,1:1|2:2,0:0:0:0:
111,178,135513,5,2,2:2:0:0:
152,379,135689,1,10,2:1:0:0:
152,379,135777,1,8,2:1:0:0:
152,379,135866,2,0,P|133:336|140:290,1,93.75,6|2,1:1|2:2,0:0:0:0:
309,174,136219,2,0,P|272:202|226:208,1,93.75,2|2,2:2|2:2,0:0:0:0:
111,178,136571,1,8,2:2:0:0:
390,71,136924,5,2,2:2:0:0:
184,105,137101,1,2,1:2:0:0:
184,105,137189,1,8,2:1:0:0:
184,105,137277,2,0,P|224:100|280:91,1,93.75,2|10,1:1|2:1,0:0:0:0:
390,71,137630,1,2,1:2:0:0:
168,222,137807,2,0,P|247:212|356:194,1,187.5,2|2,2:2|2:2,0:0:0:0:
463,171,138336,1,2,2:2:0:0:
463,171,138513,1,2,2:2:0:0:
307,360,138689,5,6,1:1:0:0:
401,336,138866,1,10,2:1:0:0:
248,233,139042,1,10,2:1:0:0:
342,208,139219,1,2,2:2:0:0:
182,374,139395,2,0,P|161:332|166:286,1,93.75,10|2,2:2|2:2,0:0:0:0:
325,120,139748,2,0,P|346:162|341:208,1,93.75,2|10,2:2|2:1,0:0:0:0:
245,314,140101,5,2,1:1:0:0:
111,219,140277,1,10,2:1:0:0:
0,297,140454,1,10,1:1:0:0:
91,344,140630,1,10,2:1:0:0:
91,344,140719,1,8,2:1:0:0:
91,344,140807,2,0,L|82:297,1,46.875,8|8,2:3|2:3,0:0:0:0:
200,201,140983,2,0,L|191:248,1,46.875,0|0,1:1|1:1,0:0:0:0:
36,185,141160,2,0,L|27:138,1,46.875,12|0,2:2|0:0,0:0:0:0:
215,48,141336,2,0,L|206:95,1,46.875,8|0,2:2|0:0,0:0:0:0:
320,325,141513,6,0,P|415:274|425:167,1,225,6|8,1:1|2:1,0:0:0:0:
341,54,142042,1,10,2:1:0:0:
196,284,142219,6,0,P|150:186|206:94,1,225,2|8,1:1|2:1,0:0:0:0:
341,54,142748,1,10,2:1:0:0:
349,289,142924,6,0,P|418:247|424:166,1,168.75,2|0,1:1|0:0,0:0:0:0:
419,160,143277,2,0,P|358:167|308:181,1,112.5,8|8,2:1|2:1,0:0:0:0:
196,284,143630,5,2,1:1:0:0:
173,180,143807,1,10,2:1:0:0:
108,350,143983,1,10,2:2:0:0:
85,246,144160,1,10,2:2:0:0:
292,264,144336,6,0,P|359:179|326:77,1,225,2|8,1:1|2:1,0:0:0:0:
216,25,144866,1,10,2:1:0:0:
189,280,145042,6,0,P|108:207|123:101,1,225,2|8,1:1|2:1,0:0:0:0:
216,25,145571,1,10,2:1:0:0:
304,219,145748,6,0,P|351:153|324:76,1,168.75,2|0,1:1|0:0,0:0:0:0:
318,73,146101,2,0,P|268:85|246:147,1,112.5,8|8,2:1|2:1,0:0:0:0:
397,278,146454,6,0,P|450:269|513:262,1,112.5,2|8,1:1|2:1,0:0:0:0:
437,176,146807,1,12,2:3:0:0:
437,176,146895,1,8,2:1:0:0:
437,176,146983,1,8,2:1:0:0:
375,376,147160,6,0,P|276:333|257:226,1,225,2|8,1:1|2:1,0:0:0:0:
340,133,147689,1,8,2:1:0:0:
141,304,147866,2,0,P|127:188|216:112,1,240,2|8,1:1|2:1,0:0:0:0:
340,133,148395,1,8,2:1:0:0:
26,54,148571,2,0,P|98:0|197:17,1,191.25,2|0,1:1|0:0,0:0:0:0:
199,20,148924,2,0,P|186:74|175:130,1,112.5,8|8,2:1|2:1,0:0:0:0:
34,343,149277,6,0,P|23:287|11:233,1,112.5,0|8,1:1|2:1,0:0:0:0:
98,95,149630,1,10,2:2:0:0:
170,255,149807,1,10,2:2:0:0:
281,182,149983,6,0,P|378:194|471:210,1,187.5,2|10,1:1|2:1,0:0:0:0:
387,109,150513,1,10,2:1:0:0:
266,266,150689,2,0,P|363:278|456:294,1,187.5,2|8,1:1|2:1,0:0:0:0:
235,355,151395,6,0,P|181:311|172:243,1,140.625,2|0,1:1|0:0,0:0:0:0:
175,237,151748,2,0,P|142:269|96:277,1,93.75,10|8,2:1|2:1,0:0:0:0:
19,100,152101,5,6,1:2:0:0:
95,173,152277,1,10,2:1:0:0:
163,8,152454,1,10,2:2:0:0:
271,203,152630,1,10,2:2:0:0:
271,203,152719,1,10,2:2:0:0:
271,203,152807,6,0,P|319:215|372:190,1,101.25,6|2,1:1|2:2,0:0:0:0:
436,31,153160,1,10,2:1:0:0:
314,134,153336,1,10,2:1:0:0:
438,238,153513,6,0,P|450:190|425:137,1,101.25,2|2,1:1|2:2,0:0:0:0:
295,55,153866,1,10,2:1:0:0:
366,197,154042,1,10,2:1:0:0:
292,260,154219,5,2,1:2:0:0:
206,185,154395,1,2,2:2:0:0:
98,219,154571,1,10,2:1:0:0:
38,34,154748,2,0,P|87:40|140:49,1,101.25,10|0,2:1|1:1,0:0:0:0:
271,98,155101,5,10,2:1:0:0:
248,195,155277,1,10,2:2:0:0:
176,126,155454,1,10,2:2:0:0:
344,221,155630,5,2,1:1:0:0:
273,382,155807,1,2,2:2:0:0:
248,195,155983,1,10,2:1:0:0:
248,195,156160,1,10,2:1:0:0:
396,149,156336,5,2,1:2:0:0:
307,301,156513,1,2,2:2:0:0:
493,138,156689,1,10,2:1:0:0:
493,138,156866,1,10,2:1:0:0:
462,26,157042,5,2,1:1:0:0:
315,100,157219,1,2,2:2:0:0:
386,249,157395,2,0,L|395:148,1,101.25,10|10,2:1|2:1,0:0:0:0:
243,48,157748,5,0,1:1:0:0:
232,126,157924,1,8,2:1:0:0:
221,205,158101,1,8,2:3:0:0:
210,284,158277,1,10,2:1:0:0:
167,79,158454,6,0,P|119:67|66:92,1,101.25,6|2,1:1|2:2,0:0:0:0:
2,251,158807,1,10,2:1:0:0:
124,148,158983,1,10,2:1:0:0:
0,44,159160,6,0,P|-12:92|13:145,1,101.25,2|0,1:2|0:0,0:0:0:0:
143,227,159513,1,10,2:1:0:0:
72,85,159689,1,10,2:1:0:0:
272,46,159866,5,2,1:1:0:0:
124,148,160042,1,2,2:2:0:0:
205,0,160219,1,10,2:1:0:0:
342,178,160395,2,0,P|390:188|438:168,1,101.25,10|0,2:1|1:1,0:0:0:0:
446,3,160748,5,10,2:1:0:0:
382,105,160924,1,10,2:2:0:0:
280,43,161101,1,10,2:2:0:0:
172,210,161277,2,0,P|217:229|265:216,1,101.25,2|2,1:1|2:2,0:0:0:0:
475,112,161630,2,0,P|429:92|381:105,1,101.25,10|10,2:1|2:1,0:0:0:0:
310,295,161983,2,0,P|421:251|423:182,1,202.5,2|8,1:1|2:1,0:0:0:0:
292,31,162513,5,10,2:1:0:0:
174,208,162689,2,0,P|102:227|39:189,1,151.875,2|0,1:2|0:0,0:0:0:0:
35,182,163042,2,0,L|51:79,1,101.25,10|10,2:1|2:1,0:0:0:0:
211,0,163395,6,0,L|215:47,1,46.875,4|0,1:2|0:0,0:0:0:0:
413,94,163571,2,0,L|417:46,1,46.875,8|0,2:2|0:0,0:0:0:0:
257,135,163748,2,0,L|261:182,1,46.875,8|0,2:2|0:0,0:0:0:0:
357,222,163924,2,0,L|361:176,1,46.875,10|0,2:2|0:0,0:0:0:0:
168,345,164101,6,0,P|62:329|33:227,1,225,6|2,1:1|1:2,0:0:0:0:
206,111,164630,1,2,2:2:0:0:
56,41,164807,1,10,1:2:0:0:
153,33,164983,1,2,2:2:0:0:
201,211,165160,2,0,P|257:200|319:193,1,112.5,2|2,1:2|2:2,0:0:0:0:
511,11,165513,6,0,P|482:96|359:117,1,225,10|2,1:1|1:2,0:0:0:0:
227,30,166042,1,2,2:2:0:0:
247,233,166219,2,0,P|253:177|264:122,1,112.5,10|2,1:2|2:2,0:0:0:0:
428,10,166571,2,0,P|438:65|444:121,1,112.5,0|2,1:1|2:2,0:0:0:0:
360,270,166924,5,10,1:1:0:0:
264,121,167101,1,2,2:2:0:0:
269,223,167277,1,2,1:2:0:0:
353,74,167454,1,2,2:2:0:0:
455,237,167630,2,0,P|464:124|478:13,1,225,10|0,1:2|1:1,0:0:0:0:
281,76,168160,5,2,2:2:0:0:
331,241,168336,2,0,P|358:193|358:137,1,112.5,10|2,1:2|2:2,0:0:0:0:
213,2,168689,2,0,P|186:50|186:106,1,112.5,2|2,1:2|2:2,0:0:0:0:
273,317,169042,5,8,1:2:0:0:
195,328,169219,1,8,0:3:0:0:
116,339,169395,1,0,1:1:0:0:
37,350,169571,1,4,0:3:0:0:
151,112,169748,6,0,P|182:187|144:259,1,168.75,10|0,1:1|0:0,0:0:0:0:
143,259,170101,1,2,1:2:0:0:
58,97,170277,1,2,2:2:0:0:
266,239,170454,6,0,P|332:227|438:217,1,168.75,10|0,1:2|0:0,0:0:0:0:
433,217,170807,1,2,1:2:0:0:
223,132,170983,2,0,P|336:121|449:102,1,225,2|2,2:2|2:2,0:0:0:0:
321,23,171513,1,2,1:2:0:0:
166,231,171689,6,0,P|120:198|112:144,1,112.5,2|8,2:2|1:2,0:0:0:0:
321,23,172042,1,2,2:2:0:0:
223,132,172219,1,2,1:2:0:0:
117,54,172395,1,2,2:2:0:0:
29,91,172571,5,10,1:1:0:0:
134,208,172748,1,2,2:2:0:0:
204,13,172924,1,2,1:2:0:0:
204,13,173101,1,2,2:2:0:0:
299,112,173277,5,10,1:2:0:0:
117,54,173454,1,2,2:2:0:0:
229,224,173630,1,2,1:2:0:0:
229,224,173807,1,2,2:2:0:0:
388,85,173983,5,10,1:1:0:0:
211,140,174160,1,2,2:2:0:0:
329,315,174336,2,0,P|322:259|315:203,1,112.5,2|2,1:2|2:2,0:0:0:0:
119,160,174689,2,0,P|131:271|146:383,1,225,8|0,1:2|1:1,0:0:0:0:
228,259,175395,5,6,1:1:0:0:
256,192,197983,6,0,B|232:142|280:133|280:133|254:151|248:169|248:169|295:154|318:198|318:198|293:178|274:179|274:179|302:218|268:253|268:253|279:224|273:206|273:206|245:245|200:224|200:224|232:225|246:212|246:212|201:198|208:149|208:149|217:180|232:190|232:190|256:192,1,675.000000000002,4|2,2:1|2:2,0:0:0:0:
89,238,200807,5,6,1:2:0:0:
237,86,200983,1,2,2:2:0:0:
119,67,201160,1,2,1:2:0:0:
266,233,201336,1,2,2:2:0:0:
76,248,201513,5,10,1:2:0:0:
245,75,201689,1,2,2:2:0:0:
110,54,201866,1,2,1:2:0:0:
278,244,202042,1,2,2:2:0:0:
351,52,202219,5,2,1:1:0:0:
200,172,202395,1,10,2:1:0:0:
390,327,202571,2,0,P|444:284|449:216,1,140.625,2|0,1:2|0:0,0:0:0:0:
390,154,202924,2,0,P|334:143|277:137,1,112.5,10|0,1:1|0:0,0:0:0:0:
0,272,203277,2,0,P|106:311|199:247,1,225,2|0,1:2|1:1,0:0:0:0:
0,4,203983,5,2,1:2:0:0:
223,88,204160,1,2,2:2:0:0:
33,190,204336,2,0,P|38:134|48:78,1,112.5,10|2,1:2|2:2,0:0:0:0:
243,181,204689,5,2,1:2:0:0:
243,181,204866,1,2,2:2:0:0:
175,360,205042,2,0,P|153:256|137:133,2,225,0|0|8,1:1|1:1|1:2,0:0:0:0:
399,148,206101,5,2,1:2:0:0:
302,270,206277,1,2,2:2:0:0:
302,270,206366,1,2,2:2:0:0:
302,270,206454,2,0,P|283:219|301:167,1,112.5,2|2,1:1|2:2,0:0:0:0:
496,26,206807,2,0,P|515:77|497:129,2,112.5,2|2|8,1:2|2:2|1:2,0:0:0:0:
237,92,207513,5,2,1:2:0:0:
432,268,207689,1,2,2:2:0:0:
432,268,207777,1,2,2:2:0:0:
432,268,207866,2,0,P|366:275|312:282,1,112.5,2|10,1:1|2:1,0:0:0:0:
188,195,208219,2,0,P|254:188|308:181,2,112.5,2|2|8,1:2|2:2|1:2,0:0:0:0:
1,240,208748,5,2,2:2:0:0:
71,198,208924,1,2,1:2:0:0:
130,257,209101,1,2,2:2:0:0:
232,107,209277,5,2,1:1:0:0:
297,307,209454,1,2,2:2:0:0:
463,176,209630,2,0,P|407:168|351:162,1,112.5,2|2,1:2|2:2,0:0:0:0:
213,90,209983,5,10,1:2:0:0:
290,328,210160,1,2,2:2:0:0:
480,158,210336,2,0,P|424:150|368:144,1,112.5,2|2,1:2|2:2,0:0:0:0:
152,26,210689,5,2,1:1:0:0:
205,213,210866,1,10,2:1:0:0:
95,92,211042,1,2,1:2:0:0:
82,196,211219,1,2,2:2:0:0:
9,161,211395,2,0,P|119:137|229:116,1,225,8|0,1:2|1:1,0:0:0:0:
327,36,211924,1,2,2:2:0:0:
401,159,212101,5,6,1:1:0:0:
214,257,212277,1,2,2:2:0:0:
232,109,212454,1,2,1:2:0:0:
320,312,212630,1,2,2:2:0:0:
417,153,212807,5,10,1:2:0:0:
203,265,212983,1,2,2:2:0:0:
224,94,213160,1,2,1:2:0:0:
325,327,213336,1,2,2:2:0:0:
433,147,213513,5,2,1:1:0:0:
192,273,213689,1,10,2:1:0:0:
425,356,213866,2,0,P|419:304|407:245,1,112.5,2|2,1:2|2:2,0:0:0:0:
183,14,214219,2,0,P|168:97|157:180,1,168.75,10|0,1:1|0:0,0:0:0:0:
156,180,214571,1,2,1:2:0:0:
314,125,214748,1,2,2:2:0:0:
46,148,214924,6,0,P|33:202|55:252,1,112.5,0|0,1:1|0:0,0:0:0:0:
282,370,215277,2,0,P|301:288|268:212,1,168.75,2|0,1:2|0:0,0:0:0:0:
268,212,215630,1,10,1:1:0:0:
42,349,215807,1,0,0:0:0:0:
156,180,215983,2,0,P|148:235|145:291,1,112.5,2|2,1:2|2:2,0:0:0:0:
355,365,216336,2,0,P|370:253|376:141,2,225,0|0|8,1:1|1:1|1:2,0:0:0:0:
47,193,217395,5,2,1:2:0:0:
0,47,217571,1,2,2:2:0:0:
0,47,217660,1,2,2:2:0:0:
0,47,217748,2,0,P|51:28|103:46,1,112.5,2|2,1:1|2:2,0:0:0:0:
279,170,218101,2,0,P|228:189|176:171,2,112.5,2|2|8,1:2|2:2|1:2,0:0:0:0:
494,24,218807,5,2,1:2:0:0:
430,265,218983,1,2,2:2:0:0:
430,265,219071,1,2,2:2:0:0:
430,265,219160,2,0,P|422:209|417:153,1,112.5,2|10,1:1|2:1,0:0:0:0:
278,21,219513,2,0,P|285:76|290:132,2,112.5,2|2|12,1:2|2:2|1:2,0:0:0:0:
202,253,220219,6,0,P|152:278|96:274,1,112.5,2|2,1:2|2:2,0:0:0:0:
131,173,220571,1,2,1:1:0:0:
131,173,220748,1,2,2:2:0:0:
26,343,220924,2,0,P|0:293|4:237,1,112.5,2|0,1:2|0:0,0:0:0:0:
104,74,221277,5,14,1:2:0:0:
202,253,221454,1,2,2:2:0:0:
283,127,221630,2,0,P|351:116|423:107,1,140.625,2|0,1:2|0:0,0:0:0:0:
488,163,221983,6,0,B|503:267|387:258|398:355,1,225.000000000001,6|4,1:1|2:3,0:0:0:0:
399,275,223395,6,0,P|353:290|309:268,1,101.25,6|0,1:1|0:0,0:0:0:0:
193,115,223748,1,0,0:0:0:0:
362,185,223924,1,2,2:2:0:0:
212,301,224101,2,0,P|111:285|11:274,1,202.5,10|2,1:2|2:2,0:0:0:0:
91,380,224630,1,2,2:2:0:0:
226,205,224807,2,0,P|125:189|25:178,1,202.5,2|2,1:2|2:2,0:0:0:0:
105,284,225336,1,2,2:2:0:0:
248,109,225513,5,10,1:2:0:0:
152,134,225689,1,2,2:2:0:0:
308,274,225866,2,0,P|314:224|322:174,1,101.25,2|0,2:2|0:0,0:0:0:0:
381,26,226219,6,0,P|478:51|492:145,1,202.5,2|0,1:2|0:0,0:0:0:0:
281,243,226748,1,0,0:0:0:0:
281,243,226924,2,0,P|378:218|392:124,1,202.5,10|0,1:2|0:0,0:0:0:0:
206,96,227454,1,0,0:0:0:0:
206,96,227630,2,0,P|253:88|306:82,1,101.25,2|8,1:2|2:1,0:0:0:0:
512,172,227983,2,0,P|434:231|338:210,1,202.5,8|10,2:1|1:2,0:0:0:0:
102,7,228689,5,2,2:2:0:0:
268,143,228866,1,2,2:2:0:0:
10,162,229042,1,2,1:1:0:0:
226,27,229219,1,2,2:2:0:0:
118,275,229395,2,0,P|113:225|104:163,1,112.5,2|0,2:2|0:0,0:0:0:0:
305,268,229748,1,10,1:2:0:0:
218,332,229924,2,0,P|214:283|207:218,1,112.5,2|0,2:2|0:0,0:0:0:0:
99,20,230277,5,2,2:2:0:0:
268,143,230454,2,0,P|349:137|398:72,1,168.75,2|0,1:1|0:0,0:0:0:0:
398,70,230807,1,2,2:2:0:0:
223,0,230983,1,2,2:2:0:0:
174,181,231160,1,10,1:2:0:0:
301,55,231336,1,2,2:2:0:0:
98,123,231513,2,0,P|79:71|98:19,1,112.5,2|0,2:2|0:0,0:0:0:0:
268,143,231866,6,0,P|256:254|251:367,1,225,2|0,1:1|0:0,0:0:0:0:
363,149,232395,1,0,0:0:0:0:
363,149,232571,2,0,P|351:261|347:374,1,225,10|0,1:2|0:0,0:0:0:0:
451,93,233101,1,0,0:0:0:0:
451,93,233277,6,0,P|382:47|302:67,1,168.75,2|8,1:2|2:1,0:0:0:0:
236,123,233630,2,0,P|184:104|166:53,1,112.5
3,285,233983,6,0,P|71:239|151:259,1,168.75,12|0,1:2|0:0,0:0:0:0:
218,315,234336,2,0,P|269:296|287:245,1,112.5
215,94,234689,5,6,1:2:0:0:
378,235,234866,1,2,2:2:0:0:
441,46,235042,2,0,P|390:42|339:40,1,101.25,2|2,2:2|2:2,0:0:0:0:
198,90,235395,5,10,1:2:0:0:
382,249,235571,1,2,2:2:0:0:
453,35,235748,2,0,P|402:32|352:29,1,101.25,2|10,2:2|2:1,0:0:0:0:
181,86,236101,5,2,1:1:0:0:
386,263,236277,1,10,2:1:0:0:
218,315,236454,2,0,P|222:272|233:206,1,101.25,2|2,2:2|2:2,0:0:0:0:
25,145,236807,5,10,1:2:0:0:
231,214,236983,1,0,0:0:0:0:
100,336,237160,2,0,P|96:285|89:235,1,101.25,2|0,2:2|0:0,0:0:0:0:
32,44,237513,6,0,P|128:20|215:66,1,202.5,2|0,1:1|0:0,0:0:0:0:
338,13,238042,1,0,0:0:0:0:
131,162,238219,2,0,P|227:185|314:139,1,202.5,10|0,1:2|0:0,0:0:0:0:
338,13,238748,1,0,0:0:0:0:
364,267,238924,2,0,P|432:195|436:96,1,202.5,2|0,1:2|0:0,0:0:0:0:
338,13,239454,1,0,0:0:0:0:
220,115,239630,2,0,P|265:139|315:138,1,101.25,10|0,1:2|0:0,0:0:0:0:
90,1,239983,5,2,2:2:0:0:
204,225,240160,1,2,2:2:0:0:
234,21,240336,1,2,1:1:0:0:
3,122,240513,1,2,2:2:0:0:
3,122,240601,1,2,2:2:0:0:
3,122,240689,2,0,P|2:224|102:274,1,225,2|8,2:2|1:2,0:0:0:0:
389,171,241395,5,2,2:2:0:0:
210,340,241571,1,10,2:1:0:0:
140,154,241748,1,2,1:1:0:0:
370,294,241924,1,10,2:1:0:0:
370,294,242013,1,10,2:1:0:0:
370,294,242101,2,0,P|276:237|268:123,2,225,2|8|0,2:2|1:2|0:0,0:0:0:0:
508,36,243160,6,0,P|495:95|490:154,1,112.5,2|0,1:2|0:0,0:0:0:0:
377,337,243513,2,0,P|371:278|359:219,1,112.500004291535,0|2,0:0|2:2,0:0:0:0:
391,31,243866,2,0,P|325:114|210:101,1,225,10|0,1:2|0:0,0:0:0:0:
105,33,244395,1,2,2:2:0:0:
0,190,244571,5,2,1:2:0:0:
11,215,244660,1,0,0:0:0:0:
27,238,244748,1,8,2:1:0:0:
49,256,244836,1,8,2:1:0:0:
73,269,244924,1,8,2:2:0:0:
100,277,245013,1,8,2:1:0:0:
128,278,245101,1,8,2:1:0:0:
156,273,245189,1,8,2:1:0:0:
182,261,245277,6,0,L|176:192,1,56.25,10|8,1:2|2:1,0:0:0:0:
100,70,245454,2,0,L|94:139,1,56.25,8|8,2:1|2:1,0:0:0:0:
283,220,245630,1,10,2:2:0:0:
337,212,245719,1,8,2:2:0:0:
378,174,245807,1,8,2:2:0:0:
392,120,245895,1,8,2:2:0:0:
373,67,245983,5,6,1:1:0:0:
177,204,246160,1,2,2:2:0:0:
269,49,246336,1,2,1:2:0:0:
306,254,246513,1,2,2:2:0:0:
383,55,246689,5,10,1:2:0:0:
162,210,246866,1,2,2:2:0:0:
267,34,247042,1,2,1:2:0:0:
310,273,247219,1,10,2:1:0:0:
393,43,247395,5,2,1:2:0:0:
147,216,247571,1,2,2:2:0:0:
265,19,247748,1,2,1:2:0:0:
314,292,247924,1,2,2:2:0:0:
222,135,248101,5,10,1:1:0:0:
160,326,248277,1,2,2:2:0:0:
119,83,248454,1,2,1:2:0:0:
313,292,248630,2,0,P|350:187|321:80,1,225.000008583069,2|0,2:2|0:0,0:0:0:0:
190,225,249160,5,2,1:2:0:0:
23,130,249336,1,2,2:2:0:0:
148,319,249513,2,0,P|202:330|252:308,1,112.5,10|2,1:2|2:2,0:0:0:0:
273,85,249866,1,2,1:2:0:0:
138,148,250042,1,2,2:2:0:0:
190,225,250219,2,0,P|175:116|154:2,2,225,0|0|8,1:1|1:1|1:2,0:0:0:0:
485,112,251277,5,2,1:2:0:0:
314,40,251454,1,2,2:2:0:0:
314,40,251542,1,2,2:2:0:0:
314,40,251630,2,0,P|290:90|304:143,1,112.5,2|0,1:1|0:0,0:0:0:0:
433,302,251983,1,2,1:2:0:0:
244,221,252160,1,2,2:2:0:0:
390,96,252336,1,8,1:2:0:0:
202,362,252689,5,2,1:2:0:0:
26,204,252866,1,10,2:1:0:0:
26,204,252954,1,8,2:1:0:0:
26,204,253042,2,0,P|80:194|143:186,1,112.5,2|10,1:1|2:1,0:0:0:0:
335,238,253395,2,0,P|281:248|218:256,1,112.5,2|2,1:2|2:2,0:0:0:0:
95,42,253748,2,0,P|202:43|241:142,1,225,12|0,1:2|1:1,0:0:0:0:
134,344,254277,5,2,2:2:0:0:
0,193,254454,2,0,P|76:166|148:205,1,168.75,2|0,1:1|0:0,0:0:0:0:
154,215,254807,2,0,P|225:253|303:226,1,168.75,2|0,1:2|0:0,0:0:0:0:
357,152,255160,2,0,L|342:40,1,112.5,10|0,1:2|0:0,0:0:0:0:
454,118,255513,5,2,1:2:0:0:
255,39,255689,1,2,2:2:0:0:
303,225,255866,2,0,P|238:288|108:288,1,225,6|0,1:2|1:1,0:0:0:0:
0,78,256571,6,0,P|66:98|140:35,1,168.75,10|0,1:2|0:0,0:0:0:0:
140,32,256924,2,0,P|154:99|245:133,1,168.75,2|0,1:2|0:0,0:0:0:0:
225,49,257277,5,6,1:1:0:0:
97,204,257454,1,2,2:2:0:0:
241,256,257630,1,2,1:2:0:0:
138,107,257807,1,2,2:2:0:0:
220,27,257983,5,10,1:2:0:0:
73,205,258160,1,2,2:2:0:0:
245,275,258336,1,2,1:2:0:0:
128,100,258513,1,10,2:1:0:0:
215,6,258689,5,2,1:1:0:0:
49,207,258866,1,10,2:1:0:0:
249,295,259042,1,2,1:2:0:0:
118,94,259219,1,2,2:2:0:0:
381,172,259395,5,10,1:1:0:0:
149,241,259571,1,2,2:2:0:0:
415,264,259748,1,2,1:2:0:0:
237,187,259924,1,2,2:2:0:0:
404,362,260101,6,0,P|482:339|512:263,1,168.75,4|0,1:2|0:0,0:0:0:0:
511,262,260454,1,2,1:2:0:0:
382,118,260630,1,10,1:1:0:0:
382,118,260719,1,10,1:1:0:0:
382,118,260807,2,0,P|388:175|392:235,1,112.5,10|0,1:1|0:0,0:0:0:0:
503,147,261160,1,2,1:2:0:0:
290,35,261336,1,2,2:2:0:0:
184,117,261513,2,0,P|74:109|7:24,2,225,0|0|8,1:1|1:1|1:2,0:0:0:0:
482,47,262571,5,2,1:2:0:0:
426,259,262748,1,2,2:2:0:0:
426,259,262836,1,2,2:2:0:0:
426,259,262924,2,0,P|422:213|411:147,1,112.5,2|0,1:1|0:0,0:0:0:0:
231,0,263277,1,2,1:2:0:0:
316,199,263454,1,2,2:2:0:0:
350,65,263630,1,8,1:2:0:0:
46,10,263983,5,2,1:2:0:0:
255,110,264160,1,2,2:2:0:0:
255,110,264248,1,2,2:2:0:0:
255,110,264336,2,0,P|205:134|149:130,1,112.5,2|2,1:1|2:2,0:0:0:0:
185,0,264689,1,2,1:2:0:0:
12,152,264866,2,0,P|31:275|42:374,1,225,2|2,2:2|2:2,0:0:0:0:
129,253,265395,1,2,1:2:0:0:
129,253,265571,1,2,2:2:0:0:
259,321,265748,5,2,1:1:0:0:
232,154,265924,1,2,2:2:0:0:
427,253,266101,2,0,P|372:241|316:231,1,112.5,2|2,1:2|2:2,0:0:0:0:
121,176,266454,6,0,P|175:164|231:154,1,112.5,10|2,1:2|2:2,0:0:0:0:
351,37,266807,1,2,1:2:0:0:
147,2,266983,1,2,2:2:0:0:
373,150,267160,5,6,1:1:0:0:
232,294,267336,1,10,2:1:0:0:
217,268,267424,1,8,2:1:0:0:
223,239,267513,1,10,1:1:0:0:
481,213,267689,5,10,2:1:0:0:
481,213,267777,1,8,2:1:0:0:
481,213,267866,5,8,1:2:0:0:
484,247,267954,1,8,2:2:0:0:
478,283,268042,1,8,2:2:0:0:
462,316,268130,1,8,2:2:0:0:
439,343,268219,1,8,1:2:0:0:
408,362,268307,1,8,2:2:0:0:
374,373,268395,1,8,2:2:0:0:
338,373,268483,1,8,2:2:0:0:
303,365,268572,6,0,P|308:305|315:245,1,120,6|0,1:2|0:0,0:0:0:0:
373,105,269115,1,2,2:2:0:0:
373,105,269297,2,0,P|318:130|263:153,1,120,2|0,2:1|0:0,0:0:0:0:
113,175,269840,1,2,2:2:0:0:
113,175,270022,2,0,P|162:209|209:245,1,120,2|0,2:1|0:0,0:0:0:0:
472,365,270727,6,0,P|486:338|485:309,2,60,2|2|2,2:2|2:2|2:2,0:0:0:0:
390,318,271257,1,2,2:2:0:0:
390,318,271433,2,0,P|334:305|313:251,1,120,2|0,2:1|0:0,0:0:0:0:
422,126,271963,1,2,2:2:0:0:
422,126,272139,2,0,P|438:180|402:226,1,120,2|0,2:1|0:0,0:0:0:0:
240,195,272669,1,2,2:2:0:0:
240,195,272845,2,0,P|279:153|336:161,1,120,2|0,2:1|0:0,0:0:0:0:
228,23,273551,5,2,2:2:0:0:
188,45,273727,1,2,2:2:0:0:
148,67,273904,1,2,2:2:0:0:
108,89,274080,1,2,2:2:0:0:
28,84,274257,6,0,P|15:141|48:189,1,120,2|0,2:1|0:0,0:0:0:0:
36,336,274963,2,0,P|94:339|136:298,1,120,2|0,2:1|0:0,0:0:0:0:
323,185,275669,6,0,P|329:125|337:66,1,120,2|0,2:1|0:0,0:0:0:0:
180,46,276374,2,0,P|174:106|166:165,1,120,2|2,2:2|2:2,0:0:0:0:
324,347,277080,6,0,P|438:349|494:249,2,240,2|2|2,2:1|2:2|2:2,0:0:0:0:
109,235,279198,1,2,2:1:0:0:
256,192,279904,1,2,2:1:0:0:
256,192,280080,12,0,284492,0:0:0:0:
