osu file format v14

[General]
AudioFilename: audio.mp3
AudioLeadIn: 0
PreviewTime: -1
Countdown: 1
SampleSet: Normal
StackLeniency: 0.7
Mode: 0
LetterboxInBreaks: 0
WidescreenStoryboard: 0

[Editor]
DistanceSpacing: 1
BeatDivisor: 8
GridSize: 16
TimelineZoom: 1

[Metadata]
Title:Whoopsy Daisy
TitleUnicode:Whoopsy Daisy
Artist:Wolfgang Lohr & Balduin
ArtistUnicode:Wolfgang Lohr & Balduin
Creator:LtLi0n
Version:Whoopsy
Source:
Tags:
BeatmapID:1579950
BeatmapSetID:750227

[Difficulty]
HPDrainRate:6
CircleSize:4
OverallDifficulty:8
ApproachRate:9
SliderMultiplier:1.4
SliderTickRate:1

[Events]
//Background and Video events
0,0,"anime_girl_lying_sun_petals_28451_1600x1200.jpg",0,0
//Break Periods
//Storyboard Layer 0 (Background)
//Storyboard Layer 1 (Fail)
//Storyboard Layer 2 (Pass)
//Storyboard Layer 3 (Foreground)
//Storyboard Layer 4 (Overlay)
//Storyboard Sound Samples

[TimingPoints]
135,487.80487804878,4,1,0,100,1,0
3798,-66.6666666666667,4,1,0,100,0,0
4142,-50,4,1,0,100,0,0
23554,-66.6666666666667,4,1,0,100,0,0
37700,-50,4,1,0,100,0,0
68310,-66.6666666666667,4,1,0,100,0,0
86476,-50,4,1,0,100,0,0

[HitObjects]
161,41,135,6,0,L|144:116,1,70
63,113,622,2,0,L|86:186,1,70
159,178,1110,6,0,L|142:253,1,70
224,109,1598,1,2,0:0:0:0:
143,246,1842,1,2,0:0:0:0:
141,383,2086,6,0,L|158:308,1,70
239,311,2573,2,0,L|216:238,1,70
143,246,3061,6,0,L|160:171,1,70
70,318,3549,1,2,0:0:0:0:
187,130,3793,1,2,0:0:0:0:
101,44,4037,6,0,P|74:91|77:178,1,105.000004005432
70,160,4403,1,0,0:0:0:0:
76,177,4525,2,0,P|99:247|85:334,1,140
90,329,4891,1,0,0:0:0:0:
97,343,5013,2,0,P|170:379|251:365,1,140
239,370,5378,1,0,0:0:0:0:
256,360,5500,2,0,P|351:323|434:353,1,140
399,335,5866,1,0,0:0:0:0:
508,226,5988,6,0,L|465:166,1,70
348,159,6232,2,0,L|391:219,1,70
368,327,6476,6,0,L|325:267,1,70
208,260,6720,2,0,L|251:320,1,70
417,247,6964,5,0,0:0:0:0:
414,222,7086,1,0,0:0:0:0:
404,201,7208,1,0,0:0:0:0:
389,182,7330,1,0,0:0:0:0:
372,164,7452,1,0,0:0:0:0:
357,149,7574,1,0,0:0:0:0:
348,133,7695,2,0,P|341:109|362:33,1,70
512,263,7939,6,8,B|417:316|417:316|246:276,1,280
69,221,8671,1,0,0:0:0:0:
498,20,9159,6,0,B|444:69,1,70
278,126,9525,6,0,B|332:77,1,70
43,206,9891,6,8,B|107:301|107:301|296:291,1,280
405,113,10622,6,0,B|407:86|407:86|393:77|393:77|403:63|403:63|394:39,1,70
281,0,10866,2,0,B|275:65|275:65|286:64|286:64|280:83|280:83|326:135,1,140
360,222,11232,2,0,B|345:259|345:259|324:277|324:277|322:290|322:290|321:306|321:306|316:318|316:318|291:328|291:328|277:337|277:337|273:356|273:356|237:398,1,210
78,291,11842,6,8,B|46:220|46:220|60:100,1,140
87,15,12329,1,0,0:0:0:0:
136,166,12574,1,0,0:0:0:0:
265,259,12817,1,0,0:0:0:0:
233,40,13061,6,0,B|262:104|262:104|286:149,1,93.3333333333333
370,234,13427,2,0,L|393:163,1,70
62,0,13793,6,0,B|56:80|56:80|149:151,1,140
188,168,14281,1,0,0:0:0:0:
250,17,14525,1,0,0:0:0:0:
285,194,14769,2,0,L|321:367,1,140
421,241,15134,5,0,0:0:0:0:
421,241,15256,2,0,B|425:239|405:173,1,70
339,127,15500,5,0,0:0:0:0:
333,175,15622,1,0,0:0:0:0:
328,215,15744,2,0,B|304:287|304:287|154:331,1,210
0,342,16232,1,0,0:0:0:0:
125,241,16476,1,0,0:0:0:0:
42,124,16720,2,0,L|19:90,5,35
42,140,17086,2,0,B|24:217|24:217|57:310|57:310|106:335,1,210
242,139,17695,1,0,0:0:0:0:
374,285,17939,1,0,0:0:0:0:
374,285,18061,1,0,0:0:0:0:
298,163,18427,5,0,0:0:0:0:
298,163,18549,1,0,0:0:0:0:
298,163,18671,2,0,B|305:228|305:228|290:236|290:236|317:308,1,140
392,32,19037,2,0,B|386:54|386:54|414:85|414:85|397:109|397:109|410:148|410:148|400:270,1,210
249,285,19647,6,0,B|212:199|212:199|111:166,1,140
269,59,20134,2,0,P|329:88|387:165,1,140
215,191,20622,2,0,L|169:196,5,35
239,195,20988,2,0,B|320:209|320:209|353:159|353:159|424:162,1,210
45,266,21598,6,0,P|115:310|201:332,1,140
333,328,21964,2,0,P|355:278|348:117,1,210
226,227,22574,2,0,B|219:292|219:292|234:300|234:300|207:372,1,140
362,72,23061,2,0,B|369:137|369:137|354:145|354:145|381:217,1,140
372,105,23793,6,0,P|348:171|315:204,1,105.000004005432
304,63,24525,1,0,0:0:0:0:
227,147,24769,1,0,0:0:0:0:
230,263,25013,2,0,L|292:256,2,52.5000020027161
345,126,26232,5,0,0:0:0:0:
252,246,26476,2,0,P|242:192|252:134,1,105.000004005432
273,31,26964,1,0,0:0:0:0:
311,233,27208,2,0,P|321:287|311:345,1,105.000004005432
310,142,28183,5,0,0:0:0:0:
310,142,28427,2,0,P|336:184|352:266,1,105.000004005432
377,372,28793,1,0,0:0:0:0:
222,231,29159,1,0,0:0:0:0:
153,43,29403,6,0,B|260:60|260:60|353:114,1,210.000008010865
119,255,30134,1,0,0:0:0:0:
119,255,30378,2,0,P|230:249|343:325,1,210.000008010865
396,354,31110,2,0,L|447:243,1,105.000004005432
176,173,31598,5,0,0:0:0:0:
176,173,31842,2,0,P|166:111|180:27,1,105.000004005432
249,327,32330,2,0,P|184:334|105:279,1,157.500006008148
130,61,33061,2,0,P|236:43|337:94,1,210.000008010865
62,275,34159,5,0,0:0:0:0:
62,275,34281,1,0,0:0:0:0:
235,361,34525,1,0,0:0:0:0:
206,244,34769,1,0,0:0:0:0:
154,150,35013,2,0,P|106:96|39:63,1,105.000004005432
244,228,35988,1,0,0:0:0:0:
308,147,36232,6,0,B|242:120|216:127|238:155|206:153|178:130|166:152|172:139,1,105.000004005432
205,239,36598,2,0,B|271:266|297:259|275:231|307:233|335:256|347:234|341:247,1,105.000004005432
252,175,36964,2,0,B|269:85|242:33|272:120|310:119|181:64|189:70|281:34,1,210.000008010865
443,21,37695,1,0,0:0:0:0:
345,321,37939,1,0,0:0:0:0:
239,187,38183,2,0,B|306:185|306:185|383:141,1,140
252,63,38549,1,0,0:0:0:0:
252,63,38671,2,0,B|193:49|193:49|124:116,1,140
387,207,39037,5,0,0:0:0:0:
387,207,39159,2,0,P|393:118|367:47,1,140
330,19,39525,1,0,0:0:0:0:
268,62,39647,1,0,0:0:0:0:
281,138,39769,1,0,0:0:0:0:
246,202,39891,1,0,0:0:0:0:
44,255,40134,6,0,B|58:335|58:335|105:411,1,140
288,57,40866,2,0,P|396:72|439:235,1,280
70,262,41598,2,0,P|65:349|121:388,1,140
402,89,42086,2,0,P|445:171|440:232,1,140
252,27,42574,5,0,0:0:0:0:
167,215,42817,1,0,0:0:0:0:
344,328,43061,1,0,0:0:0:0:
198,235,43549,6,0,L|198:350,2,70
69,115,44037,2,0,L|214:101,1,140
319,144,44403,1,0,0:0:0:0:
319,144,44525,2,0,B|345:154|361:149|349:169|357:198|381:219|434:242,1,140
120,326,45013,2,0,L|130:151,1,140
218,87,45378,1,0,0:0:0:0:
218,87,45500,2,0,L|334:187,1,140
426,276,45866,1,0,0:0:0:0:
426,276,45988,6,0,B|421:195|421:195|380:146,1,140
283,164,46354,1,0,0:0:0:0:
273,206,46476,1,0,0:0:0:0:
272,247,46598,1,0,0:0:0:0:
268,280,46720,2,0,L|253:358,1,70
92,328,46964,5,0,0:0:0:0:
92,328,47208,2,0,B|118:233|118:233|80:176|80:176|90:142|90:142|34:64,1,280
284,125,47939,5,0,0:0:0:0:
220,229,48183,1,0,0:0:0:0:
205,71,48427,1,0,0:0:0:0:
296,253,48671,1,0,0:0:0:0:
341,40,48915,1,0,0:0:0:0:
163,301,49159,1,0,0:0:0:0:
426,162,49403,1,0,0:0:0:0:
426,162,49525,1,0,0:0:0:0:
426,162,49647,1,0,0:0:0:0:
143,58,49891,6,0,B|156:113|156:113|152:133|152:133|110:211,1,140
401,165,50378,1,0,0:0:0:0:
203,289,50622,1,0,0:0:0:0:
288,72,50866,1,0,0:0:0:0:
448,164,51232,2,0,L|334:106,1,70
427,51,51476,2,0,L|339:14,1,70
175,326,51842,6,0,P|136:221|154:150,1,140
138,195,52208,2,0,P|178:133|147:56,1,140
394,306,52574,2,0,B|276:240|220:243|112:318,2,280
413,221,53671,5,0,0:0:0:0:
376,203,53793,1,0,0:0:0:0:
329,191,53915,1,0,0:0:0:0:
278,196,54037,1,0,0:0:0:0:
232,217,54159,1,0,0:0:0:0:
236,303,54281,1,0,0:0:0:0:
193,334,54403,1,0,0:0:0:0:
152,300,54525,1,0,0:0:0:0:
159,247,54647,1,0,0:0:0:0:
235,96,54769,6,0,P|249:180|189:268,1,140
113,120,55256,1,0,0:0:0:0:
113,120,55378,2,0,L|81:213,1,70
280,91,55744,2,0,P|262:189|213:250,1,140
186,292,56110,1,0,0:0:0:0:
130,48,56476,1,0,0:0:0:0:
250,91,56964,6,0,P|197:182|190:280,1,140
180,353,57330,1,0,0:0:0:0:
330,184,57574,1,0,0:0:0:0:
330,184,57695,1,0,0:0:0:0:
251,354,57939,1,0,0:0:0:0:
251,354,58061,1,0,0:0:0:0:
184,36,58305,1,0,0:0:0:0:
184,36,58427,1,0,0:0:0:0:
145,129,58915,6,0,P|125:244|150:320,1,140
145,129,59281,1,0,0:0:0:0:
301,32,59525,1,0,0:0:0:0:
301,32,59647,2,0,P|318:82|281:186,1,140
243,273,60013,1,0,0:0:0:0:
190,43,60378,1,0,0:0:0:0:
154,84,60866,6,0,P|138:193|101:265,1,140
154,84,61232,1,0,0:0:0:0:
345,166,61476,1,0,0:0:0:0:
345,166,61598,2,0,P|355:73|400:21,1,140
445,222,61964,1,0,0:0:0:0:
506,4,62330,1,0,0:0:0:0:
75,86,62574,6,0,P|63:161|74:245,1,140
252,141,63061,2,0,L|235:218,1,70
165,362,63427,5,0,0:0:0:0:
182,339,63549,1,0,0:0:0:0:
361,248,63793,1,0,0:0:0:0:
348,223,63915,1,0,0:0:0:0:
189,71,64159,1,0,0:0:0:0:
205,42,64281,1,0,0:0:0:0:
431,349,64525,6,0,P|448:284|427:163,1,140
287,170,65013,2,0,L|321:96,1,70
360,14,65378,5,0,0:0:0:0:
371,41,65500,1,0,0:0:0:0:
416,155,65744,5,0,0:0:0:0:
426,186,65865,1,0,0:0:0:0:
477,371,66109,5,0,0:0:0:0:
464,341,66231,1,0,0:0:0:0:
174,89,66476,6,0,P|159:163|175:247,1,140
271,24,66964,1,0,0:0:0:0:
285,50,67086,1,0,0:0:0:0:
357,223,67330,1,0,0:0:0:0:
367,201,67452,1,0,0:0:0:0:
431,39,67695,2,0,L|392:125,1,70
242,281,68061,2,0,L|281:195,1,70
340,106,68427,6,0,P|330:193|345:240,1,105.000004005432
215,152,68915,2,0,L|181:243,1,52.5000020027161
298,222,69281,2,0,L|326:162,1,52.5000020027161
304,50,69647,2,0,L|262:80,4,52.5000020027161
255,176,70378,6,0,P|242:232|195:254,1,105.000004005432
255,173,70866,2,0,P|262:113|311:93,1,105.000004005432
255,176,71354,6,0,P|242:232|195:254,1,105.000004005432
250,337,71842,1,0,0:0:0:0:
248,67,72086,1,0,0:0:0:0:
255,203,72330,1,0,0:0:0:0:
403,236,72574,5,0,0:0:0:0:
403,236,72817,2,0,P|405:154|365:120,1,105.000004005432
191,139,73305,2,0,P|221:188|207:267,1,105.000004005432
209,355,73793,1,0,0:0:0:0:
118,187,74037,2,0,L|121:272,1,52.5000020027161
336,137,74525,6,0,P|340:235|330:286,1,105.000004005432
145,59,75013,5,0,0:0:0:0:
149,139,75256,2,0,B|149:179|123:194|139:205|113:270,1,105.000004005432
128,312,75622,2,0,B|177:306|172:339|217:330|232:319,1,105.000004005432
328,148,75988,2,0,B|360:237|385:261|416:251|344:249|319:240|338:280|404:350,1,210.000008010865
198,267,76720,1,0,0:0:0:0:
148,120,76964,5,0,0:0:0:0:
292,297,77208,2,0,L|347:205,1,105.000004005432
260,189,77574,2,0,B|288:106|288:106|267:33,1,157.500006008148
351,349,78183,5,0,0:0:0:0:
297,267,78427,2,0,L|272:203,1,52.5000020027161
401,207,78671,2,0,L|434:142,1,52.5000020027161
241,113,78915,2,0,L|213:7,1,105.000004005432
11,368,79403,1,0,0:0:0:0:
82,165,79647,1,0,0:0:0:0:
288,369,79891,1,0,0:0:0:0:
502,0,80134,1,0,0:0:0:0:
334,300,80866,5,0,0:0:0:0:
219,189,81110,2,0,L|140:102,1,105.000004005432
294,53,81598,1,0,0:0:0:0:
143,246,81842,2,0,L|217:343,1,105.000004005432
394,107,82330,2,0,L|345:219,1,105.000004005432
165,321,82817,5,0,0:0:0:0:
234,179,83061,2,0,L|171:88,1,105.000004005432
354,79,83549,2,0,L|328:197,1,105.000004005432
289,350,83915,1,0,0:0:0:0:
59,46,84281,5,0,0:0:0:0:
59,179,84525,2,0,P|75:233|127:258,1,105.000004005432
256,190,85013,6,0,B|357:174|347:114|321:55|416:50,1,210.000008010865
256,194,85744,2,0,B|155:210|165:270|191:329|96:334,1,210.000008010865
173,72,86476,6,0,B|173:158|173:158|136:217,1,140
0,310,86842,2,0,L|74:289,1,70
212,102,87086,2,0,L|154:246,1,140
65,348,87452,2,0,B|115:389|115:389|210:298,1,140
43,200,87817,1,0,0:0:0:0:
43,200,87939,6,0,P|104:171|175:193,1,140
277,246,88305,1,0,0:0:0:0:
348,210,88427,1,0,0:0:0:0:
374,136,88549,1,0,0:0:0:0:
357,58,88671,1,0,0:0:0:0:
148,51,88915,6,0,B|176:103|176:103|166:196,1,140
400,353,89647,2,0,P|322:303|130:328,1,280
79,174,90378,2,0,P|185:139|270:155,1,140
472,75,90866,2,0,P|398:58|315:73,1,140
421,297,91354,1,0,0:0:0:0:
375,75,91598,1,0,0:0:0:0:
104,174,91842,1,0,0:0:0:0:
364,199,92330,6,0,L|408:105,2,70
298,303,92817,1,0,0:0:0:0:
142,88,93061,6,0,L|99:235,1,140
102,222,93427,2,0,L|224:295,1,140
222,294,93793,2,0,B|283:191|232:111|316:35|413:139|413:139|287:191|345:319|344:319,2,560
251,337,95988,2,0,L|343:59,1,280
281,380,96720,5,0,0:0:0:0:
196,6,96964,1,0,0:0:0:0:
311,382,97208,1,0,0:0:0:0:
399,1,97452,1,0,0:0:0:0:
268,383,97695,1,0,0:0:0:0:
118,4,97939,1,0,0:0:0:0:
191,204,98183,2,0,B|285:172|181:207,2,70
400,82,98671,6,0,L|397:246,1,140
296,78,99159,1,0,0:0:0:0:
400,82,99403,2,0,L|393:244,1,140
267,149,100013,6,0,L|213:76,1,70
184,265,100256,2,0,L|115:193,1,70
387,74,100622,6,0,P|433:225|413:328,1,210
256,192,101232,12,0,103061,0:0:0:0:
