osu file format v14

[General]
AudioFilename: audio.mp3
AudioLeadIn: 0
PreviewTime: 42284
Countdown: 1
SampleSet: Soft
StackLeniency: 0.2
Mode: 0
LetterboxInBreaks: 0
WidescreenStoryboard: 1

[Editor]
DistanceSpacing: 0.8
BeatDivisor: 4
GridSize: 8
TimelineZoom: 1.7

[Metadata]
Title:Ah vous dirai-je, Maman
TitleUnicode:Twelve Variations on “Ah vous dirai-je, Maman"
Artist:Wolfgang Amadeus Mozart
ArtistUnicode:Wolfgang Amadeus Mozart
Creator:imm0rt47
Version:Variation 3
Source:
Tags:
BeatmapID:1882587
BeatmapSetID:888266

[Difficulty]
HPDrainRate:6
CircleSize:4
OverallDifficulty:6
ApproachRate:8
SliderMultiplier:1.4
SliderTickRate:1

[Events]
//Background and Video events
0,0,"866bc5e4fa554b3eceeb33f3221310ba.jpg",0,0
//Break Periods
//Storyboard Layer 0 (Background)
//Storyboard Layer 1 (Fail)
//Storyboard Layer 2 (Pass)
//Storyboard Layer 3 (Foreground)
//Storyboard Sound Samples

[TimingPoints]
34516.6508501245,476.190476190476,4,2,0,30,1,0
37611,-100,4,2,0,20,0,0
38564,-100,4,2,0,15,0,0
39516,-100,4,2,0,20,0,0
40227,500,4,2,0,40,1,0
41227,-100,4,2,0,20,0,0
42284,476.190476190476,4,2,0,30,1,0
45379,-100,4,2,0,20,0,0
46331,-100,4,2,0,15,0,0
47284,-100,4,2,0,10,0,0
47998,521.739130434783,4,2,0,20,1,0
49563,-100,4,2,0,10,0,0
50177,483.870967741935,4,2,0,20,1,0
51144,-100,4,2,0,25,0,0
52112,-100,4,2,0,30,0,0
52847,535.714285714286,4,2,0,20,1,0
53120,465.116279069767,4,2,0,20,1,0
53709,517.241379310345,4,2,0,15,1,0
54174,480,4,2,0,25,1,0
54654,-100,4,2,0,30,0,0
55152,512.820512820513,4,2,0,20,1,0
55664,-100,4,2,0,25,0,0
56177,483.870967741935,4,2,0,15,1,0
56660,-100,4,2,0,20,0,0
57168,588.235294117647,4,2,0,25,1,0
57168,-133.333333333333,4,2,0,25,0,0
57756,594.059405940594,4,2,0,15,1,0
57756,-200,4,2,0,15,0,0
58201,-200,4,2,0,5,0,0
58350,491.803278688525,4,2,0,30,1,0
59333,-100,4,2,0,35,0,0
60317,-100,4,2,0,25,0,0
60809,-100,4,2,0,30,0,0
61300,-100,4,2,0,20,0,0
61546,-100,4,2,0,35,0,0
62530,-100,4,2,0,30,0,0
63135,491.803278688525,4,2,0,30,1,0
63243,480,4,2,0,25,1,0
64085,480,4,2,0,30,1,0
64203,504.201680672269,4,2,0,35,1,0
65237,625,4,2,0,35,1,0
65862,-100,4,2,0,15,0,0
162576,504.201680672269,4,2,0,30,1,0
162576,-100,4,2,0,30,0,0
166609,495.867768595041,4,2,0,30,1,0
168592,500,4,2,0,30,1,0
170170,600,4,2,0,30,1,0
170770,526.315789473684,4,2,0,30,1,0
172875,512.820512820513,4,2,0,30,1,0
174926,491.803278688525,4,2,0,30,1,0
176893,526.315789473684,4,2,0,30,1,0
179104,526.315789473684,4,2,0,30,1,0
179104,-100,4,2,0,30,0,0
180156,-125,4,2,0,30,0,0
181209,-166.666666666667,4,2,0,30,0,0
182261,-250,4,2,0,30,0,0
182788,618.556701030928,4,2,0,30,1,0
183406,545.454545454546,4,2,0,30,1,0
183406,-100,4,2,0,30,0,0
184496,-76.9230769230769,4,2,0,30,0,0
185299,447.761194029851,4,2,0,30,1,0
185522,545.454545454546,4,2,0,30,1,0
185522,-62.5,4,2,0,30,0,0
186612,-52.6315789473684,4,2,0,30,0,0
187518,472.44094488189,4,2,0,30,1,0
187754,517.241379310345,4,2,0,30,1,0
187754,-50,4,2,0,30,0,0
191891,517.241379310345,4,2,0,30,1,0
191891,-50,4,2,0,30,0,0
193987,545.454545454546,4,2,0,30,1,0
193987,-62.5,4,2,0,30,0,0
195077,-83.3333333333333,4,2,0,30,0,0
195350,759.493670886076,4,2,0,30,1,0
195729,441.176470588235,4,2,0,30,1,0
195729,-166.666666666667,4,2,0,30,0,0
259195,618.556701030928,4,2,0,35,1,0
259195,-125,4,2,0,20,0,0
260896,-125,4,2,0,10,0,0
261050,-100,4,2,0,20,0,0
261514,-100,4,2,0,10,0,0
261669,588.235294117647,4,2,0,35,1,0
261669,-100,4,2,0,25,0,0
262845,625,4,2,0,25,1,0
262845,-100,4,2,0,25,0,0
263313,-100,4,2,0,10,0,0
263470,-125,4,2,0,25,0,0
263938,-125,4,2,0,10,0,0
264102,600,4,2,0,30,1,0
267745,681.818181818182,4,2,0,30,1,0
267745,-133.333333333333,4,2,0,30,0,0
268426,-133.333333333333,4,2,0,20,0,0
269183,631.578947368421,4,2,0,20,1,0
269183,-100,4,2,0,20,0,0
270446,-166.666666666667,4,2,0,20,0,0
270919,-166.666666666667,4,2,0,10,0,0
271077,-166.666666666667,4,2,0,20,0,0
271551,-166.666666666667,4,2,0,10,0,0
271709,-166.666666666667,4,2,0,25,0,0
272972,-100,4,2,0,25,0,0
273446,-100,4,2,0,10,0,0
273604,-100,4,2,0,25,0,0
274077,-100,4,2,0,10,0,0
274235,594.059405940594,4,2,0,30,1,0
275423,-66.6666666666667,4,2,0,30,0,0
275720,-66.6666666666667,4,2,0,20,0,0
276017,-66.6666666666667,4,2,0,30,0,0
276314,-66.6666666666667,4,2,0,20,0,0
276611,-50,4,2,0,35,0,0
276908,-50,4,2,0,25,0,0
277205,-50,4,2,0,35,0,0
277502,-50,4,2,0,25,0,0
277867,681.818181818182,4,2,0,20,1,0
277867,-125,4,2,0,20,0,0
278378,-125,4,2,0,10,0,0
278548,-100,4,2,0,20,0,0
279318,625,4,2,0,25,1,0
279630,-166.666666666667,4,2,0,30,0,0
279943,-166.666666666667,4,2,0,20,0,0
280568,-166.666666666667,4,2,0,30,0,0
281036,-166.666666666667,4,2,0,10,0,0
281193,-166.666666666667,4,2,0,30,0,0
281661,-166.666666666667,4,2,0,10,0,0
281818,-166.666666666667,4,2,0,10,0,0
281856,618.556701030928,4,2,0,25,1,0
282165,-125,4,2,0,25,0,0
282474,-125,4,2,0,20,0,0
283093,-125,4,2,0,25,0,0
283557,-125,4,2,0,10,0,0
283711,-125,4,2,0,25,0,0
284175,-125,4,2,0,10,0,0
284330,-125,4,2,0,10,0,0
284356,606.060606060606,4,2,0,20,1,0
285568,-66.6666666666667,4,2,0,30,0,0
286022,-66.6666666666667,4,2,0,15,0,0
286174,-50,4,2,0,30,0,0
286628,-50,4,2,0,15,0,0
286780,-50,4,2,0,20,0,0
287992,-50,4,2,0,25,0,0
289204,-100,4,2,0,20,0,0
290416,-83.3333333333333,4,2,0,25,0,0
290719,-83.3333333333333,4,2,0,10,0,0
291022,-55.5555555555556,4,2,0,25,0,0
291325,-55.5555555555556,4,2,0,10,0,0
291628,-55.5555555555556,4,2,0,20,0,0
292840,-55.5555555555556,4,2,0,30,0,0
293143,-55.5555555555556,4,2,0,10,0,0
293446,-41.6666666666667,4,2,0,30,0,0
293749,-41.6666666666667,4,2,0,10,0,0
294052,600,4,2,0,25,1,0
295252,-50,4,2,0,35,0,0
295552,-50,4,2,0,15,0,0
295852,-35.7142857142857,4,2,0,35,0,0
296152,-35.7142857142857,4,2,0,15,0,0
296452,-50,4,2,0,30,0,0
296752,-50,4,2,0,15,0,0
297052,-83.3333333333333,4,2,0,30,0,0
297352,-83.3333333333333,4,2,0,10,0,0
297765,800,4,2,0,35,1,0
297765,-133.333333333333,4,2,0,20,0,0

[Colours]
Combo1 : 255,210,55
Combo2 : 0,106,236
Combo3 : 103,87,80
Combo4 : 252,242,209

[HitObjects]
192,109,162576,6,0,L|119:115,1,70
212,264,163080,2,0,L|212:334,1,70
320,109,163584,2,0,L|393:115,1,70
300,281,164088,2,0,L|300:211,1,70
193,29,164592,5,0,0:0:0:0:
222,185,164844,1,0,0:0:0:0:
389,114,165097,2,0,L|320:109,1,70
212,264,165601,5,0,0:0:0:0:
377,194,165853,1,0,0:0:0:0:
192,109,166105,2,0,L|119:115,1,70
314,223,166609,5,0,0:0:0:0:
258,57,166856,1,0,0:0:0:0:
212,264,167104,1,0,0:0:0:0:
320,109,167352,1,0,0:0:0:0:
354,310,167600,5,0,0:0:0:0:
245,136,167848,1,0,0:0:0:0:
270,314,168096,1,0,0:0:0:0:
444,205,168344,1,0,0:0:0:0:
212,264,168592,5,0,0:0:0:0:
122,114,168840,1,0,0:0:0:0:
270,314,169092,1,0,0:0:0:0:
377,194,169340,1,0,0:0:0:0:
192,109,169592,6,0,L|119:115,1,70
320,109,170170,2,0,L|393:115,1,70
166,151,170770,6,0,L|171:52,1,70
257,264,171296,2,0,L|356:269,1,70
346,11,171822,2,0,L|341:110,1,70
246,181,172348,2,0,L|147:186,1,70
342,80,172875,6,0,L|441:75,1,70
324,213,173387,1,0,0:0:0:0:
214,49,173644,1,0,0:0:0:0:
166,268,173900,6,0,L|169:337,1,70
83,241,174413,1,0,0:0:0:0:
227,133,174670,1,0,0:0:0:0:
27,147,174926,5,0,0:0:0:0:
234,216,175171,1,0,0:0:0:0:
75,223,175417,1,0,0:0:0:0:
273,138,175663,1,0,0:0:0:0:
262,294,175909,5,0,0:0:0:0:
180,121,176155,1,0,0:0:0:0:
169,337,176401,1,0,0:0:0:0:
234,216,176647,1,0,0:0:0:0:
82,279,176893,5,0,0:0:0:0:
262,137,177156,1,0,0:0:0:0:
241,297,177419,1,0,0:0:0:0:
75,115,177682,1,0,0:0:0:0:
169,81,177945,6,0,L|166:151,1,70
162,225,178471,1,0,0:0:0:0:
372,55,179104,6,0,L|271:66,1,70
252,125,179630,1,0,0:0:0:0:
48,157,179893,5,0,0:0:0:0:
118,130,180156,2,0,L|196:138,1,56
224,199,180682,1,0,0:0:0:0:
417,234,180946,5,0,0:0:0:0:
347,207,181209,2,0,L|298:212,1,41.9999987182618
255,275,181735,1,0,0:0:0:0:
79,310,181999,5,0,0:0:0:0:
149,283,182261,2,0,L|188:288,1,28
227,350,182788,1,0,0:0:0:0:
446,88,183097,5,0,0:0:0:0:
372,55,183406,2,0,L|271:66,1,70
231,112,183951,1,0,0:0:0:0:
71,217,184224,5,0,0:0:0:0:
66,135,184360,1,0,0:0:0:0:
140,102,184496,2,0,L|261:115,1,90.9999958343508
310,170,185041,1,0,0:0:0:0:
503,295,185299,5,0,0:0:0:0:
509,196,185410,1,0,0:0:0:0:
421,157,185522,2,0,L|279:172,1,112
223,236,186067,1,0,0:0:0:0:
57,52,186340,5,0,0:0:0:0:
166,15,186476,1,0,0:0:0:0:
237,103,186612,2,0,L|219:263,1,132.999996448517
147,328,187157,1,0,0:0:0:0:
237,103,187518,5,0,0:0:0:0:
364,128,187636,1,0,0:0:0:0:
384,255,187754,2,0,L|236:320,1,140
261,199,188271,1,0,0:0:0:0:
197,371,188529,5,0,0:0:0:0:
70,346,188659,1,0,0:0:0:0:
50,219,188788,2,0,L|198:154,1,140
255,311,189305,1,0,0:0:0:0:
386,181,189564,5,0,0:0:0:0:
361,54,189693,1,0,0:0:0:0:
234,34,189822,2,0,L|169:182,1,140
194,259,190340,1,0,0:0:0:0:
52,126,190598,5,0,0:0:0:0:
176,89,190728,1,0,0:0:0:0:
251,193,190857,2,0,L|266:340,1,140
150,166,191374,1,0,0:0:0:0:
275,49,191633,5,0,0:0:0:0:
327,140,191762,1,0,0:0:0:0:
328,151,191892,2,0,L|342:290,1,140
185,244,192279,1,0,0:0:0:0:
184,233,192409,2,0,L|169:93,1,140
427,154,192796,5,0,0:0:0:0:
416,171,192927,2,0,L|342:289,1,140
85,230,193314,1,0,0:0:0:0:
96,213,193444,2,0,L|170:95,1,140
352,272,193831,5,0,0:0:0:0:
341,289,193987,2,0,L|208:317,1,112
160,112,194396,1,0,0:0:0:0:
171,95,194532,2,0,L|304:67,1,112
238,321,194941,5,0,0:0:0:0:
231,312,195077,2,0,L|226:198,1,83.9999974365235
274,63,195539,1,0,0:0:0:0:
281,72,195729,2,0,L|286:186,1,83.9999974365235
