osu file format v14

[General]
AudioFilename: audio.mp3
AudioLeadIn: 0
PreviewTime: 42284
Countdown: 1
SampleSet: Soft
StackLeniency: 0.2
Mode: 0
LetterboxInBreaks: 0
WidescreenStoryboard: 0

[Editor]
DistanceSpacing: 0.8
BeatDivisor: 4
GridSize: 8
TimelineZoom: 1.7

[Metadata]
Title:Ah vous dirai-je, Maman
TitleUnicode:Twelve Variations on “Ah vous dirai-je, Maman"
Artist:Wolfgang Amadeus Mozart
ArtistUnicode:Wolfgang Amadeus Mozart
Creator:imm0rt47
Version:Insane
Source:
Tags:
BeatmapID:1856703
BeatmapSetID:888266

[Difficulty]
HPDrainRate:6
CircleSize:4
OverallDifficulty:6
ApproachRate:9
SliderMultiplier:1.4
SliderTickRate:1

[Events]
//Background and Video events
0,0,"866bc5e4fa554b3eceeb33f3221310ba.jpg",0,0
//Break Periods
//Storyboard Layer 0 (Background)
//Storyboard Layer 1 (Fail)
//Storyboard Layer 2 (Pass)
//Storyboard Layer 3 (Foreground)
//Storyboard Sound Samples

[TimingPoints]
34516.6508501245,476.190476190476,4,2,0,30,1,0
37611,-100,4,2,0,20,0,0
38564,-100,4,2,0,15,0,0
39516,-100,4,2,0,20,0,0
40227,500,4,2,0,40,1,0
41227,-100,4,2,0,20,0,0
42284,476.190476190476,4,2,0,30,1,0
45379,-100,4,2,0,20,0,0
46331,-100,4,2,0,15,0,0
47284,-100,4,2,0,10,0,0
47998,521.739130434783,4,2,0,20,1,0
49563,-100,4,2,0,10,0,0
50177,483.870967741935,4,2,0,20,1,0
51144,-100,4,2,0,25,0,0
52112,-100,4,2,0,30,0,0
52847,535.714285714286,4,2,0,20,1,0
53120,468.75,4,2,0,20,1,0
53709,517.241379310345,4,2,0,15,1,0
54174,487.80487804878,4,2,0,25,1,0
54654,-100,4,2,0,30,0,0
55152,512.820512820513,4,2,0,20,1,0
55664,-100,4,2,0,25,0,0
56177,483.870967741935,4,2,0,15,1,0
56660,-100,4,2,0,20,0,0
57168,588.235294117647,4,2,0,25,1,0
57168,-133.333333333333,4,2,0,25,0,0
57756,594.059405940594,4,2,0,15,1,0
57756,-200,4,2,0,15,0,0
58201,-200,4,2,0,5,0,0
58350,491.803278688525,4,2,0,30,1,0
59333,-100,4,2,0,35,0,0
60317,-100,4,2,0,25,0,0
60809,-100,4,2,0,30,0,0
61300,-100,4,2,0,20,0,0
61546,-100,4,2,0,35,0,0
62530,-100,4,2,0,30,0,0
63135,491.803278688525,4,2,0,30,1,0
63243,480,4,2,0,25,1,0
64085,480,4,2,0,30,1,0
64203,504.201680672269,4,2,0,35,1,0
65237,625,4,2,0,35,1,0
65862,-100,4,2,0,15,0,0

[Colours]
Combo1 : 255,210,55
Combo2 : 0,106,236
Combo3 : 103,87,80
Combo4 : 252,242,209

[HitObjects]
101,152,34516,38,0,L|66:152,1,35
160,87,34754,6,0,L|212:94,1,35
215,176,34992,2,0,L|267:169,1,35
313,113,35230,2,0,L|363:134,1,35
411,231,35469,22,0,L|446:231,1,35
352,296,35707,38,0,L|300:303,1,35
266,228,35945,2,0,L|231:223,1,35
161,313,36183,2,0,L|126:317,1,35
67,193,36421,38,0,L|7:194,1,35
137,244,36659,2,0,L|187:228,1,35
236,133,36897,6,0,L|181:165,1,35
170,233,37135,2,0,L|170:278,1,35
123,163,37373,22,0,L|123:99,1,35
236,133,37611,6,0,L|275:109,1,35
378,58,37849,1,0,0:0:0:0:
378,105,37969,1,0,0:0:0:0:
378,151,38088,1,0,0:0:0:0:
378,198,38207,21,0,0:0:0:0:
378,244,38326,2,0,L|419:267,1,35
315,317,38564,22,0,L|275:340,1,35
208,373,38802,1,0,0:0:0:0:
208,338,38921,1,0,0:0:0:0:
208,303,39040,1,0,0:0:0:0:
208,268,39159,37,0,0:0:0:0:
208,233,39278,2,0,L|177:215,1,35
255,178,39516,6,0,L|286:196,1,35
321,220,39754,1,0,0:0:0:0:
301,232,39873,1,0,0:0:0:0:
282,243,39992,1,0,0:0:0:0:
262,255,40111,1,0,0:0:0:0:
242,267,40227,21,0,0:0:0:0:
326,134,40477,1,0,0:0:0:0:
387,279,40727,1,0,0:0:0:0:
249,172,40977,1,0,0:0:0:0:
397,181,41227,37,0,0:0:0:0:
409,317,41477,1,0,0:0:0:0:
183,244,41727,37,0,0:0:0:0:
319,232,41977,1,0,0:0:0:0:
101,152,42284,38,0,L|66:152,1,35
163,72,42522,6,0,L|169:18,1,35
217,191,42760,2,0,L|213:225,1,35
292,119,42998,2,0,L|298:65,1,35
411,231,43236,22,0,L|446:231,1,35
336,303,43474,38,0,L|284:310,1,35
213,225,43712,2,0,L|247:220,1,35
132,335,43950,2,0,L|80:342,1,35
32,200,44188,38,0,L|26:140,1,35
97,34,44426,2,0,L|100:68,1,35
182,218,44664,6,0,L|215:175,1,35
214,71,44903,2,0,L|192:98,1,35
103,247,45141,22,0,L|52:255,1,35
126,112,45379,6,0,L|159:69,1,35
185,58,45617,1,0,0:0:0:0:
230,61,45736,1,0,0:0:0:0:
266,90,45855,1,0,0:0:0:0:
276,134,45974,1,0,0:0:0:0:
258,175,46093,2,0,L|229:211,1,35
126,112,46331,6,0,L|91:107,1,35
57,110,46569,1,0,0:0:0:0:
32,134,46688,1,0,0:0:0:0:
27,168,46807,1,0,0:0:0:0:
42,199,46926,1,0,0:0:0:0:
73,214,47045,2,0,L|107:218,1,35
209,180,47284,6,0,L|222:212,1,35
223,234,47522,1,0,0:0:0:0:
210,253,47641,1,0,0:0:0:0:
190,261,47760,1,0,0:0:0:0:
167,255,47879,1,0,0:0:0:0:
155,236,47998,1,0,0:0:0:0:
301,123,48258,1,0,0:0:0:0:
301,253,48519,1,0,0:0:0:0:
203,123,48780,1,0,0:0:0:0:
123,276,49041,37,0,0:0:0:0:
389,276,49563,1,0,0:0:0:0:
445,63,50177,22,0,L|480:63,5,35
410,123,50902,1,0,0:0:0:0:
353,162,51023,1,0,0:0:0:0:
284,172,51144,38,0,L|249:172,5,35
354,182,51870,1,0,0:0:0:0:
411,221,51991,1,0,0:0:0:0:
445,281,52112,6,0,L|480:281,5,35
396,331,52847,1,0,0:0:0:0:
330,355,52980,1,0,0:0:0:0:
260,345,53120,6,0,L|225:345,3,35
156,335,53588,1,0,0:0:0:0:
99,296,53709,1,0,0:0:0:0:
65,236,53838,1,0,0:0:0:0:
59,167,53967,1,0,0:0:0:0:
166,57,54174,38,0,L|129:57,3,35
235,23,54661,5,0,0:0:0:0:
166,57,54783,1,0,0:0:0:0:
154,133,54905,1,0,0:0:0:0:
209,187,55027,1,0,0:0:0:0:
235,107,55152,22,0,L|272:107,3,35
166,73,55664,37,0,0:0:0:0:
235,107,55793,1,0,0:0:0:0:
247,183,55921,1,0,0:0:0:0:
192,237,56049,1,0,0:0:0:0:
166,156,56177,22,0,L|129:156,3,35
247,183,56660,37,0,0:0:0:0:
192,236,56781,1,0,0:0:0:0:
205,311,56902,1,0,0:0:0:0:
274,345,57023,1,0,0:0:0:0:
192,236,57168,22,0,L|111:236,1,78.7500030040742
273,264,57756,6,0,L|328:264,1,52.5
101,152,58350,22,0,L|64:152,1,35
246,60,58595,6,0,L|246:-4,1,35
313,231,58841,2,0,L|313:266,1,35
240,158,59087,2,0,L|185:158,1,35
411,231,59333,22,0,L|446:231,1,35
249,306,59579,38,0,L|249:341,1,35
152,103,59825,2,0,L|152:68,1,35
313,231,60071,2,0,L|347:230,1,35
116,192,60317,38,0,L|56:193,1,35
214,306,60563,2,0,L|248:306,1,35
152,103,60809,6,0,L|117:97,1,35
268,208,61054,2,0,L|312:215,1,35
214,306,61300,22,0,L|214:340,1,35
235,126,61546,5,0,0:0:0:0:
299,102,61669,1,0,0:0:0:0:
365,122,61792,1,0,0:0:0:0:
404,178,61915,1,0,0:0:0:0:
401,247,62038,1,0,0:0:0:0:
357,299,62161,1,0,0:0:0:0:
289,314,62284,22,0,L|254:313,1,35
379,237,62530,37,0,0:0:0:0:
381,186,62653,1,0,0:0:0:0:
350,144,62776,1,0,0:0:0:0:
301,129,62899,1,0,0:0:0:0:
253,148,63022,1,0,0:0:0:0:
227,192,63135,1,0,0:0:0:0:
232,242,63243,22,0,L|240:277,1,35
304,155,63483,5,0,0:0:0:0:
336,164,63603,1,0,0:0:0:0:
356,192,63723,1,0,0:0:0:0:
353,227,63843,1,0,0:0:0:0:
332,253,63963,1,0,0:0:0:0:
298,260,64085,1,0,0:0:0:0:
267,244,64203,1,0,0:0:0:0:
362,51,64455,5,0,0:0:0:0:
389,204,64707,1,0,0:0:0:0:
101,145,64959,37,0,0:0:0:0:
293,110,65237,1,0,0:0:0:0:
256,189,65862,5,0,0:0:0:0:
