osu file format v14

[General]
AudioFilename: audio.mp3
AudioLeadIn: 0
PreviewTime: 42284
Countdown: 1
SampleSet: Soft
StackLeniency: 0.2
Mode: 0
LetterboxInBreaks: 0
WidescreenStoryboard: 1

[Editor]
DistanceSpacing: 0.8
BeatDivisor: 4
GridSize: 8
TimelineZoom: 1.7

[Metadata]
Title:Ah vous dirai-je, Maman
TitleUnicode:Twelve Variations on “Ah vous dirai-je, Maman"
Artist:Wolfgang Amadeus Mozart
ArtistUnicode:Wolfgang Amadeus Mozart
Creator:imm0rt47
Version:Fugue
Source:
Tags:
BeatmapID:1862215
BeatmapSetID:888266

[Difficulty]
HPDrainRate:6
CircleSize:4
OverallDifficulty:6
ApproachRate:8
SliderMultiplier:1.4
SliderTickRate:1

[Events]
//Background and Video events
0,0,"866bc5e4fa554b3eceeb33f3221310ba.jpg",0,0
//Break Periods
//Storyboard Layer 0 (Background)
//Storyboard Layer 1 (Fail)
//Storyboard Layer 2 (Pass)
//Storyboard Layer 3 (Foreground)
//Storyboard Sound Samples

[TimingPoints]
34516.6508501245,476.190476190476,4,2,0,30,1,0
37611,-100,4,2,0,20,0,0
38564,-100,4,2,0,15,0,0
39516,-100,4,2,0,20,0,0
40227,500,4,2,0,40,1,0
41227,-100,4,2,0,20,0,0
42284,476.190476190476,4,2,0,30,1,0
45379,-100,4,2,0,20,0,0
46331,-100,4,2,0,15,0,0
47284,-100,4,2,0,10,0,0
47998,521.739130434783,4,2,0,20,1,0
49563,-100,4,2,0,10,0,0
50177,483.870967741935,4,2,0,20,1,0
51144,-100,4,2,0,25,0,0
52112,-100,4,2,0,30,0,0
52847,535.714285714286,4,2,0,20,1,0
53120,465.116279069767,4,2,0,20,1,0
53709,517.241379310345,4,2,0,15,1,0
54174,480,4,2,0,25,1,0
54654,-100,4,2,0,30,0,0
55152,512.820512820513,4,2,0,20,1,0
55664,-100,4,2,0,25,0,0
56177,483.870967741935,4,2,0,15,1,0
56660,-100,4,2,0,20,0,0
57168,588.235294117647,4,2,0,25,1,0
57168,-133.333333333333,4,2,0,25,0,0
57756,594.059405940594,4,2,0,15,1,0
57756,-200,4,2,0,15,0,0
58201,-200,4,2,0,5,0,0
58350,491.803278688525,4,2,0,30,1,0
59333,-100,4,2,0,35,0,0
60317,-100,4,2,0,25,0,0
60809,-100,4,2,0,30,0,0
61300,-100,4,2,0,20,0,0
61546,-100,4,2,0,35,0,0
62530,-100,4,2,0,30,0,0
63135,491.803278688525,4,2,0,30,1,0
63243,480,4,2,0,25,1,0
64085,480,4,2,0,30,1,0
64203,504.201680672269,4,2,0,35,1,0
65237,625,4,2,0,35,1,0
65862,-100,4,2,0,15,0,0
259195,618.556701030928,4,2,0,35,1,0
259195,-125,4,2,0,20,0,0
260896,-125,4,2,0,10,0,0
261050,-100,4,2,0,20,0,0
261514,-100,4,2,0,10,0,0
261669,588.235294117647,4,2,0,35,1,0
261669,-100,4,2,0,25,0,0
262845,625,4,2,0,25,1,0
262845,-100,4,2,0,25,0,0
263313,-100,4,2,0,10,0,0
263470,-125,4,2,0,25,0,0
263938,-125,4,2,0,10,0,0
264102,600,4,2,0,30,1,0
267745,681.818181818182,4,2,0,30,1,0
267745,-133.333333333333,4,2,0,30,0,0
268426,-133.333333333333,4,2,0,20,0,0
269183,631.578947368421,4,2,0,20,1,0
269183,-100,4,2,0,20,0,0
270446,-166.666666666667,4,2,0,20,0,0
270919,-166.666666666667,4,2,0,10,0,0
271077,-166.666666666667,4,2,0,20,0,0
271551,-166.666666666667,4,2,0,10,0,0
271709,-166.666666666667,4,2,0,25,0,0
272972,-100,4,2,0,25,0,0
273446,-100,4,2,0,10,0,0
273604,-100,4,2,0,25,0,0
274077,-100,4,2,0,10,0,0
274235,594.059405940594,4,2,0,30,1,0
275423,-66.6666666666667,4,2,0,30,0,0
275720,-66.6666666666667,4,2,0,20,0,0
276017,-66.6666666666667,4,2,0,30,0,0
276314,-66.6666666666667,4,2,0,20,0,0
276611,-50,4,2,0,35,0,0
276908,-50,4,2,0,25,0,0
277205,-50,4,2,0,35,0,0
277502,-50,4,2,0,25,0,0
277867,681.818181818182,4,2,0,20,1,0
277867,-125,4,2,0,20,0,0
278378,-125,4,2,0,10,0,0
278548,-100,4,2,0,20,0,0
279318,625,4,2,0,25,1,0
279630,-166.666666666667,4,2,0,30,0,0
279943,-166.666666666667,4,2,0,20,0,0
280568,-166.666666666667,4,2,0,30,0,0
281036,-166.666666666667,4,2,0,10,0,0
281193,-166.666666666667,4,2,0,30,0,0
281661,-166.666666666667,4,2,0,10,0,0
281818,-166.666666666667,4,2,0,10,0,0
281856,618.556701030928,4,2,0,25,1,0
282165,-125,4,2,0,25,0,0
282474,-125,4,2,0,20,0,0
283093,-125,4,2,0,25,0,0
283557,-125,4,2,0,10,0,0
283711,-125,4,2,0,25,0,0
284175,-125,4,2,0,10,0,0
284330,-125,4,2,0,10,0,0
284356,606.060606060606,4,2,0,20,1,0
285568,-66.6666666666667,4,2,0,30,0,0
286022,-66.6666666666667,4,2,0,15,0,0
286174,-50,4,2,0,30,0,0
286628,-50,4,2,0,15,0,0
286780,-50,4,2,0,20,0,0
287992,-50,4,2,0,25,0,0
289204,-100,4,2,0,20,0,0
290416,-83.3333333333333,4,2,0,25,0,0
290719,-83.3333333333333,4,2,0,10,0,0
291022,-55.5555555555556,4,2,0,25,0,0
291325,-55.5555555555556,4,2,0,10,0,0
291628,-55.5555555555556,4,2,0,20,0,0
292840,-55.5555555555556,4,2,0,30,0,0
293143,-55.5555555555556,4,2,0,10,0,0
293446,-41.6666666666667,4,2,0,30,0,0
293749,-41.6666666666667,4,2,0,10,0,0
294052,600,4,2,0,25,1,0
295252,-35.7142857142857,4,2,0,35,0,0
295552,-35.7142857142857,4,2,0,15,0,0
295852,-45.4545454545455,4,2,0,35,0,0
296152,-45.4545454545455,4,2,0,15,0,0
296452,-62.5,4,2,0,30,0,0
296752,-62.5,4,2,0,15,0,0
297052,-100,4,2,0,30,0,0
297352,-100,4,2,0,10,0,0
297765,800,4,2,0,35,1,0
297765,-133.333333333333,4,2,0,20,0,0

[Colours]
Combo1 : 255,210,55
Combo2 : 0,106,236
Combo3 : 103,87,80
Combo4 : 252,242,209

[HitObjects]
94,75,259195,53,0,0:0:0:0:
106,115,259504,1,0,0:0:0:0:
119,155,259813,1,0,0:0:0:0:
132,195,260122,1,0,0:0:0:0:
144,235,260432,2,0,L|237:235,1,84
228,235,261050,2,0,P|187:208|143:237,1,105
203,315,261669,5,0,0:0:0:0:
215,275,261963,1,0,0:0:0:0:
228,235,262257,1,0,0:0:0:0:
241,195,262551,1,0,0:0:0:0:
253,155,262845,2,0,B|295:186|295:186|337:155,1,105
337,155,263470,2,0,L|253:155,1,84
291,35,264102,5,0,0:0:0:0:
273,95,264402,1,0,0:0:0:0:
253,155,264702,1,0,0:0:0:0:
234,215,265002,1,0,0:0:0:0:
193,90,265302,1,0,0:0:0:0:
260,292,265602,1,0,0:0:0:0:
301,167,265902,1,0,0:0:0:0:
167,263,266202,1,0,0:0:0:0:
275,90,266502,5,0,0:0:0:0:
342,292,266802,1,0,0:0:0:0:
383,167,267102,1,0,0:0:0:0:
249,263,267402,1,0,0:0:0:0:
115,167,267745,6,0,P|157:140|198:167,1,105
94,75,269183,53,0,0:0:0:0:
94,75,269498,1,0,0:0:0:0:
94,75,269814,1,0,0:0:0:0:
175,111,270130,1,0,0:0:0:0:
256,147,270446,2,0,B|285:159|285:159|314:148,1,62.9999980773926
256,237,271077,2,0,B|227:225|227:225|198:236,1,62.9999980773926
418,309,271709,5,0,0:0:0:0:
418,309,272024,1,0,0:0:0:0:
418,309,272340,1,0,0:0:0:0:
337,273,272656,1,0,0:0:0:0:
256,237,272972,2,0,B|204:230|204:230|162:260,1,105
256,147,273604,2,0,B|307:153|307:153|349:123,1,105
170,283,274235,5,0,0:0:0:0:
169,282,274532,1,0,0:0:0:0:
169,282,274829,1,0,0:0:0:0:
213,215,275126,1,0,0:0:0:0:
256,147,275423,2,0,B|307:140|307:140|340:100,1,105
256,237,276017,2,0,B|204:243|204:243|171:283,1,105
256,147,276611,6,0,B|310:104|310:104|322:35,1,140
256,237,277205,2,0,B|199:279|199:279|187:347,1,140
256,147,277867,6,0,L|256:46,1,84
256,237,278548,1,0,0:0:0:0:
334,275,279318,5,0,0:0:0:0:
314,94,279630,2,0,L|366:89,2,41.9999987182618
260,149,280568,2,0,P|224:164|208:198,1,62.9999980773926
193,240,281193,2,0,P|229:225|245:191,1,62.9999980773926
151,80,281818,5,0,0:0:0:0:
172,161,282165,2,0,L|94:156,2,56
193,240,283093,2,0,P|234:233|275:245,1,84
329,306,283711,2,0,P|287:312|246:300,1,84
418,185,284330,5,0,0:0:0:0:
410,273,284659,2,0,L|481:320,2,70
329,306,285568,2,0,P|259:274|178:301,1,157.500006008148
139,372,286174,2,0,P|60:317|55:166,1,210
94,75,286780,5,0,0:0:0:0:
94,75,287083,1,0,0:0:0:0:
94,75,287386,1,0,0:0:0:0:
122,198,287689,1,0,0:0:0:0:
280,36,287992,5,0,0:0:0:0:
264,139,288295,1,0,0:0:0:0:
249,243,288598,1,0,0:0:0:0:
235,347,288901,1,0,0:0:0:0:
94,75,289204,37,0,0:0:0:0:
122,198,289507,1,0,0:0:0:0:
177,51,289810,1,0,0:0:0:0:
173,132,290113,1,0,0:0:0:0:
209,119,290416,38,0,L|272:216,1,83.9999974365235
268,64,291022,2,0,L|252:206,1,125.999996154785
418,309,291628,21,0,0:0:0:0:
390,186,291931,1,0,0:0:0:0:
330,241,292234,1,0,0:0:0:0:
450,131,292537,1,0,0:0:0:0:
307,75,292840,22,0,L|244:211,1,125.999996154785
233,22,293446,2,0,L|257:218,1,167.999994873047
94,309,294052,37,0,0:0:0:0:
255,190,294352,1,0,0:0:0:0:
146,143,294652,1,0,0:0:0:0:
190,275,294952,1,0,0:0:0:0:
333,201,295252,6,0,L|143:142,1,195.999994018555
185,246,295852,2,0,L|340:198,1,154.000004699707
291,279,296452,2,0,L|179:244,1,112
224,299,297052,2,0,L|292:278,1,70
338,190,297765,6,0,P|296:162|255:190,1,105
