osu file format v14

[General]
AudioFilename: audio.mp3
AudioLeadIn: 0
PreviewTime: 47011
Countdown: 0
SampleSet: Soft
StackLeniency: 0.4
Mode: 0
LetterboxInBreaks: 0
WidescreenStoryboard: 0

[Editor]
Bookmarks: 113218
DistanceSpacing: 1
BeatDivisor: 4
GridSize: 32
TimelineZoom: 2

[Metadata]
Title:Ne engedj el!
TitleUnicode:Ne engedj el!
Artist:Wolf Kati
ArtistUnicode:Wolf Kati
Creator:bite you death
Version:
Source:
Tags:byd hungarian
BeatmapID:1940883
BeatmapSetID:929286

[Difficulty]
HPDrainRate:5.8
CircleSize:3.8
OverallDifficulty:8.3
ApproachRate:9.2
SliderMultiplier:1.52
SliderTickRate:2

[Events]
//Background and Video events
//Break Periods
//Storyboard Layer 0 (Background)
//Storyboard Layer 1 (Fail)
//Storyboard Layer 2 (Pass)
//Storyboard Layer 3 (Foreground)
//Storyboard Sound Samples

[TimingPoints]
1494,344.827586206897,4,2,2,30,1,0
15287,-125,4,2,2,30,0,0
17528,-125,4,2,3,30,0,0
17873,-125,4,2,2,30,0,0
26321,-111.111111111111,4,2,2,40,0,0
35976,-111.111111111111,4,2,3,40,0,0
36149,-111.111111111111,4,2,2,40,0,0
37183,-111.111111111111,4,2,3,40,0,0
37269,-111.111111111111,4,2,2,40,0,0
39769,-111.111111111111,4,2,3,40,0,0
39942,-111.111111111111,4,2,2,40,0,0
42528,-111.111111111111,4,2,3,40,0,0
42700,-111.111111111111,4,2,2,40,0,0
43907,-111.111111111111,4,2,3,40,0,0
44080,-111.111111111111,4,2,2,40,0,0
45287,-111.111111111111,4,2,3,40,0,0
45459,-111.111111111111,4,2,2,40,0,0
47011,-166.666666666666,4,2,2,30,0,0
47700,-111.111111111111,4,2,2,45,0,0
48390,-83.3333333333333,4,2,2,60,0,1
53562,-83.3333333333333,4,2,2,5,0,1
53735,-83.3333333333333,4,2,2,60,0,1
57700,-83.3333333333333,4,2,3,60,0,1
57873,-83.3333333333333,4,2,2,60,0,1
58218,-83.3333333333333,4,2,3,60,0,1
58390,-83.3333333333333,4,2,2,60,0,1
63218,-83.3333333333333,4,2,3,60,0,1
63390,-83.3333333333333,4,2,2,60,0,1
63562,-83.3333333333333,4,2,3,60,0,1
63821,-83.3333333333333,4,2,2,60,0,1
64597,-83.3333333333333,4,2,2,5,0,1
64769,-83.3333333333333,4,2,2,60,0,1
65976,-83.3333333333333,4,2,3,60,0,1
66149,-83.3333333333333,4,2,2,60,0,1
69252,-111.111111111111,4,2,2,50,0,1
70459,-100,4,2,2,50,0,0

[Colours]
Combo1 : 255,230,242
Combo2 : 183,183,255
Combo3 : 255,214,193
Combo4 : 255,255,223

[HitObjects]
128,90,15287,6,0,B|204:86|170:139|262:133,1,121.6,2|0,3:2|3:0,0:0:0:0:
339,102,15804,2,0,P|316:58|232:60,1,121.6,2|0,0:0|0:0,1:0:0:0:
303,179,16321,1,2,0:0:0:0:
363,123,16494,2,0,P|395:129|428:140,1,60.7999999999999,2|0,0:0|0:0,0:0:0:0:
292,199,16839,2,0,P|259:205|227:216,1,60.7999999999999,2|0,3:2|3:0,0:0:0:0:
362,332,17183,2,0,P|366:284|390:211,2,121.6,2|0|2,0:0|0:0|0:0,1:0:0:0:
283,370,18045,6,0,P|256:360|205:346,1,60.8,2|2,3:2|0:0,0:0:0:0:
107,359,18390,1,2,3:2:0:0:
166,293,18563,1,2,0:0:0:0:
65,216,18735,1,2,1:2:0:0:
65,216,18908,2,0,P|75:248|79:283,1,60.8,2|0,0:0|0:0,0:0:0:0:
142,118,19252,6,0,P|204:113|246:180,1,121.6,2|0,0:0|3:0,0:0:0:0:
332,321,19942,2,0,P|342:256|364:181,1,121.6,2|0,0:0|0:0,1:0:0:0:
450,109,20459,2,0,P|455:141|466:179,1,60.8,2|0,0:0|0:0,0:0:0:0:
483,185,20718,1,0,0:0:0:0:
483,185,20804,6,0,B|407:167|441:225|341:211,1,121.6,2|0,3:2|3:0,0:0:0:0:
295,178,21321,2,0,P|326:215|344:293,1,121.6,2|0,0:0|0:0,1:0:0:0:
248,357,21838,2,0,P|253:323|266:287,1,60.8
199,218,22183,6,0,B|126:202|151:254|68:242,1,121.6,0|0,0:0|3:0,0:0:0:0:
38,169,22873,2,0,P|47:204|54:240,2,60.8,0|0|0,1:0|0:0|0:0,0:0:0:0:
13,71,23390,6,0,P|49:59|111:119,1,121.6
196,198,24080,2,0,P|256:185|324:176,1,121.6,0|0,0:0|0:0,1:0:0:0:
446,51,24769,6,0,P|413:45|348:106,1,121.6,0|0,0:0|3:0,0:0:0:0:
441,33,25287,2,0,P|408:27|343:88,1,121.6,0|0,3:0|1:0,0:0:0:0:
266,141,25976,2,0,P|251:133|229:130,1,30.4,2|2,1:3|0:3,0:0:0:0:
173,80,26149,2,0,P|158:88|136:91,1,30.4,2|2,0:3|0:3,0:0:0:0:
60,62,26321,6,0,P|106:99|113:188,1,136.799995825195,2|0,3:2|3:0,0:0:0:0:
53,291,26838,2,0,B|91:261|91:261|187:294,1,136.799995825195,2|0,0:0|0:0,1:0:0:0:
233,348,27356,2,0,L|309:331,1,68.3999979125977,2|0,0:0|3:0,0:0:0:0:
341,255,27700,6,0,P|380:289|372:383,1,136.799995825195,2|0,0:2|3:0,0:0:0:0:
254,264,28218,2,0,L|280:124,1,136.799995825195,2|0,0:0|0:0,1:0:0:0:
173,70,28735,2,0,L|185:144,1,68.3999979125977
285,33,29080,5,2,3:2:0:0:
285,33,29252,2,0,P|331:22|382:91,1,136.799995825195,2|0,0:0|0:0,0:0:0:0:
317,189,29769,2,0,B|388:202|373:146|459:164,1,136.799995825195,2|0,1:2|0:0,0:0:0:0:
494,258,30287,6,0,P|454:253|421:234,1,68.3999979125977,2|0,3:2|0:0,0:0:0:0:
345,340,30631,1,2,3:2:0:0:
345,340,30804,2,0,P|285:317|195:293,1,136.799995825195,2|0,3:2|1:0,0:0:0:0:
93,164,31494,2,0,P|118:190|154:201,1,68.3999979125977,2|0,0:0|0:0,0:0:0:0:
178,194,31752,1,0,0:0:0:0:
178,194,31838,6,0,P|190:125|212:37,1,136.799995825195,2|0,3:2|3:0,0:0:0:0:
273,0,32356,2,0,P|288:66|300:133,1,136.799995825195,2|0,0:0|0:0,1:0:0:0:
385,208,32873,2,0,P|391:174|398:141,1,68.3999979125977,0|0,0:0|3:0,0:0:0:0:
445,51,33218,6,0,P|488:81|482:167,1,136.799995825195,0|0,0:0|3:0,0:0:0:0:
320,258,33907,2,0,L|162:227,1,136.799995825195,0|2,1:0|0:0,0:0:0:0:
49,158,34597,6,0,B|122:156|92:210|175:204,1,136.799995825195,2|0,3:2|0:0,0:0:0:0:
287,118,35287,2,0,P|242:92|159:136,1,136.799995825195,2|2,1:2|0:3,0:0:0:0:
113,196,35804,1,2,0:3:0:0:
83,94,35976,6,0,P|117:102|159:105,2,68.3999979125977,2|2|2,1:2|0:3|0:3,0:0:0:0:
204,29,36666,2,0,P|239:70|217:162,1,136.799995825195,2|0,1:2|3:0,0:0:0:0:
131,229,37183,1,2,1:2:0:0:
131,229,37269,1,2,0:3:0:0:
131,229,37356,6,0,B|173:216|173:216|215:237|215:237|265:229,1,136.799995825195,2|0,3:2|3:0,0:0:0:0:
402,121,38045,2,0,P|381:182|368:261,1,136.799995825195,0|2,1:0|0:0,0:0:0:0:
399,340,38562,1,0,3:0:0:0:
399,340,38735,6,0,B|322:325|348:375|264:367,1,136.799995825195,2|0,0:0|3:0,0:0:0:0:
170,267,39252,2,0,P|221:245|284:310,1,136.799995825195,2|0,0:0|0:0,1:0:0:0:
179,360,39769,2,0,L|107:346,1,68.3999979125977,2|2,1:2|0:3,0:0:0:0:
16,242,40114,6,0,P|51:300|71:370,1,136.799995825195,2|0,3:2|3:0,0:0:0:0:
193,179,40804,2,0,P|235:156|313:194,1,136.799995825195,0|2,1:0|0:0,0:0:0:0:
241,245,41321,1,2,3:2:0:0:
321,312,41494,6,0,P|378:290|458:270,1,136.799995825195,2|0,0:0|3:0,0:0:0:0:
512,129,42011,2,0,P|449:118|400:196,1,136.799995825195,2|0,0:0|0:0,1:0:0:0:
317,244,42528,2,0,P|287:231|245:223,1,68.3999979125977,2|0,1:2|0:0,0:0:0:0:
178,116,42873,6,0,B|212:196|137:176|190:274,1,136.799995825195,2|0,3:2|3:0,0:0:0:0:
28,354,43562,2,0,P|51:293|66:216,1,136.799995825195,0|2,1:0|1:2,0:0:0:0:
20,110,44080,1,2,0:3:0:0:
20,110,44252,6,0,P|63:91|119:158,1,136.799995825195,2|0,0:0|3:0,0:0:0:0:
173,241,44769,2,0,B|252:255|231:194|320:215,1,136.799995825195,2|0,0:0|0:0,1:0:0:0:
369,161,45287,6,0,P|345:227|331:298,1,136.799995825195,2|2,1:2|3:1,0:0:0:0:
354,302,47011,6,0,P|398:288|464:339,1,136.799995825195,2|0,0:0|0:0,0:0:0:0:
300,376,47700,6,0,B|256:326|256:326|299:187,1,205.199993737793,2|0,0:0|0:0,0:0:0:0:
211,53,48390,5,6,3:2:0:0:
275,185,48562,1,2,0:0:0:0:
319,20,48735,2,0,B|401:13|367:62|464:58,1,136.799995825195,2|0,3:2|0:0,0:0:0:0:
474,45,49080,2,0,P|458:92|446:142,1,91.199997216797,8|0,0:0|0:0,0:0:0:0:
491,249,49425,1,2,0:0:0:0:
491,249,49597,1,0,3:0:0:0:
385,187,49769,6,0,B|287:167|320:249|206:227,1,182.399994433594,2|0,0:0|3:0,0:0:0:0:
129,185,50287,1,0,0:0:0:0:
230,6,50459,2,0,B|262:10|282:27|282:27|242:148,1,182.399994433594,10|2,0:0|0:3,0:0:0:0:
215,228,50976,1,2,0:3:0:0:
93,75,51149,5,2,3:2:0:0:
39,254,51321,1,2,0:0:0:0:
82,49,51494,1,2,3:2:0:0:
164,298,51666,1,2,0:0:0:0:
164,298,51752,1,0,0:0:0:0:
164,298,51838,2,0,B|238:308|208:243|321:267,1,136.799995825195,8|0,0:0|0:0,0:0:0:0:
317,281,52183,1,2,0:0:0:0:
164,199,52356,1,0,3:2:0:0:
325,109,52528,6,0,P|375:128|436:140,1,91.199997216797,2|0,0:0|3:0,0:0:0:0:
143,213,52873,2,0,P|100:196|56:185,1,91.199997216797,2|0,3:2|0:0,0:0:0:0:
175,32,53218,2,0,P|236:31|297:130,1,182.399994433594,10|0,0:0|0:0,0:0:0:0:
257,212,53735,1,2,0:0:0:0:
375,86,53907,6,0,B|418:56|418:56|401:206,1,182.399994433594,2|0,3:2|0:0,0:0:0:0:
390,306,54425,1,0,0:0:0:0:
297,124,54597,5,10,0:0:0:0:
168,345,54769,2,0,B|90:359|113:300|19:324,1,136.799995825195,2|0,0:0|0:0,0:0:0:0:
18,330,55114,6,0,P|33:288|46:224,1,91.199997216797,2|0,3:2|0:0,0:0:0:0:
31,73,55459,2,0,B|136:69|82:148|212:139,1,182.399994433594,2|0,3:2|0:0,0:0:0:0:
314,33,55976,2,0,P|288:74|273:128,1,91.199997216797,8|0,0:0|0:0,0:0:0:0:
310,226,56321,1,2,0:3:0:0:
310,226,56494,1,2,0:3:0:0:
480,108,56666,6,0,P|426:95|382:183,1,136.799995825195,2|0,3:2|0:0,0:0:0:0:
388,167,57011,1,2,3:2:0:0:
282,44,57183,2,0,B|202:32|235:99|122:69,1,136.799995825195,2|0,0:0|0:0,0:0:0:0:
124,53,57528,1,2,0:0:0:0:
27,213,57700,6,0,P|51:199|86:191,1,45.5999986083985,2|0,1:2|0:0,0:0:0:0:
148,179,57873,2,0,P|172:192|207:201,1,45.5999986083985,2|0,0:3|0:0,0:0:0:0:
302,146,58045,6,0,P|290:167|282:197,1,45.5999986083985,2|0,0:3|0:0,0:0:0:0:
379,271,58218,2,0,P|367:249|359:220,1,45.5999986083985,2|0,1:2|0:0,0:0:0:0:
378,98,58390,6,0,P|434:96|478:192,1,136.799995825195,0|0,3:0|0:0,0:0:0:0:
494,190,58735,6,0,P|506:140|527:85,1,91.199997216797,8|0,0:0|0:0,0:0:0:0:
360,229,59080,2,0,P|354:203|343:176,1,45.5999986083985,2|0,0:3|0:0,0:0:0:0:
275,114,59252,1,2,0:3:0:0:
275,114,59338,1,2,0:3:0:0:
275,114,59425,5,4,3:2:0:0:
360,268,59597,1,2,0:0:0:0:
382,65,59769,2,0,P|330:49|261:120,1,136.799995825195,2|0,3:2|0:0,0:0:0:0:
275,114,60114,2,0,P|229:103|164:94,1,91.199997216797,10|0,0:0|0:0,0:0:0:0:
27,146,60459,1,2,0:0:0:0:
101,68,60631,1,0,3:0:0:0:
122,204,60804,6,0,P|74:197|22:155,1,91.199997216797,2|0,0:0|3:0,0:0:0:0:
169,9,61149,2,0,P|187:53|176:119,1,91.199997216797,2|0,3:2|0:0,0:0:0:0:
267,248,61494,2,0,B|376:233|338:300|453:289,1,182.399994433594,10|2,0:0|0:3,0:0:0:0:
512,247,62011,1,2,0:3:0:0:
441,130,62183,6,0,B|408:163|408:163|418:208,1,91.199997216797,2|2,3:2|0:0,0:0:0:0:
512,79,62528,1,2,3:2:0:0:
377,157,62700,1,2,0:0:0:0:
377,157,62787,1,0,0:0:0:0:
377,157,62873,2,0,P|329:149|251:130,1,91.199997216797,8|0,0:0|0:0,0:0:0:0:
119,20,63218,1,2,1:2:0:0:
204,197,63390,1,2,3:2:0:0:
307,29,63562,6,0,P|354:17|427:68,1,136.799995825195,2|0,1:2|0:0,0:0:0:0:
456,37,63907,2,0,P|442:78|425:157,1,91.199997216797,2|0,3:2|0:0,0:0:0:0:
359,312,64252,2,0,P|340:222|312:135,1,182.399994433594,10|0,0:0|0:0,0:0:0:0:
346,43,64769,1,2,0:0:0:0:
207,183,64942,6,0,B|120:190|158:128|44:139,1,136.799995825195,2|0,3:2|0:0,0:0:0:0:
43,118,65287,2,0,P|58:168|70:228,1,91.199997216797,2|0,3:2|0:0,0:0:0:0:
209,79,65631,2,0,B|253:60|253:60|354:103,1,136.799995825195,10|0,0:0|0:0,0:0:0:0:
368,82,65976,1,2,1:2:0:0:
224,252,66149,6,0,P|179:240|107:226,1,91.199997216797,2|0,3:2|0:0,0:0:0:0:
392,66,66494,2,0,P|436:56|480:45,1,91.199997216797,2|0,3:2|3:0,0:0:0:0:
354,200,66838,1,0,0:0:0:0:
257,99,67011,2,0,P|269:55|283:11,1,91.199997216797,8|0,0:0|0:0,0:0:0:0:
428,149,67356,2,0,P|437:179|446:211,1,45.5999986083985,2|0,0:3|0:0,0:0:0:0:
431,276,67528,1,2,0:0:0:0:
245,118,67700,6,0,B|164:109|201:166|97:156,1,136.799995825195,2|0,3:2|0:0,0:0:0:0:
89,142,68045,1,2,3:2:0:0:
298,11,68218,2,0,P|283:50|270:111,1,91.199997216797,2|8,0:0|0:0,0:0:0:0:
143,4,68562,1,0,0:0:0:0:
315,190,68735,6,0,P|362:191|438:87,1,182.399994433594,2|0,3:2|0:0,0:0:0:0:
395,8,69252,2,0,P|347:55|345:91,1,102.599996868897,2|0,0:0|0:0,0:0:0:0:
347,103,69597,5,2,0:0:0:0:
254,13,69769,2,0,P|219:27|166:38,1,68.3999979125977,2|0,0:0|0:0,0:0:0:0:
349,118,70114,2,0,P|396:131|456:88,1,102.599996868897,2|0,0:0|0:0,0:0:0:0:
458,87,70459,5,6,3:2:0:0:
