osu file format v14

[General]
AudioFilename: audio.mp3
AudioLeadIn: 0
PreviewTime: 33749
Countdown: 0
SampleSet: Soft
StackLeniency: 0.5
Mode: 0
LetterboxInBreaks: 0
WidescreenStoryboard: 0

[Editor]
Bookmarks: 47206
DistanceSpacing: 1
BeatDivisor: 4
GridSize: 4
TimelineZoom: 0.8

[Metadata]
Title:M jak milosc (TV Size)
TitleUnicode:M jak miłość (TV Size)
Artist:Wojciech Gassowski
ArtistUnicode:Wojciech Gąssowski
Creator:SaltKing
Version:Zaawansowany
Source:M jak Miłość
Tags:tvp soap opera opening pop polish polski hanka mostowiak mtj koncert życzeń zyczen 3 krfawy
BeatmapID:1824969
BeatmapSetID:872172

[Difficulty]
HPDrainRate:3.5
CircleSize:3.4
OverallDifficulty:4
ApproachRate:4
SliderMultiplier:1.9
SliderTickRate:1

[Events]
//Background and Video events
0,0,"bg.jpg",0,0
//Break Periods
//Storyboard Layer 0 (Background)
//Storyboard Layer 1 (Fail)
//Storyboard Layer 2 (Pass)
//Storyboard Layer 3 (Foreground)
//Storyboard Sound Samples

[TimingPoints]
76,612.244897959184,4,2,1,45,1,0
34361,-100,4,2,1,60,0,1
39183,-100,4,2,1,60,0,0
39259,-100,4,2,1,60,0,1
44081,-100,4,2,1,60,0,0
44157,-100,4,2,1,60,0,1
53035,-100,4,2,1,25,0,1
53341,-100,4,2,1,60,0,1
53953,-100,4,2,1,45,0,0

[Colours]
Combo1 : 157,104,131
Combo2 : 162,165,90
Combo3 : 119,149,106
Combo4 : 100,124,132

[HitObjects]
59,234,76,6,0,L|50:328,1,95,4|0,3:2|0:0,0:0:0:0:
144,338,688,2,0,L|152:243,1,95,2|0,0:0|3:0,0:0:0:0:
163,53,1606,5,2,0:0:0:0:
219,129,1912,1,8,0:0:0:0:
260,44,2218,2,0,L|392:33,1,95,2|0,0:0|3:0,0:0:0:0:
420,104,2831,1,2,0:0:0:0:
328,124,3137,1,0,3:0:0:0:
393,192,3443,2,0,P|414:253|381:308,1,95,2|0,3:2|3:0,0:0:0:0:
315,249,4055,6,0,L|193:260,2,95,2|8|2,0:0|0:0|0:0,0:0:0:0:
332,342,4973,1,2,3:2:0:0:
237,352,5280,1,2,0:0:0:0:
146,321,5586,2,0,B|124:278|124:278|131:222,1,95,0|2,0:0|3:2,0:0:0:0:
167,45,6504,6,0,L|147:149,1,95,2|8,0:0|0:0,0:0:0:0:
221,201,7116,2,0,L|238:107,1,95,2|0,3:2|3:0,0:0:0:0:
259,14,7729,1,2,0:0:0:0:
330,76,8035,1,0,0:0:0:0:
416,36,8341,2,0,P|420:104|394:149,1,95,2|0,3:2|3:0,0:0:0:0:
324,169,8953,5,2,0:0:0:0:
404,219,9259,1,8,0:0:0:0:
319,262,9565,1,2,0:0:0:0:
399,311,9871,2,0,P|461:297|494:245,1,95,2|0,3:2|0:0,0:0:0:0:
487,184,10484,2,0,P|425:198|389:247,1,95,2|2,0:0|3:2,0:0:0:0:
289,370,11402,5,2,0:0:0:0:
280,275,11708,1,8,0:0:0:0:
199,325,12014,2,0,B|150:340|150:340|86:320,1,95,0|2,3:0|3:2,0:0:0:0:
20,289,12627,1,2,0:0:0:0:
96,232,12933,1,2,3:2:0:0:
10,191,13239,2,0,P|0:137|16:90,1,95,2|8,3:2|0:0,0:0:0:0:
96,140,13851,6,0,L|218:133,2,95,0|0|0,0:0|0:0|0:0,0:0:0:0:
144,221,14769,1,4,3:2:0:0:
239,216,15076,2,0,L|361:209,1,95,0|0,0:0|0:0,0:0:0:0:
428,206,15688,1,2,3:2:0:0:
490,277,15994,2,0,B|451:314|391:295|391:295|329:282|279:327,1,190,2|8,3:2|0:0,0:0:0:0:
232,360,16912,1,0,0:0:0:0:
222,265,17218,6,0,L|208:161,2,95,2|0|2,3:2|0:0|0:0,0:0:0:0:
143,318,18137,2,0,L|129:214,1,95,2|2,3:2|3:2,0:0:0:0:
115,129,18749,1,0,0:0:0:0:
40,188,19055,1,8,0:0:0:0:
29,93,19361,1,0,0:0:0:0:
106,38,19667,6,0,P|181:61|208:135,1,142.5,2|0,3:2|0:0,0:0:0:0:
201,162,20280,1,0,0:0:0:0:
290,129,20586,1,0,3:0:0:0:
378,93,20892,2,0,P|376:174|401:235,1,142.5,2|0,3:2|0:0,0:0:0:0:
435,259,21504,1,8,0:0:0:0:
353,307,21810,2,0,L|249:354,1,95,0|0,0:0|3:0,0:0:0:0:
180,306,22422,5,2,0:0:0:0:
260,254,22729,1,2,0:0:0:0:
178,205,23035,1,0,3:0:0:0:
103,263,23341,2,0,L|54:298,1,47.5,2|0,3:2|0:0,0:0:0:0:
25,318,23647,2,0,L|29:183,1,95,2|8,0:0|0:0,0:0:0:0:
33,127,24259,1,2,0:0:0:0:
117,170,24565,6,0,P|213:174|242:157,1,95,2|2,3:2|0:0,0:0:0:0:
286,119,25178,1,0,0:0:0:0:
380,109,25484,1,2,3:2:0:0:
474,97,25790,2,0,P|461:152|476:216,1,95,2|0,3:2|0:0,0:0:0:0:
499,278,26402,2,0,P|503:325|490:370,2,95,8|0|2,0:0|0:0|3:2,0:0:0:0:
411,315,27320,6,0,B|337:329|337:329|236:296,1,142.5,2|0,0:0|0:0,0:0:0:0:
228,285,27933,1,2,3:2:0:0:
139,251,28239,2,0,P|145:325|127:358,1,95,2|0,3:2|0:0,0:0:0:0:
57,291,28851,2,0,P|51:217|69:184,1,95,8|0,0:0|0:0,0:0:0:0:
147,166,29463,5,2,3:2:0:0:
228,215,29769,2,0,L|229:97,1,95,2|0,0:0|0:0,0:0:0:0:
228,24,30382,1,0,3:0:0:0:
309,72,30688,1,2,3:2:0:0:
391,24,30994,2,0,P|455:22|491:44,1,95,2|8,0:0|0:0,0:0:0:0:
426,113,31606,2,0,L|420:223,1,95,0|2,3:2|3:2,0:0:0:0:
409,302,32218,5,0,0:0:0:0:
331,246,32524,1,0,3:0:0:0:
318,340,32831,1,2,3:2:0:0:
243,280,33137,2,0,P|158:273|112:294,1,95,2|0,3:2|0:0,0:0:0:0:
84,343,33749,5,10,3:2:0:0:
60,251,34055,1,2,0:0:0:0:
36,158,34361,6,0,B|87:142|128:173|128:173|180:211|249:172,1,190,4|10,3:2|0:0,0:0:0:0:
284,117,35280,1,2,0:0:0:0:
299,210,35586,2,0,L|313:333,1,95,2|0,3:2|0:0,0:0:0:0:
402,332,36198,2,0,L|391:237,1,95,10|0,0:0|0:0,0:0:0:0:
377,143,36810,5,2,3:2:0:0:
467,172,37116,1,2,0:0:0:0:
446,79,37422,1,10,0:0:0:0:
406,52,37576,2,0,P|334:56|305:84,1,95
281,98,38035,2,0,P|239:119|192:114,1,95,2|0,3:2|0:0,0:0:0:0:
120,53,38647,5,10,0:0:0:0:
101,146,38953,1,2,0:0:0:0:
73,237,39259,6,0,P|118:304|139:226,1,190,2|10,3:2|0:0,0:0:0:0:
182,149,40178,1,2,0:0:0:0:
234,228,40484,2,0,P|276:276|337:285,1,95,2|0,3:2|0:0,0:0:0:0:
392,249,41096,2,0,P|350:201|289:192,1,95,10|0,0:0|3:0,0:0:0:0:
248,130,41708,5,2,3:2:0:0:
335,93,42014,1,2,3:2:0:0:
378,75,42167,2,0,L|475:34,1,95
453,136,42780,2,0,L|307:197,1,142.5
232,224,43545,5,10,0:0:0:0:
307,281,43851,1,0,0:0:0:0:
220,320,44157,6,0,B|169:304|152:287|136:239|136:239|103:273|59:273,1,190,2|10,3:2|0:0,0:0:0:0:
62,177,45076,1,2,3:2:0:0:
147,135,45382,2,0,P|225:140|271:121,1,95,2|0,3:2|0:0,0:0:0:0:
306,68,45994,2,0,P|352:60|399:68,1,95,10|0,0:0|3:0,0:0:0:0:
453,146,46606,5,2,3:2:0:0:
358,157,46912,1,2,0:0:0:0:
415,232,47218,1,10,0:0:0:0:
373,255,47371,2,0,P|315:244|274:205,1,95,2|0,0:0|0:0,0:0:0:0:
250,192,47831,2,0,L|242:314,1,95,0|0,3:0|0:0,0:0:0:0:
236,381,48443,1,10,0:0:0:0:
159,324,48749,1,0,3:0:0:0:
73,365,49055,6,0,P|65:298|143:229,1,142.5,2|0,3:2|0:0,0:0:0:0:
153,225,49667,2,0,L|143:96,1,95,10|0,0:0|0:0,0:0:0:0:
137,35,50280,1,2,3:2:0:0:
226,67,50586,1,2,0:0:0:0:
312,105,50892,2,0,P|264:151|201:150,1,95,10|0,0:0|3:0,0:0:0:0:
145,130,51504,5,2,3:2:0:0:
169,221,51810,1,2,0:0:0:0:
76,197,52116,1,10,0:0:0:0:
102,288,52422,2,0,P|154:316|215:303,2,95,2|0|4,3:2|3:0|0:0,0:0:0:0:
10,262,53341,1,2,0:0:0:0:
194,217,53953,6,0,L|352:192,2,142.5,4|2|2,3:2|0:0|0:0,0:0:0:0:
152,131,55178,2,0,L|269:112,1,95,2|0,3:2|0:0,0:0:0:0:
338,95,55790,1,8,0:0:0:0:
419,143,56096,1,0,3:0:0:0:
414,237,56402,6,0,B|397:303|432:356|432:356|339:338|339:338,1,190,2|2,3:2|3:2,0:0:0:0:
274,321,57320,1,2,0:0:0:0:
181,296,57627,2,0,P|100:335|57:323,1,95,2|0,3:2|0:0,0:0:0:0:
15,288,58239,1,8,0:0:0:0:
98,242,58545,1,2,3:2:0:0:
185,203,58851,6,0,P|133:150|53:159,2,142.5,2|2|2,3:2|0:0|0:0,0:0:0:0:
181,296,60076,2,0,L|295:261,1,95,2|0,3:2|0:0,0:0:0:0:
362,239,60688,1,8,0:0:0:0:
349,333,60994,1,2,3:2:0:0:
435,293,61300,6,0,B|458:245|438:200|438:200|415:153|438:95,1,190,0|2,3:0|0:0,0:0:0:0:
467,20,62218,2,0,L|367:35,1,95,0|2,3:0|3:2,0:0:0:0:
280,56,62831,1,2,0:0:0:0:
342,127,63137,1,8,0:0:0:0:
248,144,63443,1,2,0:0:0:0:
187,70,63749,6,0,P|89:63|15:93,2,142.5,2|2|2,3:2|0:0|0:0,0:0:0:0:
190,164,64973,2,0,P|120:179|50:169,2,142.5,2|0|2,3:2|0:0|0:2,0:0:0:0:
274,120,66198,2,0,B|349:98|386:44|386:44|396:125|491:175,1,285,2|2,3:2|0:0,0:0:0:0:
446,253,67422,2,0,L|415:354,1,95,0|2,3:0|3:2,0:0:0:0:
324,359,68035,1,8,0:0:0:0:
354,269,68341,1,2,3:2:0:0:
304,188,68647,6,0,B|306:146|319:119|319:119|303:87|302:35,2,142.5,2|2|2,3:2|0:0|0:0,0:0:0:0:
209,188,69871,2,0,B|207:146|194:119|194:119|210:87|211:35,2,142.5,0|2|2,3:0|0:0|0:0,0:0:0:0:
187,280,71096,2,0,B|228:295|257:274|257:274|301:298|346:267,2,142.5,2|2|0,3:2|3:2|0:0,0:0:0:0:
209,188,72320,1,2,3:2:0:0:
